  0
SECTION
  2
HEADER
  9
$ACADVER
  1
AC1015
  9
$ACADMAINTVER
 70
     6
  9
$DWGCODEPAGE
  3
ANSI_932
  9
$INSBASE
 10
0.0
 20
0.0
 30
0.0
  9
$EXTMIN
 10
-73.0
 20
-74.0
 30
0.0
  9
$EXTMAX
 10
137.0
 20
74.00000000000001
 30
0.0
  9
$LIMMIN
 10
0.0
 20
0.0
  9
$LIMMAX
 10
420.0
 20
297.0
  9
$ORTHOMODE
 70
     0
  9
$REGENMODE
 70
     1
  9
$FILLMODE
 70
     1
  9
$QTEXTMODE
 70
     0
  9
$MIRRTEXT
 70
     1
  9
$LTSCALE
 40
4.8
  9
$ATTMODE
 70
     1
  9
$TEXTSIZE
 40
2.5
  9
$TRACEWID
 40
1.0
  9
$TEXTSTYLE
  7
BMG_TEXT
  9
$CLAYER
  8
CUT
  9
$CELTYPE
  6
BYLAYER
  9
$CECOLOR
 62
   256
  9
$CELTSCALE
 40
1.0
  9
$DISPSILH
 70
     0
  9
$DIMSCALE
 40
1.0
  9
$DIMASZ
 40
5.0
  9
$DIMEXO
 40
0.5
  9
$DIMDLI
 40
1.0
  9
$DIMRND
 40
0.0
  9
$DIMDLE
 40
0.0
  9
$DIMEXE
 40
1.25
  9
$DIMTP
 40
0.0
  9
$DIMTM
 40
0.0
  9
$DIMTXT
 40
3.5
  9
$DIMCEN
 40
0.0
  9
$DIMTSZ
 40
0.0
  9
$DIMTOL
 70
     0
  9
$DIMLIM
 70
     0
  9
$DIMTIH
 70
     0
  9
$DIMTOH
 70
     1
  9
$DIMSE1
 70
     0
  9
$DIMSE2
 70
     0
  9
$DIMTAD
 70
     3
  9
$DIMZIN
 70
     8
  9
$DIMBLK
  1

  9
$DIMASO
 70
     1
  9
$DIMSHO
 70
     1
  9
$DIMPOST
  1

  9
$DIMAPOST
  1

  9
$DIMALT
 70
     0
  9
$DIMALTD
 70
     4
  9
$DIMALTF
 40
0.03937
  9
$DIMLFAC
 40
1.0
  9
$DIMTOFL
 70
     1
  9
$DIMTVP
 40
0.0
  9
$DIMTIX
 70
     0
  9
$DIMSOXD
 70
     0
  9
$DIMSAH
 70
     0
  9
$DIMBLK1
  1

  9
$DIMBLK2
  1

  9
$DIMSTYLE
  2
ISO13399対応
  9
$DIMCLRD
 70
   256
  9
$DIMCLRE
 70
   256
  9
$DIMCLRT
 70
   256
  9
$DIMTFAC
 40
1.0
  9
$DIMGAP
 40
0.5
  9
$DIMJUST
 70
     0
  9
$DIMSD1
 70
     0
  9
$DIMSD2
 70
     0
  9
$DIMTOLJ
 70
     0
  9
$DIMTZIN
 70
     0
  9
$DIMALTZ
 70
     0
  9
$DIMALTTZ
 70
     0
  9
$DIMUPT
 70
     0
  9
$DIMDEC
 70
     3
  9
$DIMTDEC
 70
     2
  9
$DIMALTU
 70
     2
  9
$DIMALTTD
 70
     4
  9
$DIMTXSTY
  7
BMG_TEXT
  9
$DIMAUNIT
 70
     0
  9
$DIMADEC
 70
     0
  9
$DIMALTRND
 40
0.0
  9
$DIMAZIN
 70
     2
  9
$DIMDSEP
 70
    46
  9
$DIMATFIT
 70
     3
  9
$DIMFRAC
 70
     0
  9
$DIMLDRBLK
  1
OPEN30
  9
$DIMLUNIT
 70
     2
  9
$DIMLWD
 70
    -1
  9
$DIMLWE
 70
    -1
  9
$DIMTMOVE
 70
     1
  9
$LUNITS
 70
     2
  9
$LUPREC
 70
     4
  9
$SKETCHINC
 40
1.0
  9
$FILLETRAD
 40
10.0
  9
$AUNITS
 70
     0
  9
$AUPREC
 70
     0
  9
$MENU
  1
.
  9
$ELEVATION
 40
0.0
  9
$PELEVATION
 40
0.0
  9
$THICKNESS
 40
0.0
  9
$LIMCHECK
 70
     0
  9
$CHAMFERA
 40
10.0
  9
$CHAMFERB
 40
10.0
  9
$CHAMFERC
 40
20.0
  9
$CHAMFERD
 40
0.0
  9
$SKPOLY
 70
     0
  9
$TDCREATE
 40
2458499.73125
  9
$TDUCREATE
 40
2458499.35625
  9
$TDUPDATE
 40
2458880.492239872
  9
$TDUUPDATE
 40
2458880.117239872
  9
$TDINDWG
 40
0.0252767824
  9
$TDUSRTIMER
 40
0.0001780093
  9
$USRTIMER
 70
     1
  9
$ANGBASE
 50
0.0
  9
$ANGDIR
 70
     0
  9
$PDMODE
 70
     0
  9
$PDSIZE
 40
0.0
  9
$PLINEWID
 40
0.0
  9
$SPLFRAME
 70
     0
  9
$SPLINETYPE
 70
     6
  9
$SPLINESEGS
 70
     8
  9
$HANDSEED
  5
C1A
  9
$SURFTAB1
 70
     6
  9
$SURFTAB2
 70
     6
  9
$SURFTYPE
 70
     6
  9
$SURFU
 70
     6
  9
$SURFV
 70
     6
  9
$UCSBASE
  2

  9
$UCSNAME
  2

  9
$UCSORG
 10
0.0
 20
0.0
 30
0.0
  9
$UCSXDIR
 10
1.0
 20
0.0
 30
0.0
  9
$UCSYDIR
 10
0.0
 20
1.0
 30
0.0
  9
$UCSORTHOREF
  2

  9
$UCSORTHOVIEW
 70
     1
  9
$UCSORGTOP
 10
0.0
 20
0.0
 30
0.0
  9
$UCSORGBOTTOM
 10
0.0
 20
0.0
 30
0.0
  9
$UCSORGLEFT
 10
0.0
 20
0.0
 30
0.0
  9
$UCSORGRIGHT
 10
0.0
 20
0.0
 30
0.0
  9
$UCSORGFRONT
 10
0.0
 20
0.0
 30
0.0
  9
$UCSORGBACK
 10
0.0
 20
0.0
 30
0.0
  9
$PUCSBASE
  2

  9
$PUCSNAME
  2

  9
$PUCSORG
 10
0.0
 20
0.0
 30
0.0
  9
$PUCSXDIR
 10
1.0
 20
0.0
 30
0.0
  9
$PUCSYDIR
 10
0.0
 20
1.0
 30
0.0
  9
$PUCSORTHOREF
  2

  9
$PUCSORTHOVIEW
 70
     0
  9
$PUCSORGTOP
 10
0.0
 20
0.0
 30
0.0
  9
$PUCSORGBOTTOM
 10
0.0
 20
0.0
 30
0.0
  9
$PUCSORGLEFT
 10
0.0
 20
0.0
 30
0.0
  9
$PUCSORGRIGHT
 10
0.0
 20
0.0
 30
0.0
  9
$PUCSORGFRONT
 10
0.0
 20
0.0
 30
0.0
  9
$PUCSORGBACK
 10
0.0
 20
0.0
 30
0.0
  9
$USERI1
 70
     0
  9
$USERI2
 70
     0
  9
$USERI3
 70
     0
  9
$USERI4
 70
     0
  9
$USERI5
 70
     0
  9
$USERR1
 40
0.0
  9
$USERR2
 40
0.0
  9
$USERR3
 40
0.0
  9
$USERR4
 40
0.0
  9
$USERR5
 40
0.0
  9
$WORLDVIEW
 70
     1
  9
$SHADEDGE
 70
     3
  9
$SHADEDIF
 70
    70
  9
$TILEMODE
 70
     1
  9
$MAXACTVP
 70
    64
  9
$PINSBASE
 10
0.0
 20
0.0
 30
0.0
  9
$PLIMCHECK
 70
     0
  9
$PEXTMIN
 10
1.000000000000000E+20
 20
1.000000000000000E+20
 30
1.000000000000000E+20
  9
$PEXTMAX
 10
-1.000000000000000E+20
 20
-1.000000000000000E+20
 30
-1.000000000000000E+20
  9
$PLIMMIN
 10
0.0
 20
0.0
  9
$PLIMMAX
 10
0.0
 20
0.0
  9
$UNITMODE
 70
     0
  9
$VISRETAIN
 70
     1
  9
$PLINEGEN
 70
     0
  9
$PSLTSCALE
 70
     1
  9
$TREEDEPTH
 70
  3020
  9
$CMLSTYLE
  2
STANDARD
  9
$CMLJUST
 70
     0
  9
$CMLSCALE
 40
20.0
  9
$PROXYGRAPHICS
 70
     1
  9
$MEASUREMENT
 70
     1
  9
$CELWEIGHT
370
    -1
  9
$ENDCAPS
280
     0
  9
$JOINSTYLE
280
     0
  9
$LWDISPLAY
290
     0
  9
$INSUNITS
 70
     4
  9
$HYPERLINKBASE
  1

  9
$STYLESHEET
  1

  9
$XEDIT
290
     1
  9
$CEPSNTYPE
380
     0
  9
$PSTYLEMODE
290
     1
  9
$FINGERPRINTGUID
  2
{23D3308B-FBB7-46B6-B2AB-AB164B3E44AB}
  9
$VERSIONGUID
  2
{FAEB1C32-E019-11D5-929B-00C0DF256EC4}
  9
$EXTNAMES
290
     1
  9
$PSVPSCALE
 40
0.0
  9
$OLESTARTUP
290
     0
  0
ENDSEC
  0
SECTION
  2
CLASSES
  0
CLASS
  1
ACDBDICTIONARYWDFLT
  2
AcDbDictionaryWithDefault
  3
ObjectDBX Classes
 90
        0
280
     0
281
     0
  0
CLASS
  1
VISUALSTYLE
  2
AcDbVisualStyle
  3
ObjectDBX Classes
 90
     4095
280
     0
281
     0
  0
CLASS
  1
MATERIAL
  2
AcDbMaterial
  3
ObjectDBX Classes
 90
     1153
280
     0
281
     0
  0
CLASS
  1
SCALE
  2
AcDbScale
  3
ObjectDBX Classes
 90
     1153
280
     0
281
     0
  0
CLASS
  1
DICTIONARYVAR
  2
AcDbDictionaryVar
  3
ObjectDBX Classes
 90
        0
280
     0
281
     0
  0
CLASS
  1
XRECORD
  2
AcDbXrecord
  3
ObjectDBX Classes
 90
        0
280
     0
281
     0
  0
CLASS
  1
LWPOLYLINE
  2
AcDbPolyline
  3
ObjectDBX Classes
 90
        0
280
     0
281
     1
  0
CLASS
  1
HATCH
  2
AcDbHatch
  3
ObjectDBX Classes
 90
        0
280
     0
281
     1
  0
CLASS
  1
ACDBPLACEHOLDER
  2
AcDbPlaceHolder
  3
ObjectDBX Classes
 90
        0
280
     0
281
     0
  0
CLASS
  1
LAYOUT
  2
AcDbLayout
  3
ObjectDBX Classes
 90
        0
280
     0
281
     0
  0
CLASS
  1
TABLESTYLE
  2
AcDbTableStyle
  3
ObjectDBX Classes
 90
     4095
280
     0
281
     0
  0
CLASS
  1
MLEADERSTYLE
  2
AcDbMLeaderStyle
  3
ACDB_MLEADERSTYLE_CLASS
 90
     4095
280
     0
281
     0
  0
CLASS
  1
CELLSTYLEMAP
  2
AcDbCellStyleMap
  3
ObjectDBX Classes
 90
     1152
280
     0
281
     0
  0
CLASS
  1
SUN
  2
AcDbSun
  3
SCENEOE
 90
     1153
280
     0
281
     0
  0
CLASS
  1
DIMASSOC
  2
AcDbDimAssoc
  3
"AcDbDimAssoc|Product Desc:     AcDim ARX App For Dimension|Company:          Autodesk, Inc.|WEB Address:      www.autodesk.com"
 90
        0
280
     0
281
     0
  0
CLASS
  1
RASTERVARIABLES
  2
AcDbRasterVariables
  3
ISM
 90
        0
280
     0
281
     0
  0
ENDSEC
  0
SECTION
  2
TABLES
  0
TABLE
  2
VPORT
  5
8
330
0
100
AcDbSymbolTable
 70
     1
  0
VPORT
  5
29
330
8
100
AcDbSymbolTableRecord
100
AcDbViewportTableRecord
  2
*ACTIVE
 70
     0
 10
0.0
 20
0.0
 11
1.0
 21
1.0
 12
32.0
 22
0.0
 13
0.0
 23
0.0
 14
10.0
 24
10.0
 15
10.0
 25
10.0
 16
0.0
 26
0.0
 36
1.0
 17
0.0
 27
0.0
 37
0.0
 40
150.96
 41
2.207920792079208
 42
50.0
 43
0.0
 44
0.0
 50
0.0
 51
0.0
 71
    16
 72
   100
 73
     1
 74
     3
 75
     0
 76
     0
 77
     0
 78
     0
281
     0
 65
     1
110
0.0
120
0.0
130
0.0
111
1.0
121
0.0
131
0.0
112
0.0
122
1.0
132
0.0
 79
     1
146
0.0
  0
ENDTAB
  0
TABLE
  2
LTYPE
  5
5
330
0
100
AcDbSymbolTable
 70
    14
  0
LTYPE
  5
14
330
5
100
AcDbSymbolTableRecord
100
AcDbLinetypeTableRecord
  2
BYBLOCK
 70
     0
  3

 72
    65
 73
     0
 40
0.0
  0
LTYPE
  5
15
330
5
100
AcDbSymbolTableRecord
100
AcDbLinetypeTableRecord
  2
BYLAYER
 70
     0
  3
Solid line
 72
    65
 73
     0
 40
0.0
  0
LTYPE
  5
16
330
5
100
AcDbSymbolTableRecord
100
AcDbLinetypeTableRecord
  2
CONTINUOUS
 70
     0
  3
Solid line
 72
    65
 73
     0
 40
0.0
  0
LTYPE
  5
45
330
5
100
AcDbSymbolTableRecord
100
AcDbLinetypeTableRecord
  2
PHL_THICK
 70
     0
  3
THICK
 72
    65
 73
     0
 40
0.0
  0
LTYPE
  5
55
330
5
100
AcDbSymbolTableRecord
100
AcDbLinetypeTableRecord
  2
CUT
 70
     0
  3
THICK
 72
    65
 73
     0
 40
0.0
  0
LTYPE
  5
5D
330
5
100
AcDbSymbolTableRecord
100
AcDbLinetypeTableRecord
  2
NOCUT
 70
     0
  3
THICK
 72
    65
 73
     0
 40
0.0
  0
LTYPE
  5
63
330
5
100
AcDbSymbolTableRecord
100
AcDbLinetypeTableRecord
  2
SK1
 70
     0
  3
THICK
 72
    65
 73
     0
 40
0.0
  0
LTYPE
  5
6B
330
5
100
AcDbSymbolTableRecord
100
AcDbLinetypeTableRecord
  2
LS_SK2
 70
     0
  3
THIN
 72
    65
 73
     0
 40
0.0
  0
LTYPE
  5
118
330
5
100
AcDbSymbolTableRecord
100
AcDbLinetypeTableRecord
  2
LS_2
 70
     0
  3
THIN
 72
    65
 73
     0
 40
0.0
  0
LTYPE
  5
1E1
330
5
100
AcDbSymbolTableRecord
100
AcDbLinetypeTableRecord
  2
LS_SK1
 70
     0
  3
THICK
 72
    65
 73
     0
 40
0.0
  0
LTYPE
  5
21B
330
5
100
AcDbSymbolTableRecord
100
AcDbLinetypeTableRecord
  2
LONGDASH_DASH
 70
     0
  3
THIN_DASHDOT
 72
    65
 73
     4
 40
0.85
 49
0.4
 74
     0
 49
-0.2
 74
     0
 49
0.05
 74
     0
 49
-0.2
 74
     0
  0
LTYPE
  5
414
330
5
100
AcDbSymbolTableRecord
100
AcDbLinetypeTableRecord
  2
HIDDEN
 70
     0
  3
Hidden __ __ __ __ __ __ __ __ __ __ __ __ __ __
 72
    65
 73
     2
 40
1.905
 49
1.27
 74
     0
 49
-0.635
 74
     0
  0
LTYPE
  5
415
330
5
100
AcDbSymbolTableRecord
100
AcDbLinetypeTableRecord
  2
PHANTOM
 70
     0
  3
Phantom ______  __  __  ______  __  __  ______
 72
    65
 73
     6
 40
12.7
 49
6.35
 74
     0
 49
-1.27
 74
     0
 49
1.27
 74
     0
 49
-1.27
 74
     0
 49
1.27
 74
     0
 49
-1.27
 74
     0
  0
LTYPE
  5
416
330
5
100
AcDbSymbolTableRecord
100
AcDbLinetypeTableRecord
  2
CENTER
 70
     0
  3
Center ____ _ ____ _ ____ _ ____ _ ____ _ ____
 72
    65
 73
     4
 40
10.16
 49
6.35
 74
     0
 49
-1.27
 74
     0
 49
1.27
 74
     0
 49
-1.27
 74
     0
  0
LTYPE
  5
417
330
5
100
AcDbSymbolTableRecord
100
AcDbLinetypeTableRecord
  2
CENTERX2
 70
     0
  3
Center (2x) ________  __  ________  __  _____
 72
    65
 73
     4
 40
20.32
 49
12.7
 74
     0
 49
-2.54
 74
     0
 49
2.54
 74
     0
 49
-2.54
 74
     0
  0
LTYPE
  5
418
330
5
100
AcDbSymbolTableRecord
100
AcDbLinetypeTableRecord
  2
DOT2
 70
     0
  3
Dot (.5x) ........................................
 72
    65
 73
     2
 40
0.635
 49
0.0
 74
     0
 49
-0.635
 74
     0
  0
ENDTAB
  0
TABLE
  2
LAYER
  5
2
102
{ACAD_XDICTIONARY
360
472
102
}
330
0
100
AcDbSymbolTable
 70
    11
  0
LAYER
  5
10
330
2
100
AcDbSymbolTableRecord
100
AcDbLayerTableRecord
  2
0
 70
     0
 62
     7
  6
CONTINUOUS
370
    -3
390
3F6
  0
LAYER
  5
44
330
2
100
AcDbSymbolTableRecord
100
AcDbLayerTableRecord
  2
1
 70
     0
 62
     4
  6
CONTINUOUS
370
    50
390
3F6
  0
LAYER
  5
54
330
2
100
AcDbSymbolTableRecord
100
AcDbLayerTableRecord
  2
CUT
 70
     0
 62
     1
  6
CONTINUOUS
370
    25
390
3F6
  0
LAYER
  5
5C
330
2
100
AcDbSymbolTableRecord
100
AcDbLayerTableRecord
  2
NOCUT
 70
     0
 62
     7
  6
CONTINUOUS
370
    25
390
3F6
  0
LAYER
  5
62
330
2
100
AcDbSymbolTableRecord
100
AcDbLayerTableRecord
  2
SK1
 70
     0
 62
     4
  6
CONTINUOUS
370
    50
390
3F6
  0
LAYER
  5
6A
330
2
100
AcDbSymbolTableRecord
100
AcDbLayerTableRecord
  2
SK2
 70
     0
 62
     7
  6
CONTINUOUS
370
    25
390
3F6
  0
LAYER
  5
117
330
2
100
AcDbSymbolTableRecord
100
AcDbLayerTableRecord
  2
2
 70
     0
 62
     7
  6
CONTINUOUS
370
    25
390
3F6
  0
LAYER
  5
21A
330
2
100
AcDbSymbolTableRecord
100
AcDbLayerTableRecord
  2
4
 70
     0
 62
     2
  6
LONGDASH_DASH
370
    25
390
3F6
  0
LAYER
  5
21D
330
2
100
AcDbSymbolTableRecord
100
AcDbLayerTableRecord
  2
SK4
 70
     0
 62
     2
  6
LONGDASH_DASH
370
    25
390
3F6
  0
LAYER
  5
9FE
330
2
100
AcDbSymbolTableRecord
100
AcDbLayerTableRecord
  2
INFTOTAL
 70
     0
 62
     9
  6
CONTINUOUS
370
    25
390
3F6
1001
AcAecLayerStandard
1000

1000

  0
ENDTAB
  0
TABLE
  2
STYLE
  5
3
330
0
100
AcDbSymbolTable
 70
     5
  0
STYLE
  5
11
330
3
100
AcDbSymbolTableRecord
100
AcDbTextStyleTableRecord
  2
STANDARD
 70
     0
 40
0.0
 41
1.0
 50
0.0
 71
     0
 42
2.5
  3
Monospac821 BT
  4

  0
STYLE
  5
41C
330
3
100
AcDbSymbolTableRecord
100
AcDbTextStyleTableRecord
  2
MX_NOTE_STANDARD
 70
     0
 40
0.0
 41
1.0
 50
0.0
 71
     0
 42
2.5
  3
txt.shx
  4
extfont.shx
  0
STYLE
  5
8AD
330
3
100
AcDbSymbolTableRecord
100
AcDbTextStyleTableRecord
  2
ISO13399対応
 70
     0
 40
0.0
 41
1.0
 50
0.0
 71
     0
 42
2.5
  3
bahnschrift.ttf
  4

1001
ACAD
1000
Bahnschrift
1071
        0
  0
STYLE
  5
8F4
330
3
100
AcDbSymbolTableRecord
100
AcDbTextStyleTableRecord
  2
TEXTSTYLE_2
 70
     0
 40
0.0
 41
1.0
 50
0.0
 71
     0
 42
2.5
  3
monos.ttf
  4

  0
STYLE
  5
B02
330
3
100
AcDbSymbolTableRecord
100
AcDbTextStyleTableRecord
  2
BMG_TEXT
 70
     0
 40
3.5
 41
1.0
 50
0.0
 71
     0
 42
2.5
  3
Monos.ttf
  4

1001
ACAD
1000
Monospac821 BT
1071
       49
  0
ENDTAB
  0
TABLE
  2
VIEW
  5
6
330
0
100
AcDbSymbolTable
 70
     0
  0
ENDTAB
  0
TABLE
  2
UCS
  5
7
330
0
100
AcDbSymbolTable
 70
     0
  0
ENDTAB
  0
TABLE
  2
APPID
  5
9
330
0
100
AcDbSymbolTable
 70
     9
  0
APPID
  5
12
330
9
100
AcDbSymbolTableRecord
100
AcDbRegAppTableRecord
  2
ACAD
 70
     0
  0
APPID
  5
3F
330
9
100
AcDbSymbolTableRecord
100
AcDbRegAppTableRecord
  2
CCLAB
 70
     0
  0
APPID
  5
408
330
9
100
AcDbSymbolTableRecord
100
AcDbRegAppTableRecord
  2
ACAD_MLEADERVER
 70
     0
  0
APPID
  5
423
330
9
100
AcDbSymbolTableRecord
100
AcDbRegAppTableRecord
  2
ACAD_DSTYLE_DIMBREAK
 70
     0
  0
APPID
  5
424
330
9
100
AcDbSymbolTableRecord
100
AcDbRegAppTableRecord
  2
ACAD_DSTYLE_DIMRADIAL_EXTENSION
 70
     0
  0
APPID
  5
425
330
9
100
AcDbSymbolTableRecord
100
AcDbRegAppTableRecord
  2
PLOTTRANSPARENCY
 70
     0
  0
APPID
  5
9FF
330
9
100
AcDbSymbolTableRecord
100
AcDbRegAppTableRecord
  2
AcAecLayerStandard
 70
     0
  0
APPID
  5
B03
330
9
100
AcDbSymbolTableRecord
100
AcDbRegAppTableRecord
  2
ACAD_NAV_VCDISPLAY
 70
     0
  0
APPID
  5
B04
330
9
100
AcDbSymbolTableRecord
100
AcDbRegAppTableRecord
  2
ACAD_DSTYLE_DIMINSPECT
 70
     0
  0
ENDTAB
  0
TABLE
  2
DIMSTYLE
  5
A
330
0
100
AcDbSymbolTable
 70
     5
100
AcDbDimStyleTable
  0
DIMSTYLE
105
27
330
A
100
AcDbSymbolTableRecord
100
AcDbDimStyleTableRecord
  2
ISO-25
 70
     0
 41
2.5
 42
0.625
 43
3.75
 44
1.25
 73
     0
 74
     0
 77
     1
 78
     8
140
2.5
141
2.5
143
0.03937007874016
147
0.625
171
     3
172
     1
178
     0
271
     2
272
     2
274
     3
283
     0
284
     8
340
11
  0
DIMSTYLE
105
41B
330
A
100
AcDbSymbolTableRecord
100
AcDbDimStyleTableRecord
  2
MXDIMSTYLE
 70
     0
 41
0.5
 42
0.5
 43
1.0
 44
1.0
 73
     0
 77
     3
 78
     8
 79
     2
140
1.0
141
2.5
143
0.03937
147
0.5
171
     4
172
     1
173
     1
176
   256
177
   256
271
     3
178
   256
271
     3
272
     2
274
     4
279
     2
283
     0
340
41C
341
41D
343
41D
344
41D
371
    -1
372
    -1
1001
ACAD_DSTYLE_DIMBREAK
1070
   391
1040
1.0
  0
DIMSTYLE
105
8BC
102
{ACAD_REACTORS
330
A9F
330
AC5
330
B3D
330
B4D
330
B5C
102
}
330
A
100
AcDbSymbolTableRecord
100
AcDbDimStyleTableRecord
  2
ISO13399対応
 70
     0
 41
5.0
 42
0.5
 43
1.0
 44
1.25
 73
     0
 77
     3
 78
     8
 79
     2
140
3.5
141
0.0
143
0.03937
147
0.5
171
     4
172
     1
176
   256
177
   256
271
     3
178
   256
271
     3
272
     2
274
     4
279
     1
283
     0
340
B02
341
41D
371
    -1
372
    -1
1001
ACAD_DSTYLE_DIMBREAK
1070
   391
1040
1.0
  0
DIMSTYLE
105
8ED
330
A
100
AcDbSymbolTableRecord
100
AcDbDimStyleTableRecord
  2
STANDARD
 70
     0
 41
3.0
 42
0.0
 44
2.0
 47
0.001
 48
0.001
 71
     1
 73
     0
 74
     0
 77
     1
 78
     8
140
3.5
147
0.625
271
     3
178
     5
271
     3
272
     3
284
     8
340
11
341
8EF
342
8EF
343
8EF
344
8EF
  0
DIMSTYLE
105
8F3
330
A
100
AcDbSymbolTableRecord
100
AcDbDimStyleTableRecord
  2
DIMSTYLE_5
 70
     0
  3
<>
 41
3.0
 42
0.0
 44
2.0
 47
0.5
 48
0.5
 73
     0
 74
     0
 77
     1
 78
     8
140
3.5
147
0.625
271
     3
178
     5
271
     3
272
     3
284
     8
340
8F4
341
8EF
342
8EF
343
8EF
344
8EF
  0
ENDTAB
  0
TABLE
  2
BLOCK_RECORD
  5
1
330
0
100
AcDbSymbolTable
 70
    29
  0
BLOCK_RECORD
  5
1F
330
1
100
AcDbSymbolTableRecord
100
AcDbBlockTableRecord
  2
*MODEL_SPACE
340
3F7
  0
BLOCK_RECORD
  5
1B
330
1
100
AcDbSymbolTableRecord
100
AcDbBlockTableRecord
  2
*PAPER_SPACE
340
3F8
  0
BLOCK_RECORD
  5
412
330
1
100
AcDbSymbolTableRecord
100
AcDbBlockTableRecord
  2
8549544 VU-TBR R0.5×R150×20°
340
0
  0
BLOCK_RECORD
  5
41D
330
1
100
AcDbSymbolTableRecord
100
AcDbBlockTableRecord
  2
_OPEN30
340
0
  0
BLOCK_RECORD
  5
6F2
330
1
100
AcDbSymbolTableRecord
100
AcDbBlockTableRecord
  2
*D2
340
0
  0
BLOCK_RECORD
  5
867
330
1
100
AcDbSymbolTableRecord
100
AcDbBlockTableRecord
  2
*D3
340
0
  0
BLOCK_RECORD
  5
88C
330
1
100
AcDbSymbolTableRecord
100
AcDbBlockTableRecord
  2
*D4
340
0
  0
BLOCK_RECORD
  5
89E
330
1
100
AcDbSymbolTableRecord
100
AcDbBlockTableRecord
  2
*D5
340
0
  0
BLOCK_RECORD
  5
8B2
330
1
100
AcDbSymbolTableRecord
100
AcDbBlockTableRecord
  2
*D6
340
0
  0
BLOCK_RECORD
  5
8C9
330
1
100
AcDbSymbolTableRecord
100
AcDbBlockTableRecord
  2
*D7
340
0
  0
BLOCK_RECORD
  5
8D5
330
1
100
AcDbSymbolTableRecord
100
AcDbBlockTableRecord
  2
*D8
340
0
  0
BLOCK_RECORD
  5
8E1
330
1
100
AcDbSymbolTableRecord
100
AcDbBlockTableRecord
  2
*D9
340
0
  0
BLOCK_RECORD
  5
8EF
330
1
100
AcDbSymbolTableRecord
100
AcDbBlockTableRecord
  2
_FILLED
340
0
102
{BLKREFS
331
918
331
927
102
}
  0
BLOCK_RECORD
  5
914
330
1
100
AcDbSymbolTableRecord
100
AcDbBlockTableRecord
  2
*D11
340
0
  0
BLOCK_RECORD
  5
922
330
1
100
AcDbSymbolTableRecord
100
AcDbBlockTableRecord
  2
*D12
340
0
  0
BLOCK_RECORD
  5
934
330
1
100
AcDbSymbolTableRecord
100
AcDbBlockTableRecord
  2
*D13
340
0
  0
BLOCK_RECORD
  5
941
330
1
100
AcDbSymbolTableRecord
100
AcDbBlockTableRecord
  2
*D14
340
0
  0
BLOCK_RECORD
  5
94E
330
1
100
AcDbSymbolTableRecord
100
AcDbBlockTableRecord
  2
*D15
340
0
  0
BLOCK_RECORD
  5
98F
330
1
100
AcDbSymbolTableRecord
100
AcDbBlockTableRecord
  2
*D16
340
0
  0
BLOCK_RECORD
  5
A4A
330
1
100
AcDbSymbolTableRecord
100
AcDbBlockTableRecord
  2
*D17
340
0
  0
BLOCK_RECORD
  5
A77
330
1
100
AcDbSymbolTableRecord
100
AcDbBlockTableRecord
  2
*D18
340
0
  0
BLOCK_RECORD
  5
A8B
330
1
100
AcDbSymbolTableRecord
100
AcDbBlockTableRecord
  2
*D19
340
0
  0
BLOCK_RECORD
  5
AA2
330
1
100
AcDbSymbolTableRecord
100
AcDbBlockTableRecord
  2
*D20
340
0
  0
BLOCK_RECORD
  5
AB3
330
1
100
AcDbSymbolTableRecord
100
AcDbBlockTableRecord
  2
*D21
340
0
  0
BLOCK_RECORD
  5
AC8
330
1
100
AcDbSymbolTableRecord
100
AcDbBlockTableRecord
  2
*D22
340
0
  0
BLOCK_RECORD
  5
B40
330
1
100
AcDbSymbolTableRecord
100
AcDbBlockTableRecord
  2
*D23
340
0
  0
BLOCK_RECORD
  5
B50
330
1
100
AcDbSymbolTableRecord
100
AcDbBlockTableRecord
  2
*D24
340
0
  0
BLOCK_RECORD
  5
B5F
330
1
100
AcDbSymbolTableRecord
100
AcDbBlockTableRecord
  2
*D25
340
0
  0
BLOCK_RECORD
  5
B76
330
1
100
AcDbSymbolTableRecord
100
AcDbBlockTableRecord
  2
*D26
340
0
  0
BLOCK_RECORD
  5
BC1
330
1
100
AcDbSymbolTableRecord
100
AcDbBlockTableRecord
  2
*D27
340
0
  0
BLOCK_RECORD
  5
BD2
330
1
100
AcDbSymbolTableRecord
100
AcDbBlockTableRecord
  2
*D28
340
0
  0
ENDTAB
  0
ENDSEC
  0
SECTION
  2
BLOCKS
  0
BLOCK
  5
20
330
1F
100
AcDbEntity
  8
0
100
AcDbBlockBegin
  2
*MODEL_SPACE
 70
     0
 10
0.0
 20
0.0
 30
0.0
  3
*MODEL_SPACE
  1

  0
ENDBLK
  5
21
330
1F
100
AcDbEntity
  8
0
100
AcDbBlockEnd
  0
BLOCK
  5
1C
330
1B
100
AcDbEntity
 67
     1
  8
0
100
AcDbBlockBegin
  2
*PAPER_SPACE
 70
     0
 10
0.0
 20
0.0
 30
0.0
  3
*PAPER_SPACE
  1

  0
ENDBLK
  5
1D
330
1B
100
AcDbEntity
 67
     1
  8
0
100
AcDbBlockEnd
  0
BLOCK
  5
474
330
412
100
AcDbEntity
  8
0
100
AcDbBlockBegin
  2
8549544 VU-TBR R0.5×R150×20°
 70
     0
 10
0.0
 20
0.0
 30
0.0
  3
8549544 VU-TBR R0.5×R150×20°
  1

  0
ENDBLK
  5
475
330
412
100
AcDbEntity
  8
0
100
AcDbBlockEnd
  0
BLOCK
  5
B6E
330
41D
100
AcDbEntity
  8
0
  6
ByBlock
 62
     0
370
    -2
390
3F6
100
AcDbBlockBegin
  2
_OPEN30
 70
     0
 10
0.0
 20
0.0
 30
0.0
  3
_OPEN30
  1

  0
LINE
  5
B70
330
41D
100
AcDbEntity
  8
0
  6
ByBlock
 62
     0
370
    -2
390
3F6
100
AcDbLine
 10
-1.0
 20
0.267949
 30
0.0
 11
0.0
 21
0.0
 31
0.0
  0
LINE
  5
B71
330
41D
100
AcDbEntity
  8
0
  6
ByBlock
 62
     0
370
    -2
390
3F6
100
AcDbLine
 10
0.0
 20
0.0
 30
0.0
 11
-1.0
 21
-0.267949
 31
0.0
  0
LINE
  5
B72
330
41D
100
AcDbEntity
  8
0
  6
ByBlock
 62
     0
370
    -2
390
3F6
100
AcDbLine
 10
0.0
 20
0.0
 30
0.0
 11
-1.0
 21
0.0
 31
0.0
  0
ENDBLK
  5
B73
330
41D
100
AcDbEntity
  8
0
  6
ByBlock
 62
     0
370
    -2
390
3F6
100
AcDbBlockEnd
  0
BLOCK
  5
6F3
330
6F2
100
AcDbEntity
  8
0
100
AcDbBlockBegin
  2
*D2
 70
     1
 10
0.0
 20
0.0
 30
0.0
  3
*D2
  1

  0
ENDBLK
  5
6F4
330
6F2
100
AcDbEntity
  8
0
100
AcDbBlockEnd
  0
BLOCK
  5
868
330
867
100
AcDbEntity
  8
0
100
AcDbBlockBegin
  2
*D3
 70
     1
 10
0.0
 20
0.0
 30
0.0
  3
*D3
  1

  0
LINE
  5
86A
330
867
100
AcDbEntity
  8
SK1
 62
     0
370
    -2
100
AcDbLine
 10
-13.625
 20
13.0
 30
0.0
 11
-15.59599139897523
 21
13.0
 31
0.0
  0
LINE
  5
86B
330
867
100
AcDbEntity
  8
SK1
 62
     0
370
    -2
100
AcDbLine
 10
-12.625
 20
15.0
 30
0.0
 11
-15.59599139897523
 21
15.0
 31
0.0
  0
LINE
  5
86C
330
867
100
AcDbEntity
  8
SK1
 62
     0
370
    -2
100
AcDbLine
 10
-14.34599139897523
 20
13.0
 30
0.0
 11
-14.34599139897523
 21
15.0
 31
0.0
  0
LINE
  5
86D
330
867
100
AcDbEntity
  8
SK1
 62
     0
370
    -2
100
AcDbLine
 10
-14.34599139897523
 20
10.5
 30
0.0
 11
-14.34599139897523
 21
8.0
 31
0.0
  0
LINE
  5
86E
330
867
100
AcDbEntity
  8
SK1
 62
     0
370
    -2
100
AcDbLine
 10
-14.34599139897523
 20
17.5
 30
0.0
 11
-14.34599139897523
 21
20.0
 31
0.0
  0
SOLID
  5
86F
330
867
100
AcDbEntity
  8
SK1
 62
     0
100
AcDbTrace
 10
-13.92932473230856
 20
10.5
 30
0.0
 11
-14.76265806564189
 21
10.5
 31
0.0
 12
-14.34599139897523
 22
13.0
 32
0.0
 13
-14.34599139897523
 23
13.0
 33
0.0
  0
SOLID
  5
870
330
867
100
AcDbEntity
  8
SK1
 62
     0
100
AcDbTrace
 10
-14.76265806564189
 20
17.5
 30
0.0
 11
-13.92932473230856
 21
17.5
 31
0.0
 12
-14.34599139897523
 22
15.0
 32
0.0
 13
-14.34599139897523
 23
15.0
 33
0.0
  0
MTEXT
  5
871
330
867
100
AcDbEntity
  8
SK1
 62
     0
100
AcDbMText
 10
-20.30599139897523
 20
14.0
 30
0.0
 40
2.5
 41
0.0
 71
     5
 72
     1
  1
2
 11
0.0
 21
1.0
 31
0.0
 73
     1
 44
1.0
  0
ENDBLK
  5
869
330
867
100
AcDbEntity
  8
0
100
AcDbBlockEnd
  0
BLOCK
  5
88D
330
88C
100
AcDbEntity
  8
0
100
AcDbBlockBegin
  2
*D4
 70
     1
 10
0.0
 20
0.0
 30
0.0
  3
*D4
  1

  0
LINE
  5
88F
330
88C
100
AcDbEntity
  8
SK4
 62
     0
370
    -2
100
AcDbLine
 10
-103.5645845009055
 20
78.51910480869167
 30
0.0
 11
-103.5645845009055
 21
106.3821893277237
 31
0.0
  0
LINE
  5
890
330
88C
100
AcDbEntity
  8
SK4
 62
     0
370
    -2
100
AcDbLine
 10
-56.30814870885
 20
87.70785621270247
 30
0.0
 11
-56.30814870885
 21
106.3821893277237
 31
0.0
  0
LINE
  5
891
330
88C
100
AcDbEntity
  8
SK4
 62
     0
370
    -2
100
AcDbLine
 10
-101.0645845009055
 20
105.1321893277237
 30
0.0
 11
-58.80814870885
 21
105.1321893277237
 31
0.0
  0
SOLID
  5
892
330
88C
100
AcDbEntity
  8
SK4
 62
     0
100
AcDbTrace
 10
-101.0645845009055
 20
105.5488559943903
 30
0.0
 11
-101.0645845009055
 21
104.715522661057
 31
0.0
 12
-103.5645845009055
 22
105.1321893277237
 32
0.0
 13
-103.5645845009055
 23
105.1321893277237
 33
0.0
  0
SOLID
  5
893
330
88C
100
AcDbEntity
  8
SK4
 62
     0
100
AcDbTrace
 10
-58.80814870885
 20
104.715522661057
 30
0.0
 11
-58.80814870885
 21
105.5488559943903
 31
0.0
 12
-56.30814870885
 22
105.1321893277237
 32
0.0
 13
-56.30814870885
 23
105.1321893277237
 33
0.0
  0
MTEXT
  5
894
330
88C
100
AcDbEntity
  8
SK4
 62
     0
100
AcDbMText
 10
-79.93636660487775
 20
107.0509393277237
 30
0.0
 40
2.5
 41
0.0
 71
     5
 72
     1
  1
47.26
 73
     1
 44
1.0
  0
ENDBLK
  5
88E
330
88C
100
AcDbEntity
  8
0
100
AcDbBlockEnd
  0
BLOCK
  5
89F
330
89E
100
AcDbEntity
  8
0
100
AcDbBlockBegin
  2
*D5
 70
     1
 10
0.0
 20
0.0
 30
0.0
  3
*D5
  1

  0
LINE
  5
8A1
330
89E
100
AcDbEntity
  8
2
 62
     0
370
    -2
100
AcDbLine
 10
107.9999999999
 20
0.6249999999305416
 30
0.0
 11
107.9999999999
 21
25.52438612771662
 31
0.0
  0
LINE
  5
8A2
330
89E
100
AcDbEntity
  8
2
 62
     0
370
    -2
100
AcDbLine
 10
48.0
 20
2.375
 30
0.0
 11
48.0
 21
25.52438612771662
 31
0.0
  0
LINE
  5
8A3
330
89E
100
AcDbEntity
  8
2
 62
     0
370
    -2
100
AcDbLine
 10
102.9999999999
 20
24.27438612771662
 30
0.0
 11
53.0
 21
24.27438612771662
 31
0.0
  0
SOLID
  5
8A4
330
89E
100
AcDbEntity
  8
2
 62
     0
100
AcDbTrace
 10
102.9999999999
 20
23.44105279438329
 30
0.0
 11
102.9999999999
 21
25.10771946104995
 31
0.0
 12
107.9999999999
 22
24.27438612771662
 32
0.0
 13
107.9999999999
 23
24.27438612771662
 33
0.0
  0
SOLID
  5
8A5
330
89E
100
AcDbEntity
  8
2
 62
     0
100
AcDbTrace
 10
53.0
 20
25.10771946104995
 30
0.0
 11
53.0
 21
23.44105279438329
 31
0.0
 12
48.0
 22
24.27438612771662
 32
0.0
 13
48.0
 23
24.27438612771662
 33
0.0
  0
MTEXT
  5
8A6
330
89E
100
AcDbEntity
  8
2
 62
     0
100
AcDbMText
 10
77.99999999995
 20
26.71063612771662
 30
0.0
 40
3.5
 41
0.0
 71
     5
 72
     1
  1
60
 73
     1
 44
1.0
  0
ENDBLK
  5
8A0
330
89E
100
AcDbEntity
  8
0
100
AcDbBlockEnd
  0
BLOCK
  5
8B3
330
8B2
100
AcDbEntity
  8
0
100
AcDbBlockBegin
  2
*D6
 70
     1
 10
0.0
 20
0.0
 30
0.0
  3
*D6
  1

  0
LINE
  5
8B5
330
8B2
100
AcDbEntity
  8
2
 62
     0
370
    -2
100
AcDbLine
 10
105.3387462863991
 20
0.3677648070873014
 30
0.0
 11
104.9999999999
 21
-0.0000000000694584
 31
0.0
  0
MTEXT
  5
8B6
330
8B2
100
AcDbEntity
  8
2
 62
     0
100
AcDbMText
 10
113.2563740755807
 20
8.963651974207059
 30
0.0
 40
2.5
 41
0.0
 71
     5
 72
     1
  1
R3
 11
0.6774925729982614
 21
0.7355296143135202
 31
0.0
 73
     1
 44
1.0
  0
LINE
  5
8B7
330
8B2
100
AcDbEntity
  8
2
 62
     0
370
    -2
100
AcDbLine
 10
104.9999999999
 20
-0.0000000000694584
 30
0.0
 11
107.0324777188948
 21
2.206588842871102
 31
0.0
  0
SOLID
  5
8B8
330
8B2
100
AcDbEntity
  8
2
 62
     0
100
AcDbTrace
 10
105.6452169590298
 20
0.0854762350046925
 30
0.0
 11
105.0322756137685
 21
0.6500533791699104
 31
0.0
 12
107.0324777188948
 22
2.206588842871102
 32
0.0
 13
107.0324777188948
 23
2.206588842871102
 33
0.0
  0
ENDBLK
  5
8B4
330
8B2
100
AcDbEntity
  8
0
100
AcDbBlockEnd
  0
BLOCK
  5
8CA
330
8C9
100
AcDbEntity
  8
0
100
AcDbBlockBegin
  2
*D7
 70
     1
 10
0.0
 20
0.0
 30
0.0
  3
*D7
  1

  0
LINE
  5
8CC
330
8C9
100
AcDbEntity
  8
2
 62
     0
370
    -2
100
AcDbLine
 10
114.9778414526136
 20
89.24104279277775
 30
0.0
 11
116.9162650855736
 21
90.8198125097353
 31
0.0
  0
MTEXT
  5
8CD
330
8C9
100
AcDbEntity
  8
2
 62
     0
100
AcDbMText
 10
118.7096125120119
 20
94.60578214065217
 30
0.0
 40
2.5
 41
0.0
 71
     5
 72
     1
  1
R0.5
 11
0.775369453183992
 21
0.6315078867830214
 31
0.0
 73
     1
 44
1.0
  0
LINE
  5
8CE
330
8C9
100
AcDbEntity
  8
2
 62
     0
370
    -2
100
AcDbLine
 10
112.6517330930616
 20
87.34651913242868
 30
0.0
 11
113.0394178196536
 21
87.6622730758202
 31
0.0
  0
SOLID
  5
8CF
330
8C9
100
AcDbEntity
  8
2
 62
     0
100
AcDbTrace
 10
114.714713166454
 20
89.56411339827108
 30
0.0
 11
115.2409697387732
 21
88.91797218728442
 31
0.0
 12
113.0394178196536
 22
87.6622730758202
 32
0.0
 13
113.0394178196536
 23
87.6622730758202
 33
0.0
  0
ENDBLK
  5
8CB
330
8C9
100
AcDbEntity
  8
0
100
AcDbBlockEnd
  0
BLOCK
  5
8D6
330
8D5
100
AcDbEntity
  8
0
100
AcDbBlockBegin
  2
*D8
 70
     1
 10
0.0
 20
0.0
 30
0.0
  3
*D8
  1

  0
LINE
  5
8D8
330
8D5
100
AcDbEntity
  8
2
100
AcDbLine
 10
112.0527830162234
 20
93.4544931076963
 30
0.0
 11
58.44711959306164
 21
-51.98082876757132
 31
0.0
  0
LINE
  5
8D9
330
8D5
100
AcDbEntity
  8
2
100
AcDbLine
 10
112.0527830162234
 20
93.4544931076963
 30
0.0
 11
113.7819979653577
 21
98.14595510367266
 31
0.0
  0
MTEXT
  5
8DA
330
8D5
100
AcDbEntity
  8
2
 62
     0
100
AcDbMText
 10
115.9320630046543
 20
102.8596889424635
 30
0.0
 40
2.5
 41
0.0
 71
     5
 72
     1
  1
R150
 11
0.3458429898268503
 21
0.9382923991952751
 31
0.0
 73
     1
 44
1.0
  0
SOLID
  5
92C
330
8D5
100
AcDbEntity
  8
2
100
AcDbTrace
 10
111.2708726835607
 20
93.74269559921866
 30
0.0
 11
112.8346933488862
 21
93.16629061617392
 31
0.0
 12
110.3235680670892
 22
88.76303111171993
 32
0.0
 13
110.3235680670892
 23
88.76303111171993
 33
0.0
  0
ENDBLK
  5
8D7
330
8D5
100
AcDbEntity
  8
0
100
AcDbBlockEnd
  0
BLOCK
  5
8E2
330
8E1
100
AcDbEntity
  8
0
100
AcDbBlockBegin
  2
*D9
 70
     1
 10
0.0
 20
0.0
 30
0.0
  3
*D9
  1

  0
LINE
  5
8E4
330
8E1
100
AcDbEntity
  8
2
 62
     0
370
    -2
100
AcDbLine
 10
105.4211461748534
 20
87.80898546081805
 30
0.0
 11
104.9895681615713
 21
85.34651913242868
 31
0.0
  0
MTEXT
  5
8E5
330
8E1
100
AcDbEntity
  8
2
 62
     0
100
AcDbMText
 10
105.1433858093773
 20
93.68081213819981
 30
0.0
 40
2.5
 41
0.0
 71
     5
 72
     1
  1
R5
 11
0.1726312053128455
 21
0.9849865313557513
 31
0.0
 73
     1
 44
1.0
  0
LINE
  5
8E6
330
8E1
100
AcDbEntity
  8
2
 62
     0
370
    -2
100
AcDbLine
 10
104.9895681615713
 20
85.34651913242868
 30
0.0
 11
105.8527241881356
 21
90.27145178920743
 31
0.0
  0
SOLID
  5
8E7
330
8E1
100
AcDbEntity
  8
2
 62
     0
100
AcDbTrace
 10
105.831557229585
 20
87.73705579193769
 30
0.0
 11
105.0107351201219
 21
87.88091512969841
 31
0.0
 12
105.8527241881356
 22
90.27145178920743
 32
0.0
 13
105.8527241881356
 23
90.27145178920743
 33
0.0
  0
ENDBLK
  5
8E3
330
8E1
100
AcDbEntity
  8
0
100
AcDbBlockEnd
  0
BLOCK
  5
8F0
330
8EF
100
AcDbEntity
  8
0
100
AcDbBlockBegin
  2
_FILLED
 70
     0
 10
0.0
 20
0.0
 30
0.0
  3
_FILLED
  1

  0
SOLID
  5
8F1
330
8EF
100
AcDbEntity
  8
0
  6
ByBlock
 62
     0
100
AcDbTrace
 10
0.0
 20
0.0
 30
0.0
 11
-1.0
 21
0.1666666667
 31
0.0
 12
-1.0
 22
-0.1666666667
 32
0.0
 13
-1.0
 23
-0.1666666667
 33
0.0
  0
ENDBLK
  5
8F2
330
8EF
100
AcDbEntity
  8
0
  6
ByBlock
 62
     0
100
AcDbBlockEnd
  0
BLOCK
  5
915
330
914
100
AcDbEntity
  8
2
100
AcDbBlockBegin
  2
*D11
 70
     1
 10
0.0
 20
0.0
 30
0.0
  3
*D11
  1

  0
LINE
  5
916
330
914
100
AcDbEntity
  8
2
  6
Continuous
 62
     0
370
    -2
100
AcDbLine
 10
1.499662469029283
 20
2.989295734986287
 30
0.0
 11
10.81304940737031
 21
28.46508970939473
 31
0.0
  0
MTEXT
  5
917
330
914
100
AcDbEntity
  8
2
 62
     5
100
AcDbMText
 10
6.349079290959553
 20
23.3498327400635
 30
0.0
 40
3.5
 41
0.0
 71
     5
 72
     1
  1
\A1;R250
  7
TEXTSTYLE_2
 11
0.3433530902092229
 21
0.9392063966156625
 31
0.0
 73
     1
 44
1.0
  0
INSERT
  5
918
330
914
100
AcDbEntity
  8
2
 62
     0
370
    -2
100
AcDbBlockReference
  2
_FILLED
 10
0.4696031984016145
 20
0.1716765451392996
 30
0.0
 41
3.0
 42
3.0
 43
3.0
 50
249.9187053511413
  0
LINE
  5
919
330
914
100
AcDbEntity
  8
2
  6
Continuous
 62
     0
100
AcDbLine
 10
-85.41366935389838
 20
-234.6299226087607
 30
0.0
 11
-85.32366935389838
 21
-234.6299226087607
 31
0.0
  0
LINE
  5
91D
330
914
100
AcDbEntity
  8
2
  6
Continuous
 62
     0
100
AcDbLine
 10
-85.36866935389838
 20
-234.6749226087607
 30
0.0
 11
-85.36866935389838
 21
-234.5849226087607
 31
0.0
  0
ENDBLK
  5
91A
330
914
100
AcDbEntity
  8
0
  6
ByBlock
 62
     0
100
AcDbBlockEnd
  0
BLOCK
  5
923
330
922
100
AcDbEntity
  8
0
100
AcDbBlockBegin
  2
*D12
 70
     1
 10
0.0
 20
0.0
 30
0.0
  3
*D12
  1

  0
LINE
  5
925
330
922
100
AcDbEntity
  8
2
  6
Continuous
 62
     0
370
    -2
100
AcDbLine
 10
132.9776364134502
 20
87.29863238222138
 30
0.0
 11
142.2910233517912
 21
112.7744263566298
 31
0.0
  0
MTEXT
  5
926
330
922
100
AcDbEntity
  8
2
 62
     5
100
AcDbMText
 10
137.8270532353804
 20
107.6591693872986
 30
0.0
 40
3.5
 41
0.0
 71
     5
 72
     1
  1
\A1;R250
  7
TEXTSTYLE_2
 11
0.3433530902092229
 21
0.9392063966156625
 31
0.0
 73
     1
 44
1.0
  0
INSERT
  5
927
330
922
100
AcDbEntity
  8
2
 62
     0
370
    -2
100
AcDbBlockReference
  2
_FILLED
 10
131.9475771428225
 20
84.48101319237439
 30
0.0
 41
3.0
 42
3.0
 43
3.0
 50
249.9187053511413
  0
LINE
  5
928
330
922
100
AcDbEntity
  8
2
  6
Continuous
 62
     0
100
AcDbLine
 10
46.0643045905225
 20
-150.3205859615256
 30
0.0
 11
46.1543045905225
 21
-150.3205859615256
 31
0.0
  0
LINE
  5
929
330
922
100
AcDbEntity
  8
2
  6
Continuous
 62
     0
100
AcDbLine
 10
46.1093045905225
 20
-150.3655859615256
 30
0.0
 11
46.1093045905225
 21
-150.2755859615256
 31
0.0
  0
ENDBLK
  5
924
330
922
100
AcDbEntity
  8
0
100
AcDbBlockEnd
  0
BLOCK
  5
935
330
934
100
AcDbEntity
  8
0
100
AcDbBlockBegin
  2
*D13
 70
     1
 10
0.0
 20
0.0
 30
0.0
  3
*D13
  1

  0
LINE
  5
937
330
934
100
AcDbEntity
  8
2
100
AcDbLine
 10
116.3406540413876
 20
91.42596299611914
 30
0.0
 11
119.6942185398658
 21
95.13454832674682
 31
0.0
  0
MTEXT
  5
938
330
934
100
AcDbEntity
  8
2
100
AcDbMText
 10
123.388357110152
 20
99.21976216929745
 30
0.0
 40
3.5
 41
0.0
 71
     5
 72
     1
  1
R0.5
  7
ISO13399対応
 11
0.6707128996956355
 21
0.7417170661255358
 31
0.0
 73
     1
 44
1.0
  0
LINE
  5
939
330
934
100
AcDbEntity
  8
2
100
AcDbLine
 10
112.6517330930616
 20
87.34651913242868
 30
0.0
 11
112.9870895429095
 21
87.71737766549145
 31
0.0
  0
SOLID
  5
93A
330
934
100
AcDbEntity
  8
2
100
AcDbTrace
 10
115.722556486283
 20
91.98489041253217
 30
0.0
 11
116.9587515964922
 21
90.86703557970611
 31
0.0
 12
112.9870895429095
 22
87.71737766549145
 32
0.0
 13
112.9870895429095
 23
87.71737766549145
 33
0.0
  0
ENDBLK
  5
936
330
934
100
AcDbEntity
  8
0
100
AcDbBlockEnd
  0
BLOCK
  5
942
330
941
100
AcDbEntity
  8
0
100
AcDbBlockBegin
  2
*D14
 70
     1
 10
0.0
 20
0.0
 30
0.0
  3
*D14
  1

  0
LINE
  5
944
330
941
100
AcDbEntity
  8
2
100
AcDbLine
 10
113.6006933112461
 20
92.87455879572511
 30
0.0
 11
58.44711959306164
 21
-51.98082876757132
 31
0.0
  0
LINE
  5
945
330
941
100
AcDbEntity
  8
2
100
AcDbLine
 10
113.6006933112461
 20
92.87455879572511
 30
0.0
 11
115.3798408505424
 21
97.5473132332508
 31
0.0
  0
MTEXT
  5
946
330
941
100
AcDbEntity
  8
2
100
AcDbMText
 10
117.4421213801012
 20
102.9636883696998
 30
0.0
 40
3.5
 41
0.0
 71
     5
 72
     1
  1
R150
  7
ISO13399対応
 11
0.3558295078592543
 21
0.9345508875051379
 31
0.0
 73
     1
 44
1.0
  0
LINE
  5
947
330
941
100
AcDbEntity
  8
2
100
AcDbLine
 10
58.44711959306164
 20
-51.98082876757132
 30
0.0
 11
111.8215457719498
 21
88.20180435819941
 31
0.0
  0
SOLID
  5
948
330
941
100
AcDbEntity
  8
2
100
AcDbTrace
 10
112.8219009049918
 20
93.17108338560782
 30
0.0
 11
114.3794857175004
 21
92.5780342058424
 31
0.0
 12
111.8215457719498
 22
88.20180435819941
 32
0.0
 13
111.8215457719498
 23
88.20180435819941
 33
0.0
  0
ENDBLK
  5
943
330
941
100
AcDbEntity
  8
0
100
AcDbBlockEnd
  0
BLOCK
  5
94F
330
94E
100
AcDbEntity
  8
0
100
AcDbBlockBegin
  2
*D15
 70
     1
 10
0.0
 20
0.0
 30
0.0
  3
*D15
  1

  0
LINE
  5
951
330
94E
100
AcDbEntity
  8
2
100
AcDbLine
 10
106.899347658576
 20
95.16246240207018
 30
0.0
 11
107.8542374070783
 21
100.0704340368909
 31
0.0
  0
MTEXT
  5
952
330
94E
100
AcDbEntity
  8
2
100
AcDbMText
 10
108.5778255232661
 20
103.789554443318
 30
0.0
 40
3.5
 41
0.0
 71
     5
 72
     1
  1
R5
  7
ISO13399対応
 11
0.1909779497004684
 21
0.9815943269641515
 31
0.0
 73
     1
 44
1.0
  0
LINE
  5
953
330
94E
100
AcDbEntity
  8
2
100
AcDbLine
 10
104.9895681615713
 20
85.34651913242868
 30
0.0
 11
105.9444579100737
 21
90.25449076724942
 31
0.0
  0
SOLID
  5
954
330
94E
100
AcDbEntity
  8
2
100
AcDbTrace
 10
106.0813523861059
 20
95.32161069348723
 30
0.0
 11
107.7173429310461
 21
95.00331411065312
 31
0.0
 12
105.9444579100737
 22
90.25449076724942
 32
0.0
 13
105.9444579100737
 23
90.25449076724942
 33
0.0
  0
ENDBLK
  5
950
330
94E
100
AcDbEntity
  8
0
100
AcDbBlockEnd
  0
BLOCK
  5
990
330
98F
100
AcDbEntity
  8
0
100
AcDbBlockBegin
  2
*D16
 70
     1
 10
0.0
 20
0.0
 30
0.0
  3
*D16
  1

  0
LINE
  5
992
330
98F
100
AcDbEntity
  8
2
100
AcDbLine
 10
99.46916437673217
 20
92.71503157178336
 30
0.0
 11
86.94389703755756
 21
97.27385605946955
 31
0.0
  0
LINE
  5
993
330
98F
100
AcDbEntity
  8
2
100
AcDbLine
 10
94.65173309306164
 20
90.34651913242868
 30
0.0
 11
85.7224206328622
 21
90.34651913242868
 31
0.0
  0
ARC
  5
994
330
98F
100
AcDbEntity
  8
2
100
AcDbCircle
 10
105.9765988215565
 20
90.34651913242868
 30
0.0
 40
18.25417818869435
100
AcDbArc
 50
128.5132791504839
 51
144.256639575242
  0
ARC
  5
995
330
98F
100
AcDbEntity
  8
2
100
AcDbCircle
 10
105.9765988215565
 20
90.34651913242868
 30
0.0
 40
18.25417818869435
100
AcDbArc
 50
195.7433604247581
 51
211.4867208495161
  0
ARC
  5
996
330
98F
100
AcDbEntity
  8
2
100
AcDbCircle
 10
105.9765988215565
 20
90.34651913242868
 30
0.0
 40
18.25417818869435
100
AcDbArc
 50
160.0000000000001
 51
180.0
  0
SOLID
  5
997
330
98F
100
AcDbEntity
  8
2
100
AcDbTrace
 10
90.42408294869675
 20
101.3993772560261
 30
0.0
 11
91.8974109611119
 21
100.6202223641011
 31
0.0
 12
88.82328227912937
 22
96.58981577281821
 32
0.0
 13
88.82328227912937
 23
96.58981577281821
 33
0.0
  0
SOLID
  5
998
330
98F
100
AcDbEntity
  8
2
100
AcDbTrace
 10
89.23267643065618
 20
85.50776186742003
 30
0.0
 11
87.58171430158343
 21
85.27950362300082
 31
0.0
 12
87.7224206328622
 22
90.34651913242868
 32
0.0
 13
87.7224206328622
 23
90.34651913242868
 33
0.0
  0
MTEXT
  5
999
330
98F
100
AcDbEntity
  8
2
100
AcDbMText
 10
83.90211918319395
 20
97.59026101030054
 30
0.0
 40
3.5
 41
0.0
 71
     5
 72
     1
  1
20%%d
  7
ISO13399対応
 11
0.3117919164955432
 21
0.9501504095710511
 31
0.0
 73
     1
 44
1.0
  0
ENDBLK
  5
991
330
98F
100
AcDbEntity
  8
0
100
AcDbBlockEnd
  0
BLOCK
  5
A4B
330
A4A
100
AcDbEntity
  8
0
100
AcDbBlockBegin
  2
*D17
 70
     1
 10
0.0
 20
0.0
 30
0.0
  3
*D17
  1

  0
LINE
  5
A4D
330
A4A
100
AcDbEntity
  8
CUT
100
AcDbLine
 10
30.24892092954678
 20
-17.71963033895067
 30
0.0
 11
20.28842092954677
 21
-17.71963033895067
 31
0.0
  0
LINE
  5
A4E
330
A4A
100
AcDbEntity
  8
CUT
100
AcDbLine
 10
20.28842092954677
 20
-17.71963033895067
 30
0.0
 11
16.17135273195701
 21
-6.37485590981527
 31
0.0
  0
MTEXT
  5
A4F
330
A4A
100
AcDbEntity
  8
CUT
100
AcDbMText
 10
25.51867092954678
 20
-15.43113033895067
 30
0.0
 40
3.5
 41
0.0
 71
     5
 72
     1
  1
R150
  7
ISO13399対応
 73
     1
 44
1.0
  0
LINE
  5
A50
330
A4A
100
AcDbEntity
  8
CUT
100
AcDbLine
 10
-36.70461349999997
 20
139.3273479
 30
0.0
 11
14.46567640189389
 21
-1.674784819176068
 31
0.0
  0
SOLID
  5
A51
330
A4A
100
AcDbEntity
  8
CUT
100
AcDbTrace
 10
16.95469791373021
 20
-6.090576521471416
 30
0.0
 11
15.38800755018381
 21
-6.659135298159125
 31
0.0
 12
14.46567640189389
 22
-1.674784819176068
 32
0.0
 13
14.46567640189389
 23
-1.674784819176068
 33
0.0
  0
ENDBLK
  5
A4C
330
A4A
100
AcDbEntity
  8
0
100
AcDbBlockEnd
  0
BLOCK
  5
A78
330
A77
100
AcDbEntity
  8
0
100
AcDbBlockBegin
  2
*D18
 70
     1
 10
0.0
 20
0.0
 30
0.0
  3
*D18
  1

  0
LINE
  5
A7A
330
A77
100
AcDbEntity
  8
CUT
100
AcDbLine
 10
36.30860047683591
 20
-16.26667627751903
 30
0.0
 11
24.28360047683591
 21
-16.26667627751903
 31
0.0
  0
LINE
  5
A7B
330
A77
100
AcDbEntity
  8
CUT
100
AcDbLine
 10
24.28360047683591
 20
-16.26667627751903
 30
0.0
 11
24.28360047683591
 21
-6.862676277519032
 31
0.0
  0
LINE
  5
A7C
330
A77
100
AcDbEntity
  8
CUT
100
AcDbLine
 10
26.33211797086285
 20
-4.307260354224614
 30
0.0
 11
26.33211797086285
 21
-8.862676277519032
 31
0.0
  0
LINE
  5
A7D
330
A77
100
AcDbEntity
  8
CUT
100
AcDbLine
 10
22.23508298280897
 20
-4.689187344636416
 30
0.0
 11
22.23508298280897
 21
-8.862676277519032
 31
0.0
  0
LINE
  5
A7E
330
A77
100
AcDbEntity
  8
CUT
100
AcDbLine
 10
26.33211797086285
 20
-6.862676277519032
 30
0.0
 11
22.23508298280897
 21
-6.862676277519032
 31
0.0
  0
LINE
  5
A7F
330
A77
100
AcDbEntity
  8
CUT
100
AcDbLine
 10
31.33211797086285
 20
-6.862676277519032
 30
0.0
 11
36.33211797086285
 21
-6.862676277519032
 31
0.0
  0
LINE
  5
A80
330
A77
100
AcDbEntity
  8
CUT
100
AcDbLine
 10
17.23508298280897
 20
-6.862676277519032
 30
0.0
 11
12.23508298280897
 21
-6.862676277519032
 31
0.0
  0
SOLID
  5
A81
330
A77
100
AcDbEntity
  8
CUT
100
AcDbTrace
 10
31.33211797086285
 20
-6.029342944185699
 30
0.0
 11
31.33211797086285
 21
-7.696009610852365
 31
0.0
 12
26.33211797086285
 22
-6.862676277519032
 32
0.0
 13
26.33211797086285
 23
-6.862676277519032
 33
0.0
  0
SOLID
  5
A82
330
A77
100
AcDbEntity
  8
CUT
100
AcDbTrace
 10
17.23508298280897
 20
-7.696009610852365
 30
0.0
 11
17.23508298280897
 21
-6.029342944185699
 31
0.0
 12
22.23508298280897
 22
-6.862676277519032
 32
0.0
 13
22.23508298280897
 23
-6.862676277519032
 33
0.0
  0
MTEXT
  5
A83
330
A77
100
AcDbEntity
  8
CUT
100
AcDbMText
 10
30.29610047683591
 20
-13.97817627751903
 30
0.0
 40
3.5
 41
0.0
 71
     5
 72
     1
  1
4.097
  7
ISO13399対応
 73
     1
 44
1.0
  0
ENDBLK
  5
A79
330
A77
100
AcDbEntity
  8
0
100
AcDbBlockEnd
  0
BLOCK
  5
A8C
330
A8B
100
AcDbEntity
  8
0
100
AcDbBlockBegin
  2
*D19
 70
     1
 10
0.0
 20
0.0
 30
0.0
  3
*D19
  1

  0
LINE
  5
A8E
330
A8B
100
AcDbEntity
  8
2
100
AcDbLine
 10
18.0
 20
-0.5
 30
0.0
 11
18.0
 21
-21.31403381233844
 31
0.0
  0
LINE
  5
A8F
330
A8B
100
AcDbEntity
  8
2
100
AcDbLine
 10
9.837835068509689
 20
-3.5
 30
0.0
 11
9.837835068509689
 21
-21.31403381233844
 31
0.0
  0
LINE
  5
A90
330
A8B
100
AcDbEntity
  8
2
100
AcDbLine
 10
18.0
 20
-19.31403381233844
 30
0.0
 11
9.837835068509689
 21
-19.31403381233844
 31
0.0
  0
LINE
  5
A91
330
A8B
100
AcDbEntity
  8
2
100
AcDbLine
 10
23.0
 20
-19.31403381233844
 30
0.0
 11
28.0
 21
-19.31403381233844
 31
0.0
  0
LINE
  5
A92
330
A8B
100
AcDbEntity
  8
2
100
AcDbLine
 10
4.837835068509689
 20
-19.31403381233844
 30
0.0
 11
-0.1621649314903113
 21
-19.31403381233844
 31
0.0
  0
SOLID
  5
A93
330
A8B
100
AcDbEntity
  8
2
100
AcDbTrace
 10
23.0
 20
-18.4807004790051
 30
0.0
 11
23.0
 21
-20.14736714567177
 31
0.0
 12
18.0
 22
-19.31403381233844
 32
0.0
 13
18.0
 23
-19.31403381233844
 33
0.0
  0
SOLID
  5
A94
330
A8B
100
AcDbEntity
  8
2
100
AcDbTrace
 10
4.837835068509689
 20
-20.14736714567177
 30
0.0
 11
4.837835068509689
 21
-18.4807004790051
 31
0.0
 12
9.837835068509689
 22
-19.31403381233844
 32
0.0
 13
9.837835068509689
 23
-19.31403381233844
 33
0.0
  0
MTEXT
  5
A95
330
A8B
100
AcDbEntity
  8
2
100
AcDbMText
 10
28.47463064484971
 20
-13.55357957608047
 30
0.0
 40
3.5
 41
0.0
 71
     5
 72
     1
  1
8.162
  7
ISO13399対応
 73
     1
 44
1.0
  0
ENDBLK
  5
A8D
330
A8B
100
AcDbEntity
  8
0
100
AcDbBlockEnd
  0
BLOCK
  5
AA3
330
AA2
100
AcDbEntity
  8
0
100
AcDbBlockBegin
  2
*D20
 70
     1
 10
0.0
 20
0.0
 30
0.0
  3
*D20
  1

  0
LINE
  5
AA5
330
AA2
100
AcDbEntity
  8
2
100
AcDbLine
 10
50.0
 20
-0.5
 30
0.0
 11
50.0
 21
-17.86844871042952
 31
0.0
  0
LINE
  5
AA6
330
AA2
100
AcDbEntity
  8
2
100
AcDbLine
 10
41.83783506850969
 20
-3.5
 30
0.0
 11
41.83783506850969
 21
-17.86844871042952
 31
0.0
  0
LINE
  5
AA7
330
AA2
100
AcDbEntity
  8
2
100
AcDbLine
 10
50.0
 20
-16.61844871042952
 30
0.0
 11
65.3912989180437
 21
-16.61844871042952
 31
0.0
  0
LINE
  5
AA8
330
AA2
100
AcDbEntity
  8
2
100
AcDbLine
 10
50.0
 20
-16.61844871042952
 30
0.0
 11
41.83783506850969
 21
-16.61844871042952
 31
0.0
  0
LINE
  5
AA9
330
AA2
100
AcDbEntity
  8
2
100
AcDbLine
 10
55.0
 20
-16.61844871042952
 30
0.0
 11
60.0
 21
-16.61844871042952
 31
0.0
  0
LINE
  5
AAA
330
AA2
100
AcDbEntity
  8
2
100
AcDbLine
 10
36.83783506850969
 20
-16.61844871042952
 30
0.0
 11
31.83783506850969
 21
-16.61844871042952
 31
0.0
  0
SOLID
  5
AAB
330
AA2
100
AcDbEntity
  8
2
100
AcDbTrace
 10
55.0
 20
-15.78511537709618
 30
0.0
 11
55.0
 21
-17.45178204376285
 31
0.0
 12
50.0
 22
-16.61844871042952
 32
0.0
 13
50.0
 23
-16.61844871042952
 33
0.0
  0
SOLID
  5
AAC
330
AA2
100
AcDbEntity
  8
2
100
AcDbTrace
 10
36.83783506850969
 20
-17.45178204376285
 30
0.0
 11
36.83783506850969
 21
-15.78511537709618
 31
0.0
 12
41.83783506850969
 22
-16.61844871042952
 32
0.0
 13
41.83783506850969
 23
-16.61844871042952
 33
0.0
  0
MTEXT
  5
AAD
330
AA2
100
AcDbEntity
  8
2
100
AcDbMText
 10
60.67204891804369
 20
-14.30719871042952
 30
0.0
 40
3.5
 41
0.0
 71
     5
 72
     1
  1
8.2
  7
BMG_TEXT
 73
     1
 44
1.0
  0
ENDBLK
  5
AA4
330
AA2
100
AcDbEntity
  8
0
100
AcDbBlockEnd
  0
BLOCK
  5
AB4
330
AB3
100
AcDbEntity
  8
0
100
AcDbBlockBegin
  2
*D21
 70
     1
 10
0.0
 20
0.0
 30
0.0
  3
*D21
  1

  0
LINE
  5
AB6
330
AB3
100
AcDbEntity
  8
2
100
AcDbLine
 10
24.93241753425485
 20
-17.59797660944998
 30
0.0
 11
13.91891753425485
 21
-17.59797660944998
 31
0.0
  0
LINE
  5
AB7
330
AB3
100
AcDbEntity
  8
2
100
AcDbLine
 10
13.91891753425485
 20
-17.59797660944998
 30
0.0
 11
13.91891753425485
 21
-8.207976609449975
 31
0.0
  0
LINE
  5
AB8
330
AB3
100
AcDbEntity
  8
2
100
AcDbLine
 10
18.0
 20
-0.5
 30
0.0
 11
18.0
 21
-10.20797660944998
 31
0.0
  0
LINE
  5
AB9
330
AB3
100
AcDbEntity
  8
2
100
AcDbLine
 10
9.83783506850969
 20
-0.5
 30
0.0
 11
9.83783506850969
 21
-10.20797660944998
 31
0.0
  0
LINE
  5
ABA
330
AB3
100
AcDbEntity
  8
2
100
AcDbLine
 10
18.0
 20
-8.207976609449975
 30
0.0
 11
9.83783506850969
 21
-8.207976609449975
 31
0.0
  0
LINE
  5
ABB
330
AB3
100
AcDbEntity
  8
2
100
AcDbLine
 10
23.0
 20
-8.207976609449975
 30
0.0
 11
28.0
 21
-8.207976609449975
 31
0.0
  0
LINE
  5
ABC
330
AB3
100
AcDbEntity
  8
2
100
AcDbLine
 10
4.83783506850969
 20
-8.207976609449975
 30
0.0
 11
-0.1621649314903095
 21
-8.207976609449975
 31
0.0
  0
SOLID
  5
ABD
330
AB3
100
AcDbEntity
  8
2
100
AcDbTrace
 10
23.0
 20
-7.374643276116642
 30
0.0
 11
23.0
 21
-9.04130994278331
 31
0.0
 12
18.0
 22
-8.207976609449975
 32
0.0
 13
18.0
 23
-8.207976609449975
 33
0.0
  0
SOLID
  5
ABE
330
AB3
100
AcDbEntity
  8
2
100
AcDbTrace
 10
4.83783506850969
 20
-9.04130994278331
 30
0.0
 11
4.83783506850969
 21
-7.374643276116642
 31
0.0
 12
9.83783506850969
 22
-8.207976609449975
 32
0.0
 13
9.83783506850969
 23
-8.207976609449975
 33
0.0
  0
MTEXT
  5
ABF
330
AB3
100
AcDbEntity
  8
2
100
AcDbMText
 10
19.42566753425485
 20
-15.31297660944998
 30
0.0
 40
3.5
 41
0.0
 71
     5
 72
     1
  1
8.162
  7
ISO13399対応
 73
     1
 44
1.0
  0
ENDBLK
  5
AB5
330
AB3
100
AcDbEntity
  8
0
100
AcDbBlockEnd
  0
BLOCK
  5
AC9
330
AC8
100
AcDbEntity
  8
0
100
AcDbBlockBegin
  2
*D22
 70
     1
 10
0.0
 20
0.0
 30
0.0
  3
*D22
  1

  0
LINE
  5
ACB
330
AC8
100
AcDbEntity
  8
SK2
100
AcDbLine
 10
0.1999999999999993
 20
3.0
 30
0.0
 11
-10.16438585566645
 21
3.000000000000001
 31
0.0
  0
LINE
  5
ACC
330
AC8
100
AcDbEntity
  8
SK2
100
AcDbLine
 10
0.1999999999999993
 20
-3.0
 30
0.0
 11
-10.16438585566645
 21
-2.999999999999999
 31
0.0
  0
LINE
  5
ACD
330
AC8
100
AcDbEntity
  8
SK2
100
AcDbLine
 10
-8.914385855666445
 20
3.000000000000001
 30
0.0
 11
-8.914385855666445
 21
-2.999999999999999
 31
0.0
  0
LINE
  5
ACE
330
AC8
100
AcDbEntity
  8
SK2
100
AcDbLine
 10
-8.914385855666445
 20
8.000000000000002
 30
0.0
 11
-8.914385855666445
 21
13.0
 31
0.0
  0
LINE
  5
ACF
330
AC8
100
AcDbEntity
  8
SK2
100
AcDbLine
 10
-8.914385855666445
 20
-7.999999999999998
 30
0.0
 11
-8.914385855666445
 21
-13.0
 31
0.0
  0
SOLID
  5
AD0
330
AC8
100
AcDbEntity
  8
SK2
100
AcDbTrace
 10
-9.74771918899978
 20
8.000000000000002
 30
0.0
 11
-8.081052522333112
 21
8.000000000000002
 31
0.0
 12
-8.914385855666445
 22
3.000000000000001
 32
0.0
 13
-8.914385855666445
 23
3.000000000000001
 33
0.0
  0
SOLID
  5
AD1
330
AC8
100
AcDbEntity
  8
SK2
100
AcDbTrace
 10
-8.081052522333112
 20
-7.999999999999998
 30
0.0
 11
-9.74771918899978
 21
-7.999999999999998
 31
0.0
 12
-8.914385855666445
 22
-2.999999999999999
 32
0.0
 13
-8.914385855666445
 23
-2.999999999999999
 33
0.0
  0
MTEXT
  5
AD2
330
AC8
100
AcDbEntity
  8
SK2
100
AcDbMText
 10
-11.27638585566645
 20
0.4359412644557175
 30
0.0
 40
3.5
 41
0.0
 71
     5
 72
     1
  1
%%c6
  7
BMG_TEXT
 11
0.0
 21
1.0
 31
0.0
 73
     1
 44
1.0
  0
ENDBLK
  5
ACA
330
AC8
100
AcDbEntity
  8
0
100
AcDbBlockEnd
  0
BLOCK
  5
B41
330
B40
100
AcDbEntity
  8
0
100
AcDbBlockBegin
  2
*D23
 70
     1
 10
0.0
 20
0.0
 30
0.0
  3
*D23
  1

  0
LINE
  5
B43
330
B40
100
AcDbEntity
  8
SK2
100
AcDbLine
 10
32.0
 20
3.5
 30
0.0
 11
32.0
 21
30.73647156419499
 31
0.0
  0
LINE
  5
B44
330
B40
100
AcDbEntity
  8
SK2
100
AcDbLine
 10
0.0
 20
2.800000000000011
 30
0.0
 11
0.0
 21
30.73647156419499
 31
0.0
  0
LINE
  5
B45
330
B40
100
AcDbEntity
  8
SK2
100
AcDbLine
 10
27.0
 20
29.48647156419499
 30
0.0
 11
5.0
 21
29.48647156419499
 31
0.0
  0
SOLID
  5
B46
330
B40
100
AcDbEntity
  8
SK2
100
AcDbTrace
 10
27.0
 20
28.65313823086165
 30
0.0
 11
27.0
 21
30.31980489752832
 31
0.0
 12
32.0
 22
29.48647156419499
 32
0.0
 13
32.0
 23
29.48647156419499
 33
0.0
  0
SOLID
  5
B47
330
B40
100
AcDbEntity
  8
SK2
100
AcDbTrace
 10
5.0
 20
30.31980489752832
 30
0.0
 11
5.0
 21
28.65313823086165
 31
0.0
 12
0.0
 22
29.48647156419499
 32
0.0
 13
0.0
 23
29.48647156419499
 33
0.0
  0
MTEXT
  5
B48
330
B40
100
AcDbEntity
  8
SK2
100
AcDbMText
 10
16.0
 20
31.79772156419499
 30
0.0
 40
3.5
 41
0.0
 71
     5
 72
     1
  1
32
  7
BMG_TEXT
 73
     1
 44
1.0
  0
ENDBLK
  5
B42
330
B40
100
AcDbEntity
  8
0
100
AcDbBlockEnd
  0
BLOCK
  5
B51
330
B50
100
AcDbEntity
  8
0
100
AcDbBlockBegin
  2
*D24
 70
     1
 10
0.0
 20
0.0
 30
0.0
  3
*D24
  1

  0
LINE
  5
B53
330
B50
100
AcDbEntity
  8
2
100
AcDbLine
 10
32.0
 20
3.5
 30
0.0
 11
32.0
 21
30.73647156419499
 31
0.0
  0
LINE
  5
B54
330
B50
100
AcDbEntity
  8
2
100
AcDbLine
 10
50.0
 20
0.5
 30
0.0
 11
50.0
 21
30.73647156419499
 31
0.0
  0
LINE
  5
B55
330
B50
100
AcDbEntity
  8
2
100
AcDbLine
 10
37.0
 20
29.48647156419499
 30
0.0
 11
45.0
 21
29.48647156419499
 31
0.0
  0
SOLID
  5
B56
330
B50
100
AcDbEntity
  8
2
100
AcDbTrace
 10
37.0
 20
30.31980489752832
 30
0.0
 11
37.0
 21
28.65313823086165
 31
0.0
 12
32.0
 22
29.48647156419499
 32
0.0
 13
32.0
 23
29.48647156419499
 33
0.0
  0
SOLID
  5
B57
330
B50
100
AcDbEntity
  8
2
100
AcDbTrace
 10
45.0
 20
28.65313823086165
 30
0.0
 11
45.0
 21
30.31980489752832
 31
0.0
 12
50.0
 22
29.48647156419499
 32
0.0
 13
50.0
 23
29.48647156419499
 33
0.0
  0
MTEXT
  5
B58
330
B50
100
AcDbEntity
  8
2
100
AcDbMText
 10
41.0
 20
31.79772156419499
 30
0.0
 40
3.5
 41
0.0
 71
     5
 72
     1
  1
18
  7
BMG_TEXT
 73
     1
 44
1.0
  0
ENDBLK
  5
B52
330
B50
100
AcDbEntity
  8
0
100
AcDbBlockEnd
  0
BLOCK
  5
B60
330
B5F
100
AcDbEntity
  8
0
100
AcDbBlockBegin
  2
*D25
 70
     1
 10
0.0
 20
0.0
 30
0.0
  3
*D25
  1

  0
LINE
  5
B62
330
B5F
100
AcDbEntity
  8
2
100
AcDbLine
 10
50.0
 20
0.5
 30
0.0
 11
50.0
 21
40.66407177123608
 31
0.0
  0
LINE
  5
B63
330
B5F
100
AcDbEntity
  8
2
100
AcDbLine
 10
0.0
 20
2.800000000000011
 30
0.0
 11
0.0
 21
40.66407177123608
 31
0.0
  0
LINE
  5
B64
330
B5F
100
AcDbEntity
  8
2
100
AcDbLine
 10
45.0
 20
39.41407177123608
 30
0.0
 11
5.0
 21
39.41407177123608
 31
0.0
  0
SOLID
  5
B65
330
B5F
100
AcDbEntity
  8
2
100
AcDbTrace
 10
45.0
 20
38.58073843790275
 30
0.0
 11
45.0
 21
40.24740510456942
 31
0.0
 12
50.0
 22
39.41407177123608
 32
0.0
 13
50.0
 23
39.41407177123608
 33
0.0
  0
SOLID
  5
B66
330
B5F
100
AcDbEntity
  8
2
100
AcDbTrace
 10
5.0
 20
40.24740510456942
 30
0.0
 11
5.0
 21
38.58073843790275
 31
0.0
 12
0.0
 22
39.41407177123608
 32
0.0
 13
0.0
 23
39.41407177123608
 33
0.0
  0
MTEXT
  5
B67
330
B5F
100
AcDbEntity
  8
2
100
AcDbMText
 10
25.0
 20
41.72532177123608
 30
0.0
 40
3.5
 41
0.0
 71
     5
 72
     1
  1
50
  7
BMG_TEXT
 73
     1
 44
1.0
  0
ENDBLK
  5
B61
330
B5F
100
AcDbEntity
  8
0
100
AcDbBlockEnd
  0
BLOCK
  5
B77
330
B76
100
AcDbEntity
  8
0
100
AcDbBlockBegin
  2
*D26
 70
     1
 10
0.0
 20
0.0
 30
0.0
  3
*D26
  1

  0
LINE
  5
B79
330
B76
100
AcDbEntity
  8
2
100
AcDbLine
 10
41.18712783511742
 20
34.4587105936055
 30
0.0
 11
41.18712783511742
 21
39.10800071233395
 31
0.0
  0
LINE
  5
B7A
330
B76
100
AcDbEntity
  8
2
100
AcDbLine
 10
51.35918901440902
 20
35.64545106452286
 30
0.0
 11
51.35918901440902
 21
39.10800071233395
 31
0.0
  0
LINE
  5
B7B
330
B76
100
AcDbEntity
  8
2
100
AcDbLine
 10
41.18712783511742
 20
37.85800071233395
 30
0.0
 11
51.35918901440902
 21
37.85800071233395
 31
0.0
  0
LINE
  5
B7C
330
B76
100
AcDbEntity
  8
2
100
AcDbLine
 10
36.18712783511742
 20
37.85800071233395
 30
0.0
 11
31.18712783511742
 21
37.85800071233395
 31
0.0
  0
LINE
  5
B7D
330
B76
100
AcDbEntity
  8
2
100
AcDbLine
 10
56.35918901440902
 20
37.85800071233395
 30
0.0
 11
61.35918901440902
 21
37.85800071233395
 31
0.0
  0
SOLID
  5
B7E
330
B76
100
AcDbEntity
  8
2
100
AcDbTrace
 10
36.18712783511742
 20
37.02466737900061
 30
0.0
 11
36.18712783511742
 21
38.69133404566728
 31
0.0
 12
41.18712783511742
 22
37.85800071233395
 32
0.0
 13
41.18712783511742
 23
37.85800071233395
 33
0.0
  0
SOLID
  5
B7F
330
B76
100
AcDbEntity
  8
2
100
AcDbTrace
 10
56.35918901440902
 20
38.69133404566728
 30
0.0
 11
56.35918901440902
 21
37.02466737900061
 31
0.0
 12
51.35918901440902
 22
37.85800071233395
 32
0.0
 13
51.35918901440902
 23
37.85800071233395
 33
0.0
  0
MTEXT
  5
B80
330
B76
100
AcDbEntity
  8
2
100
AcDbMText
 10
45.00165077735176
 20
42.45796447767457
 30
0.0
 40
3.5
 41
0.0
 71
     5
 72
     1
  1
10.172
  7
BMG_TEXT
 73
     1
 44
1.0
  0
ENDBLK
  5
B78
330
B76
100
AcDbEntity
  8
0
100
AcDbBlockEnd
  0
BLOCK
  5
BC2
330
BC1
100
AcDbEntity
  8
0
100
AcDbBlockBegin
  2
*D27
 70
     1
 10
0.0
 20
0.0
 30
0.0
  3
*D27
  1

  0
LINE
  5
BC4
330
BC1
100
AcDbEntity
  8
1
100
AcDbLine
 10
50.0
 20
0.5
 30
0.0
 11
50.0
 21
13.72693866963614
 31
0.0
  0
LINE
  5
BC5
330
BC1
100
AcDbEntity
  8
1
100
AcDbLine
 10
55.0
 20
0.5
 30
0.0
 11
55.0
 21
13.72693866963614
 31
0.0
  0
LINE
  5
BC6
330
BC1
100
AcDbEntity
  8
1
100
AcDbLine
 10
50.0
 20
12.47693866963614
 30
0.0
 11
55.0
 21
12.47693866963614
 31
0.0
  0
LINE
  5
BC7
330
BC1
100
AcDbEntity
  8
1
100
AcDbLine
 10
45.0
 20
12.47693866963614
 30
0.0
 11
40.0
 21
12.47693866963614
 31
0.0
  0
LINE
  5
BC8
330
BC1
100
AcDbEntity
  8
1
100
AcDbLine
 10
60.0
 20
12.47693866963614
 30
0.0
 11
65.0
 21
12.47693866963614
 31
0.0
  0
SOLID
  5
BC9
330
BC1
100
AcDbEntity
  8
1
100
AcDbTrace
 10
45.0
 20
11.64360533630281
 30
0.0
 11
45.0
 21
13.31027200296948
 31
0.0
 12
50.0
 22
12.47693866963614
 32
0.0
 13
50.0
 23
12.47693866963614
 33
0.0
  0
SOLID
  5
BCA
330
BC1
100
AcDbEntity
  8
1
100
AcDbTrace
 10
60.0
 20
13.31027200296948
 30
0.0
 11
60.0
 21
11.64360533630281
 31
0.0
 12
55.0
 22
12.47693866963614
 32
0.0
 13
55.0
 23
12.47693866963614
 33
0.0
  0
MTEXT
  5
BCB
330
BC1
100
AcDbEntity
  8
1
100
AcDbMText
 10
52.5
 20
14.77768866963614
 30
0.0
 40
3.5
 41
0.0
 71
     5
 72
     1
  1
5
  7
BMG_TEXT
 73
     1
 44
1.0
  0
ENDBLK
  5
BC3
330
BC1
100
AcDbEntity
  8
0
100
AcDbBlockEnd
  0
BLOCK
  5
BD3
330
BD2
100
AcDbEntity
  8
0
100
AcDbBlockBegin
  2
*D28
 70
     1
 10
0.0
 20
0.0
 30
0.0
  3
*D28
  1

  0
LINE
  5
BD5
330
BD2
100
AcDbEntity
  8
1
100
AcDbLine
 10
0.0
 20
0.5
 30
0.0
 11
0.0
 21
13.07592675416148
 31
0.0
  0
LINE
  5
BD6
330
BD2
100
AcDbEntity
  8
1
100
AcDbLine
 10
-5.0
 20
0.5
 30
0.0
 11
-5.0
 21
13.07592675416148
 31
0.0
  0
LINE
  5
BD7
330
BD2
100
AcDbEntity
  8
1
100
AcDbLine
 10
0.0
 20
11.82592675416148
 30
0.0
 11
-5.0
 21
11.82592675416148
 31
0.0
  0
LINE
  5
BD8
330
BD2
100
AcDbEntity
  8
1
100
AcDbLine
 10
5.0
 20
11.82592675416148
 30
0.0
 11
10.0
 21
11.82592675416148
 31
0.0
  0
LINE
  5
BD9
330
BD2
100
AcDbEntity
  8
1
100
AcDbLine
 10
-10.0
 20
11.82592675416148
 30
0.0
 11
-15.0
 21
11.82592675416148
 31
0.0
  0
SOLID
  5
BDA
330
BD2
100
AcDbEntity
  8
1
100
AcDbTrace
 10
5.0
 20
12.65926008749481
 30
0.0
 11
5.0
 21
10.99259342082815
 31
0.0
 12
0.0
 22
11.82592675416148
 32
0.0
 13
0.0
 23
11.82592675416148
 33
0.0
  0
SOLID
  5
BDB
330
BD2
100
AcDbEntity
  8
1
100
AcDbTrace
 10
-10.0
 20
10.99259342082815
 30
0.0
 11
-10.0
 21
12.65926008749481
 31
0.0
 12
-5.0
 22
11.82592675416148
 32
0.0
 13
-5.0
 23
11.82592675416148
 33
0.0
  0
MTEXT
  5
BDC
330
BD2
100
AcDbEntity
  8
1
100
AcDbMText
 10
-2.5
 20
14.12667675416148
 30
0.0
 40
3.5
 41
0.0
 71
     5
 72
     1
  1
5
  7
BMG_TEXT
 73
     1
 44
1.0
  0
ENDBLK
  5
BD4
330
BD2
100
AcDbEntity
  8
0
100
AcDbBlockEnd
  0
ENDSEC
  0
SECTION
  2
ENTITIES
  0
ARC
  5
47B
330
1F
100
AcDbEntity
  8
1
370
    25
390
3F6
100
AcDbCircle
 10
-4.704613499999972
 20
139.3273479
 30
0.0
 40
150.0
100
AcDbArc
 50
288.7223469099159
 51
291.2582765310887
  0
ARC
  5
47C
330
1F
100
AcDbEntity
  8
1
370
    25
390
3F6
100
AcDbCircle
 10
49.5
 20
0.0
 30
0.0
 40
0.5
100
AcDbArc
 50
291.2582770000001
 51
0.0
  0
ARC
  5
47D
330
1F
100
AcDbEntity
  8
1
370
    25
100
AcDbCircle
 10
41.83783506850969
 20
2.0
 30
0.0
 40
5.0
100
AcDbArc
 50
270.0
 51
288.7223469099159
  0
ARC
  5
47E
102
{ACAD_REACTORS
102
}
330
1F
100
AcDbEntity
  8
1
370
    25
390
3F6
100
AcDbCircle
 10
49.5
 20
0.0
 30
0.0
 40
0.5
100
AcDbArc
 50
0.0
 51
68.74172299999992
  0
ARC
  5
47F
330
1F
100
AcDbEntity
  8
1
370
    25
100
AcDbCircle
 10
41.83783506850969
 20
-2.0
 30
0.0
 40
5.0
100
AcDbArc
 50
71.27765309008417
 51
90.0
  0
LINE
  5
480
330
1F
100
AcDbEntity
  8
1
370
    25
100
AcDbLine
 10
41.83783506850969
 20
3.0
 30
0.0
 11
32.0
 21
3.0
 31
0.0
  0
ARC
  5
481
330
1F
100
AcDbEntity
  8
1
370
    25
390
3F6
100
AcDbCircle
 10
-4.704613499999986
 20
-139.3273479
 30
0.0
 40
150.0
100
AcDbArc
 50
68.74172346734832
 51
71.27765309008409
  0
LINE
  5
483
330
1F
100
AcDbEntity
  8
SK1
100
AcDbLine
 10
0.0
 20
2.300000000000011
 30
0.0
 11
0.6999999999999993
 21
3.0
 31
0.0
  0
ARC
  5
484
330
1F
100
AcDbEntity
  8
1
370
    25
100
AcDbCircle
 10
41.83783506850969
 20
2.0
 30
0.0
 40
5.0
100
AcDbArc
 50
270.0
 51
288.7223469099159
  0
LINE
  5
485
330
1F
100
AcDbEntity
  8
1
370
    25
100
AcDbLine
 10
41.83783506850969
 20
-3.0
 30
0.0
 11
32.0
 21
-3.0
 31
0.0
  0
LINE
  5
486
102
{ACAD_REACTORS
102
}
330
1F
100
AcDbEntity
  8
SK1
100
AcDbLine
 10
0.0
 20
2.300000000000011
 30
0.0
 11
0.0
 21
-2.300000000000011
 31
0.0
  0
LINE
  5
487
330
1F
100
AcDbEntity
  8
SK1
100
AcDbLine
 10
0.0
 20
-2.300000000000011
 30
0.0
 11
0.6999999999999993
 21
-3.0
 31
0.0
  0
LINE
  5
4C3
102
{ACAD_REACTORS
102
}
330
1F
100
AcDbEntity
  8
SK4
  6
LONGDASH_DASH
 62
     2
370
    25
100
AcDbLine
 10
-5.0
 20
0.0
 30
0.0
 11
55.0
 21
0.0
 31
0.0
  0
LINE
  5
4C8
330
1F
100
AcDbEntity
  8
1
100
AcDbLine
 10
32.0
 20
3.0
 30
0.0
 11
32.0
 21
-3.0
 31
0.0
  0
LINE
  5
4C9
330
1F
100
AcDbEntity
  8
SK1
  6
Continuous
 62
     4
370
    50
100
AcDbLine
 10
32.0
 20
0.0
 30
0.0
 11
33.75
 21
0.0
 31
0.0
  0
LINE
  5
4CA
330
1F
100
AcDbEntity
  8
SK1
  6
Continuous
 62
     4
370
    50
100
AcDbLine
 10
32.0
 20
0.0
 30
0.0
 11
32.0
 21
1.75
 31
0.0
  0
ARC
  5
4CB
330
1F
100
AcDbEntity
  8
SK1
  6
Continuous
 62
     4
370
    50
100
AcDbCircle
 10
32.0
 20
0.0
 30
0.0
 40
1.75
100
AcDbArc
 50
0.0
 51
90.0
  0
LINE
  5
4CC
330
1F
100
AcDbEntity
  8
SK1
  6
Continuous
 62
     4
370
    50
100
AcDbLine
 10
32.0
 20
0.0
 30
0.0
 11
30.25
 21
0.0
 31
0.0
  0
ARC
  5
4CD
330
1F
100
AcDbEntity
  8
SK1
  6
Continuous
 62
     4
370
    50
100
AcDbCircle
 10
32.0
 20
0.0
 30
0.0
 40
1.75
100
AcDbArc
 50
180.0
 51
270.0
  0
LINE
  5
4CE
330
1F
100
AcDbEntity
  8
SK1
  6
Continuous
 62
     4
370
    50
100
AcDbLine
 10
32.0
 20
-1.75
 30
0.0
 11
32.0
 21
0.0
 31
0.0
  0
ARC
  5
4CF
330
1F
100
AcDbEntity
  8
SK1
  6
Continuous
 62
     4
370
    50
100
AcDbCircle
 10
32.0
 20
0.0
 30
0.0
 40
1.75
100
AcDbArc
 50
270.0
 51
0.0
  0
ARC
  5
4D0
330
1F
100
AcDbEntity
  8
SK1
  6
Continuous
 62
     4
370
    50
100
AcDbCircle
 10
32.0
 20
0.0
 30
0.0
 40
1.75
100
AcDbArc
 50
90.0
 51
180.0
  0
LINE
  5
4D1
330
1F
100
AcDbEntity
  8
SK1
  6
Continuous
 62
     4
370
    50
100
AcDbLine
 10
31.77717274741573
 20
-1.73564731720198
 30
0.0
 11
32.0
 21
-1.512820064617713
 31
0.0
  0
LINE
  5
4D2
330
1F
100
AcDbEntity
  8
SK1
  6
Continuous
 62
     4
370
    50
100
AcDbLine
 10
33.51282006461771
 20
0.0
 30
0.0
 11
33.73564731720198
 21
0.2228272525842669
 31
0.0
  0
LINE
  5
4D3
330
1F
100
AcDbEntity
  8
SK1
  6
Continuous
 62
     4
370
    50
100
AcDbLine
 10
31.56930380681874
 20
-1.696028884383693
 30
0.0
 11
32.0
 21
-1.265332691202417
 31
0.0
  0
LINE
  5
4D4
330
1F
100
AcDbEntity
  8
SK1
  6
Continuous
 62
     4
370
    50
100
AcDbLine
 10
33.26533269120242
 20
0.0
 30
0.0
 11
33.69602888438369
 21
0.4306961931812765
 31
0.0
  0
LINE
  5
4D5
330
1F
100
AcDbEntity
  8
SK1
  6
Continuous
 62
     4
370
    50
100
AcDbLine
 10
31.38148340435765
 20
-1.636361913429482
 30
0.0
 11
32.0
 21
-1.017845317787135
 31
0.0
  0
LINE
  5
4D6
330
1F
100
AcDbEntity
  8
SK1
  6
Continuous
 62
     4
370
    50
100
AcDbLine
 10
33.01784531778713
 20
0.0
 30
0.0
 11
33.63636191342948
 21
0.6185165956423617
 31
0.0
  0
LINE
  5
4D7
330
1F
100
AcDbEntity
  8
SK1
  6
Continuous
 62
     4
370
    50
100
AcDbLine
 10
31.20985510946281
 20
-1.560502834909045
 30
0.0
 11
32.0
 21
-0.7703579443718382
 31
0.0
  0
LINE
  5
4D8
330
1F
100
AcDbEntity
  8
SK1
  6
Continuous
 62
     4
370
    50
100
AcDbLine
 10
32.77035794437184
 20
0.0
 30
0.0
 11
33.56050283490904
 21
0.7901448905372064
 31
0.0
  0
LINE
  5
4D9
330
1F
100
AcDbEntity
  8
SK1
  6
Continuous
 62
     4
370
    50
100
AcDbLine
 10
31.05217783219447
 20
-1.470692738762082
 30
0.0
 11
32.0
 21
-0.5228705709565418
 31
0.0
  0
LINE
  5
4DA
330
1F
100
AcDbEntity
  8
SK1
  6
Continuous
 62
     4
370
    50
100
AcDbLine
 10
32.52287057095654
 20
0.0
 30
0.0
 11
33.47069273876208
 21
0.9478221678055263
 31
0.0
  0
LINE
  5
4DB
330
1F
100
AcDbEntity
  8
SK1
  6
Continuous
 62
     4
370
    50
100
AcDbLine
 10
30.90842956711549
 20
-1.366953630425783
 30
0.0
 11
32.0
 21
-0.2753831975412595
 31
0.0
  0
LINE
  5
4DC
330
1F
100
AcDbEntity
  8
SK1
  6
Continuous
 62
     4
370
    50
100
AcDbLine
 10
32.27538319754126
 20
0.0
 30
0.0
 11
33.36695363042578
 21
1.091570432884524
 31
0.0
  0
LINE
  5
4DD
330
1F
100
AcDbEntity
  8
SK1
  6
Continuous
 62
     4
370
    50
100
AcDbLine
 10
30.77712164538164
 20
-1.250774178744322
 30
0.0
 11
32.0
 21
-0.027895824125963
 31
0.0
  0
LINE
  5
4DE
330
1F
100
AcDbEntity
  8
SK1
  6
Continuous
 62
     4
370
    50
100
AcDbLine
 10
32.02789582412596
 20
0.0
 30
0.0
 11
33.25077417874432
 21
1.222878354618359
 31
0.0
  0
LINE
  5
4DF
330
1F
100
AcDbEntity
  8
SK1
  6
Continuous
 62
     4
370
    50
100
AcDbLine
 10
30.65784030371347
 20
-1.12256814699721
 30
0.0
 11
31.78040845071067
 21
0.0
 31
0.0
  0
LINE
  5
4E0
330
1F
100
AcDbEntity
  8
SK1
  6
Continuous
 62
     4
370
    50
100
AcDbLine
 10
32.0
 20
0.2195915492893334
 30
0.0
 11
33.12256814699721
 21
1.342159696286544
 31
0.0
  0
LINE
  5
4E1
330
1F
100
AcDbEntity
  8
SK1
  6
Continuous
 62
     4
370
    50
100
AcDbLine
 10
30.55188167231256
 20
-0.9810394049828233
 30
0.0
 11
31.53292107729538
 21
0.0
 31
0.0
  0
LINE
  5
4E2
330
1F
100
AcDbEntity
  8
SK1
  6
Continuous
 62
     4
370
    50
100
AcDbLine
 10
32.0
 20
0.4670789227046157
 30
0.0
 11
32.98103940498282
 21
1.448118327687439
 31
0.0
  0
LINE
  5
4E3
330
1F
100
AcDbEntity
  8
SK1
  6
Continuous
 62
     4
370
    50
100
AcDbLine
 10
30.45832908651575
 20
-0.8271046173643413
 30
0.0
 11
31.28543370388009
 21
0.0
 31
0.0
  0
LINE
  5
4E4
330
1F
100
AcDbEntity
  8
SK1
  6
Continuous
 62
     4
370
    50
100
AcDbLine
 10
32.0
 20
0.7145662961199122
 30
0.0
 11
32.82710461736434
 21
1.541670913484253
 31
0.0
  0
LINE
  5
4E5
330
1F
100
AcDbEntity
  8
SK1
  6
Continuous
 62
     4
370
    50
100
AcDbLine
 10
30.37918473824206
 20
-0.6587615922227599
 30
0.0
 11
31.03794633046479
 21
0.0
 31
0.0
  0
LINE
  5
4E6
330
1F
100
AcDbEntity
  8
SK1
  6
Continuous
 62
     4
370
    50
100
AcDbLine
 10
32.0
 20
0.9620536695352087
 30
0.0
 11
32.65876159222276
 21
1.620815261757954
 31
0.0
  0
LINE
  5
4E7
330
1F
100
AcDbEntity
  8
SK1
  6
Continuous
 62
     4
370
    50
100
AcDbLine
 10
30.31629687706963
 20
-0.4741620799798767
 30
0.0
 11
30.79045895704951
 21
0.0
 31
0.0
  0
LINE
  5
4E8
330
1F
100
AcDbEntity
  8
SK1
  6
Continuous
 62
     4
370
    50
100
AcDbLine
 10
32.0
 20
1.209541042950491
 30
0.0
 11
32.47416207997988
 21
1.683703122930368
 31
0.0
  0
LINE
  5
4E9
330
1F
100
AcDbEntity
  8
SK1
  6
Continuous
 62
     4
370
    50
100
AcDbLine
 10
30.27198100434271
 20
-0.2709905792915066
 30
0.0
 11
30.54297158363423
 21
0.0
 31
0.0
  0
LINE
  5
4EA
330
1F
100
AcDbEntity
  8
SK1
  6
Continuous
 62
     4
370
    50
100
AcDbLine
 10
32.0
 20
1.457028416365787
 30
0.0
 11
32.27099057929149
 21
1.72801899565728
 31
0.0
  0
LINE
  5
4EB
330
1F
100
AcDbEntity
  8
SK1
  6
Continuous
 62
     4
370
    50
100
AcDbLine
 10
30.25138584689779
 20
-0.044098363321126
 30
0.0
 11
30.29548421021892
 21
0.0
 31
0.0
  0
LINE
  5
4EC
330
1F
100
AcDbEntity
  8
SK1
  6
Continuous
 62
     4
370
    50
100
AcDbLine
 10
32.0
 20
1.70451578978107
 30
0.0
 11
32.04409836332113
 21
1.748614153102196
 31
0.0
  0
LINE
  5
4ED
330
1F
100
AcDbEntity
  8
SK1
  6
Continuous
 62
     4
370
    50
100
AcDbLine
 10
30.36386517603682
 20
-0.6191473609003992
 30
0.0
 11
31.3808526390996
 21
-1.636134823963189
 31
0.0
  0
LINE
  5
4EE
330
1F
100
AcDbEntity
  8
SK1
  6
Continuous
 62
     4
370
    50
100
AcDbLine
 10
30.27363430643544
 20
-0.2814291178837465
 30
0.0
 11
31.71857088211625
 21
-1.726365693564546
 31
0.0
  0
LINE
  5
4EF
330
1F
100
AcDbEntity
  8
SK1
  6
Continuous
 62
     4
370
    50
100
AcDbLine
 10
30.2503344343115
 20
-0.0106418723444932
 30
0.0
 11
31.98935812765549
 21
-1.749665565688503
 31
0.0
  0
LINE
  5
4F0
330
1F
100
AcDbEntity
  8
SK1
  6
Continuous
 62
     4
370
    50
100
AcDbLine
 10
30.48717993538229
 20
0.0
 30
0.0
 11
32.0
 21
-1.512820064617713
 31
0.0
  0
LINE
  5
4F1
330
1F
100
AcDbEntity
  8
SK1
  6
Continuous
 62
     4
370
    50
100
AcDbLine
 10
30.73466730879758
 20
0.0
 30
0.0
 11
32.0
 21
-1.265332691202417
 31
0.0
  0
LINE
  5
4F2
330
1F
100
AcDbEntity
  8
SK1
  6
Continuous
 62
     4
370
    50
100
AcDbLine
 10
30.98215468221287
 20
0.0
 30
0.0
 11
32.0
 21
-1.017845317787135
 31
0.0
  0
LINE
  5
4F3
330
1F
100
AcDbEntity
  8
SK1
  6
Continuous
 62
     4
370
    50
100
AcDbLine
 10
31.22964205562816
 20
0.0
 30
0.0
 11
32.0
 21
-0.7703579443718382
 31
0.0
  0
LINE
  5
4F4
330
1F
100
AcDbEntity
  8
SK1
  6
Continuous
 62
     4
370
    50
100
AcDbLine
 10
31.47712942904346
 20
0.0
 30
0.0
 11
32.0
 21
-0.5228705709565418
 31
0.0
  0
LINE
  5
4F5
330
1F
100
AcDbEntity
  8
SK1
  6
Continuous
 62
     4
370
    50
100
AcDbLine
 10
31.72461680245874
 20
0.0
 30
0.0
 11
32.0
 21
-0.2753831975412595
 31
0.0
  0
LINE
  5
4F6
330
1F
100
AcDbEntity
  8
SK1
  6
Continuous
 62
     4
370
    50
100
AcDbLine
 10
31.97210417587404
 20
0.0
 30
0.0
 11
32.0
 21
-0.027895824125963
 31
0.0
  0
LINE
  5
4F7
330
1F
100
AcDbEntity
  8
SK1
  6
Continuous
 62
     4
370
    50
100
AcDbLine
 10
32.0
 20
0.2195915492893334
 30
0.0
 11
32.21959154928933
 21
0.0
 31
0.0
  0
LINE
  5
4F8
330
1F
100
AcDbEntity
  8
SK1
  6
Continuous
 62
     4
370
    50
100
AcDbLine
 10
32.0
 20
0.4670789227046157
 30
0.0
 11
32.46707892270462
 21
0.0
 31
0.0
  0
LINE
  5
4F9
330
1F
100
AcDbEntity
  8
SK1
  6
Continuous
 62
     4
370
    50
100
AcDbLine
 10
32.0
 20
0.7145662961199122
 30
0.0
 11
32.71456629611991
 21
0.0
 31
0.0
  0
LINE
  5
4FA
330
1F
100
AcDbEntity
  8
SK1
  6
Continuous
 62
     4
370
    50
100
AcDbLine
 10
32.0
 20
0.9620536695352087
 30
0.0
 11
32.96205366953521
 21
0.0
 31
0.0
  0
LINE
  5
4FB
330
1F
100
AcDbEntity
  8
SK1
  6
Continuous
 62
     4
370
    50
100
AcDbLine
 10
32.0
 20
1.209541042950491
 30
0.0
 11
33.20954104295049
 21
0.0
 31
0.0
  0
LINE
  5
4FC
330
1F
100
AcDbEntity
  8
SK1
  6
Continuous
 62
     4
370
    50
100
AcDbLine
 10
32.0
 20
1.457028416365787
 30
0.0
 11
33.45702841636579
 21
0.0
 31
0.0
  0
LINE
  5
4FD
330
1F
100
AcDbEntity
  8
SK1
  6
Continuous
 62
     4
370
    50
100
AcDbLine
 10
32.0
 20
1.70451578978107
 30
0.0
 11
33.70451578978108
 21
0.0
 31
0.0
  0
LINE
  5
4FE
330
1F
100
AcDbEntity
  8
SK1
  6
Continuous
 62
     4
370
    50
100
AcDbLine
 10
32.21543384193566
 20
1.736569321260703
 30
0.0
 11
33.7365693212607
 21
0.2154338419356776
 31
0.0
  0
LINE
  5
4FF
330
1F
100
AcDbEntity
  8
SK1
  6
Continuous
 62
     4
370
    50
100
AcDbLine
 10
32.53283284728994
 20
1.666657689321724
 30
0.0
 11
33.66665768932174
 21
0.5328328472899386
 31
0.0
  0
LINE
  5
500
330
1F
100
AcDbEntity
  8
SK1
  6
Continuous
 62
     4
370
    50
100
AcDbLine
 10
33.04009874905675
 20
1.406879160970206
 30
0.0
 11
33.40687916097022
 21
1.040098749056753
 31
0.0
  0
LINE
  5
503
330
1F
100
AcDbEntity
  8
SK1
370
    25
100
AcDbLine
 10
32.0
 20
3.0
 30
0.0
 11
0.6999999999999993
 21
3.0
 31
0.0
  0
LINE
  5
504
330
1F
100
AcDbEntity
  8
SK1
370
    25
100
AcDbLine
 10
32.0
 20
-3.0
 30
0.0
 11
0.6999999999999993
 21
-3.0
 31
0.0
  0
LINE
  5
505
330
1F
100
AcDbEntity
  8
SK1
100
AcDbLine
 10
0.6999999999999993
 20
3.0
 30
0.0
 11
0.6999999999999993
 21
-3.0
 31
0.0
  0
LINE
  5
506
330
1F
100
AcDbEntity
  8
1
100
AcDbLine
 10
41.83783506850969
 20
3.0
 30
0.0
 11
41.83783506850969
 21
-3.0
 31
0.0
  0
LINE
  5
507
330
1F
100
AcDbEntity
  8
1
100
AcDbLine
 10
43.44274708811341
 20
2.735425789655181
 30
0.0
 11
43.44274708811311
 21
-2.735425789655295
 31
0.0
  0
LINE
  5
508
330
1F
100
AcDbEntity
  8
1
100
AcDbLine
 10
49.68128633659951
 20
0.4659777507159788
 30
0.0
 11
49.68128633659951
 21
-0.4659777507159788
 31
0.0
  0
ARC
  5
524
330
1F
100
AcDbEntity
  8
CUT
370
    25
390
3F6
100
AcDbCircle
 10
49.5
 20
0.0
 30
0.0
 40
0.5
100
AcDbArc
 50
0.0
 51
68.74172299999992
  0
ARC
  5
525
330
1F
100
AcDbEntity
  8
CUT
370
    25
100
AcDbCircle
 10
41.83783506850969
 20
-2.0
 30
0.0
 40
5.0
100
AcDbArc
 50
71.27765309008417
 51
90.0
  0
ARC
  5
526
330
1F
100
AcDbEntity
  8
CUT
370
    25
390
3F6
100
AcDbCircle
 10
-4.704613499999986
 20
-139.3273479
 30
0.0
 40
150.0
100
AcDbArc
 50
68.74172346734832
 51
71.27765309008409
  0
LINE
  5
56C
330
1F
100
AcDbEntity
  8
CUT
100
AcDbLine
 10
41.83783506850969
 20
3.0
 30
0.0
 11
41.83783506850969
 21
0.0
 31
0.0
  0
LINE
  5
5B4
330
1F
100
AcDbEntity
  8
NOCUT
100
AcDbLine
 10
32.0
 20
3.0
 30
0.0
 11
32.0
 21
0.0
 31
0.0
  0
LINE
  5
5B5
330
1F
100
AcDbEntity
  8
NOCUT
370
    25
100
AcDbLine
 10
41.83783506850969
 20
3.0
 30
0.0
 11
32.0
 21
3.0
 31
0.0
  0
LINE
  5
5BA
330
1F
100
AcDbEntity
  8
NOCUT
100
AcDbLine
 10
41.83783506850969
 20
3.0
 30
0.0
 11
41.83783506850969
 21
0.0
 31
0.0
  0
LINE
  5
70A
330
1F
100
AcDbEntity
  8
4
  6
LONGDASH_DASH
 62
     2
370
    25
100
AcDbLine
 10
32.0
 20
0.0
 30
0.0
 11
50.0
 21
0.0
 31
0.0
  0
LINE
  5
711
330
1F
100
AcDbEntity
  8
CUT
100
AcDbLine
 10
50.0
 20
0.0
 30
0.0
 11
41.83783506850969
 21
0.0
 31
0.0
  0
LINE
  5
725
330
1F
100
AcDbEntity
  8
NOCUT
100
AcDbLine
 10
41.83783506850969
 20
0.0
 30
0.0
 11
32.0
 21
0.0
 31
0.0
  0
LINE
  5
746
330
1F
100
AcDbEntity
  8
SK2
  6
Continuous
 62
     7
370
    25
100
AcDbLine
 10
32.0
 20
21.00001
 30
0.0
 11
32.0
 21
3.0
 31
0.0
  0
LINE
  5
979
330
1F
100
AcDbEntity
  8
2
100
AcDbLine
 10
53.188920948326
 20
4.079443863690457
 30
0.0
 11
68.03887374699801
 21
20.71650263372728
 31
0.0
1001
ACAD_DSTYLE_DIMRADIAL_EXTENSION
1070
   387
1070
     1
1070
   388
1040
0.0
1070
   390
1040
1.199769399843909
1001
ACAD
1000
DSTYLE
1002
{
1070
   279
1070
     2
1070
   144
1040
1.0
1002
}
  0
MTEXT
  5
97A
330
1F
100
AcDbEntity
  8
2
100
AcDbMText
 10
61.73677763429482
 20
17.78852400559162
 30
0.0
 40
3.5
 41
0.0
 71
     5
 72
     1
  1
R0.5
 11
0.6707128996956355
 21
0.7417170661255358
 31
0.0
 73
     1
 44
1.0
1001
ACAD_DSTYLE_DIMRADIAL_EXTENSION
1070
   387
1070
     1
1070
   388
1040
0.0
1070
   390
1040
1.199769399843909
1001
ACAD
1000
DSTYLE
1002
{
1070
   279
1070
     2
1070
   144
1040
1.0
1002
}
  0
SOLID
  5
97C
330
1F
100
AcDbEntity
  8
2
100
AcDbTrace
 10
52.57082339322139
 20
4.638371280103485
 30
0.0
 11
53.80701850343061
 21
3.52051644727743
 31
0.0
 12
49.83535644984782
 22
0.3708585330627727
 32
0.0
 13
49.83535644984782
 23
0.3708585330627727
 33
0.0
1001
ACAD_DSTYLE_DIMRADIAL_EXTENSION
1070
   387
1070
     1
1070
   388
1040
0.0
1070
   390
1040
1.199769399843909
1001
ACAD
1000
DSTYLE
1002
{
1070
   279
1070
     2
1070
   144
1040
1.0
1002
}
  0
LINE
  5
97E
330
1F
100
AcDbEntity
  8
2
100
AcDbLine
 10
50.44896021818445
 20
5.528039663296425
 30
0.0
 11
59.27191328527254
 21
28.87585197434305
 31
0.0
1001
ACAD_DSTYLE_DIMRADIAL_EXTENSION
1070
   387
1070
     1
1070
   388
1040
1.199769408000681
1070
   390
1040
1.244029729516278
1001
ACAD
1000
DSTYLE
1002
{
1070
   279
1070
     2
1070
   144
1040
1.0
1002
}
  0
MTEXT
  5
97F
330
1F
100
AcDbEntity
  8
2
100
AcDbMText
 10
54.06381796147524
 20
24.31876856602042
 30
0.0
 40
3.5
 41
0.0
 71
     5
 72
     1
  1
R150
 11
0.3558295078592543
 21
0.9345508875051379
 31
0.0
 73
     1
 44
1.0
1001
ACAD_DSTYLE_DIMRADIAL_EXTENSION
1070
   387
1070
     1
1070
   388
1040
1.199769408000681
1070
   390
1040
1.244029729516278
1001
ACAD
1000
DSTYLE
1002
{
1070
   279
1070
     2
1070
   144
1040
1.0
1002
}
  0
SOLID
  5
981
330
1F
100
AcDbEntity
  8
2
100
AcDbTrace
 10
49.67016781193017
 20
5.824564253179133
 30
0.0
 11
51.22775262443874
 21
5.231515073413718
 31
0.0
 12
48.66981267888818
 22
0.8552852257707286
 32
0.0
 13
48.66981267888818
 23
0.8552852257707286
 33
0.0
1001
ACAD_DSTYLE_DIMRADIAL_EXTENSION
1070
   387
1070
     1
1070
   388
1040
1.199769408000681
1070
   390
1040
1.244029729516278
1001
ACAD
1000
DSTYLE
1002
{
1070
   279
1070
     2
1070
   144
1040
1.0
1002
}
  0
LINE
  5
982
330
1F
100
AcDbEntity
  8
2
100
AcDbLine
 10
43.74761456551437
 20
7.815943269641494
 30
0.0
 11
45.81766703212951
 21
18.45966132674845
 31
0.0
1001
ACAD_DSTYLE_DIMRADIAL_EXTENSION
1070
   387
1070
     1
1070
   388
1040
1.244029729516279
1070
   390
1040
1.570796326794897
1001
ACAD
1000
DSTYLE
1002
{
1070
   279
1070
     2
1070
   144
1040
1.0
1002
}
  0
MTEXT
  5
983
330
1F
100
AcDbEntity
  8
2
100
AcDbMText
 10
42.31696630223698
 20
15.3326331223295
 30
0.0
 40
3.5
 41
0.0
 71
     5
 72
     1
  1
R5
 11
0.1909779497004684
 21
0.9815943269641515
 31
0.0
 73
     1
 44
1.0
1001
ACAD_DSTYLE_DIMRADIAL_EXTENSION
1070
   387
1070
     1
1070
   388
1040
1.244029729516279
1070
   390
1040
1.570796326794897
1001
ACAD
1000
DSTYLE
1002
{
1070
   279
1070
     2
1070
   144
1040
1.0
1002
}
  0
SOLID
  5
985
330
1F
100
AcDbEntity
  8
2
100
AcDbTrace
 10
42.92961929304424
 20
7.975091561058548
 30
0.0
 11
44.5656098379845
 21
7.65679497822444
 31
0.0
 12
42.79272481701203
 22
2.90797163482074
 32
0.0
 13
42.79272481701203
 23
2.90797163482074
 33
0.0
1001
ACAD_DSTYLE_DIMRADIAL_EXTENSION
1070
   387
1070
     1
1070
   388
1040
1.244029729516279
1070
   390
1040
1.570796326794897
1001
ACAD
1000
DSTYLE
1002
{
1070
   279
1070
     2
1070
   144
1040
1.0
1002
}
  0
LINE
  5
989
330
1F
100
AcDbEntity
  8
2
100
AcDbLine
 10
49.69365653542268
 20
0.4999646008769645
 30
0.0
 11
36.78727759406348
 21
5.19750236769184
 31
0.0
  0
LINE
  5
9A3
330
1F
100
AcDbEntity
  8
2
100
AcDbLine
 10
36.31743128367053
 20
5.368512439354674
 30
0.0
 11
23.79216394449593
 21
9.92733692704087
 31
0.0
1001
ACAD
1000
DSTYLE
1002
{
1070
   279
1070
     2
1070
   147
1040
0.5
1070
    77
1070
     3
1002
}
  0
LINE
  5
9A4
330
1F
100
AcDbEntity
  8
2
100
AcDbLine
 10
31.5
 20
3.0
 30
0.0
 11
22.57068753980056
 21
3.0
 31
0.0
1001
ACAD
1000
DSTYLE
1002
{
1070
   279
1070
     2
1070
   147
1040
0.5
1070
    77
1070
     3
1002
}
  0
ARC
  5
9A5
330
1F
100
AcDbEntity
  8
2
100
AcDbCircle
 10
42.8248657284949
 20
3.0
 30
0.0
 40
18.25417818869435
100
AcDbArc
 50
128.5132791504839
 51
144.256639575242
1001
ACAD
1000
DSTYLE
1002
{
1070
   279
1070
     2
1070
   147
1040
0.5
1070
    77
1070
     3
1002
}
  0
ARC
  5
9A6
330
1F
100
AcDbEntity
  8
2
100
AcDbCircle
 10
42.8248657284949
 20
3.0
 30
0.0
 40
18.25417818869435
100
AcDbArc
 50
195.743360424758
 51
211.4867208495161
1001
ACAD
1000
DSTYLE
1002
{
1070
   279
1070
     2
1070
   147
1040
0.5
1070
    77
1070
     3
1002
}
  0
ARC
  5
9A7
330
1F
100
AcDbEntity
  8
2
100
AcDbCircle
 10
42.8248657284949
 20
3.0
 30
0.0
 40
18.25417818869435
100
AcDbArc
 50
160.0
 51
180.0
1001
ACAD
1000
DSTYLE
1002
{
1070
   279
1070
     2
1070
   147
1040
0.5
1070
    77
1070
     3
1002
}
  0
SOLID
  5
9A8
330
1F
100
AcDbEntity
  8
2
100
AcDbTrace
 10
27.27234985563511
 20
14.05285812359743
 30
0.0
 11
28.74567786805027
 21
13.27370323167246
 31
0.0
 12
25.67154918606774
 22
9.24329664038953
 32
0.0
 13
25.67154918606774
 23
9.24329664038953
 33
0.0
1001
ACAD
1000
DSTYLE
1002
{
1070
   279
1070
     2
1070
   147
1040
0.5
1070
    77
1070
     3
1002
}
  0
SOLID
  5
9A9
330
1F
100
AcDbEntity
  8
2
100
AcDbTrace
 10
26.08094333759455
 20
-1.838757265008653
 30
0.0
 11
24.4299812085218
 21
-2.067015509427861
 31
0.0
 12
24.57068753980056
 22
3.0
 32
0.0
 13
24.57068753980056
 23
3.0
 33
0.0
1001
ACAD
1000
DSTYLE
1002
{
1070
   279
1070
     2
1070
   147
1040
0.5
1070
    77
1070
     3
1002
}
  0
MTEXT
  5
9AA
330
1F
100
AcDbEntity
  8
2
100
AcDbMText
 10
20.75038609013231
 20
10.24374187787186
 30
0.0
 40
3.5
 41
0.0
 71
     5
 72
     1
  1
20%%d
 11
0.3117919164955432
 21
0.9501504095710511
 31
0.0
 73
     1
 44
1.0
1001
ACAD
1000
DSTYLE
1002
{
1070
   279
1070
     2
1070
   147
1040
0.5
1070
    77
1070
     3
1002
}
  0
LINE
  5
9F8
330
1F
100
AcDbEntity
  8
INFTOTAL
100
AcDbLine
 10
137.0
 20
74.0
 30
0.0
 11
137.0
 21
-74.0
 31
0.0
  0
LINE
  5
9F9
330
1F
100
AcDbEntity
  8
INFTOTAL
100
AcDbLine
 10
-73.0
 20
74.0
 30
0.0
 11
-73.0
 21
-74.0
 31
0.0
  0
LINE
  5
A01
330
1F
100
AcDbEntity
  8
INFTOTAL
100
AcDbLine
 10
-73.0
 20
74.0
 30
0.0
 11
137.0
 21
74.0
 31
0.0
  0
LINE
  5
A02
330
1F
100
AcDbEntity
  8
INFTOTAL
100
AcDbLine
 10
-73.0
 20
-74.0
 30
0.0
 11
137.0
 21
-74.0
 31
0.0
  0
DIMENSION
  5
A9F
330
1F
100
AcDbEntity
  8
2
100
AcDbDimension
  2
*D20
 10
41.83783506850969
 20
-16.61844871042952
 30
0.0
 11
60.67204891804369
 21
-13.82931494979459
 31
0.0
 70
   160
 71
     5
 42
8.16216493149031
  3
ISO13399対応
100
AcDbAlignedDimension
 13
50.0
 23
0.0
 33
0.0
 14
41.83783506850969
 24
-3.0
 34
0.0
100
AcDbRotatedDimension
1001
ACAD
1000
DSTYLE
1002
{
1070
    44
1040
1.25
1070
   271
1070
     1
1070
   144
1040
1.0
1070
   147
1040
0.5
1070
    77
1070
     3
1070
   279
1070
     1
1002
}
  0
DIMENSION
  5
AC5
330
1F
100
AcDbEntity
  8
SK2
100
AcDbDimension
  2
*D22
 10
-8.914385855666445
 20
-2.999999999999999
 30
0.0
 11
-8.914385855666445
 21
0.4359412644557175
 31
0.0
 70
   160
  1
%%c<>
 71
     5
 42
6.0
  3
ISO13399対応
100
AcDbAlignedDimension
 13
0.6999999999999993
 23
3.0
 33
0.0
 14
0.6999999999999993
 24
-3.0
 34
0.0
 50
90.0
100
AcDbRotatedDimension
1001
ACAD
1000
DSTYLE
1002
{
1070
   144
1040
1.0
1070
    44
1040
1.25
1070
   174
1070
     1
1070
   279
1070
     0
1070
     3
1000
<>
1070
   340
1005
B02
1002
}
  0
DIMENSION
  5
B3D
330
1F
100
AcDbEntity
  8
SK2
100
AcDbDimension
  2
*D23
 10
0.0
 20
29.48647156419499
 30
0.0
 11
16.0
 21
31.79772156419499
 31
0.0
 70
    32
 71
     5
 42
32.0
  3
ISO13399対応
100
AcDbAlignedDimension
 13
32.0
 23
3.0
 33
0.0
 14
0.0
 24
2.300000000000011
 34
0.0
100
AcDbRotatedDimension
1001
ACAD
1000
DSTYLE
1002
{
1070
   340
1005
B02
1070
   144
1040
1.0
1002
}
  0
DIMENSION
  5
B4D
330
1F
100
AcDbEntity
  8
2
100
AcDbDimension
  2
*D24
 10
50.0
 20
29.48647156419499
 30
0.0
 11
41.0
 21
31.79772156419499
 31
0.0
 70
    32
 71
     5
 42
18.0
  3
ISO13399対応
100
AcDbAlignedDimension
 13
32.0
 23
3.0
 33
0.0
 14
50.0
 24
0.0
 34
0.0
100
AcDbRotatedDimension
1001
ACAD
1000
DSTYLE
1002
{
1070
   340
1005
B02
1070
   144
1040
1.0
1002
}
  0
DIMENSION
  5
B5C
330
1F
100
AcDbEntity
  8
2
100
AcDbDimension
  2
*D25
 10
0.0
 20
39.41407177123608
 30
0.0
 11
25.0
 21
41.72532177123608
 31
0.0
 70
    32
 71
     5
 42
50.0
  3
ISO13399対応
100
AcDbAlignedDimension
 13
50.0
 23
0.0
 33
0.0
 14
0.0
 24
2.300000000000011
 34
0.0
100
AcDbRotatedDimension
1001
ACAD
1000
DSTYLE
1002
{
1070
   340
1005
B02
1070
   144
1040
1.0
1002
}
  0
ENDSEC
  0
SECTION
  2
OBJECTS
  0
DICTIONARY
  5
C
330
0
100
AcDbDictionary
281
     1
  3
ACAD_DETAILVIEWSTYLE
350
40F
  3
ACAD_GROUP
350
D
  3
ACAD_IMAGE_VARS
350
A1F
  3
ACAD_LAYOUT
350
1A
  3
ACAD_MLINESTYLE
350
17
  3
ACAD_PLOTSETTINGS
350
19
  3
ACAD_PLOTSTYLENAME
350
3F5
  3
ACAD_SCALELIST
350
AE
  3
ACAD_SECTIONVIEWSTYLE
350
410
  3
ACDBVARIABLEDICTIONARY
350
3E7
  3
APPDATA
350
406
  3
DWGPROPS
350
C19
  0
DICTIONARY
  5
472
330
2
100
AcDbDictionary
280
     1
281
     1
  3
ACAD_LAYERSTATES
360
473
  3
ACLYDICTIONARY
360
B8D
  0
DICTIONARY
  5
40F
102
{ACAD_REACTORS
330
C
102
}
330
C
100
AcDbDictionary
281
     1
  0
DICTIONARY
  5
D
102
{ACAD_REACTORS
330
C
102
}
330
C
100
AcDbDictionary
281
     1
  0
RASTERVARIABLES
  5
A1F
102
{ACAD_REACTORS
330
C
102
}
330
C
100
AcDbRasterVariables
 90
        0
 70
     1
 71
     1
 72
     1
  0
DICTIONARY
  5
1A
102
{ACAD_REACTORS
330
C
102
}
330
C
100
AcDbDictionary
281
     1
  3
Model
350
3F7
  3
シート 1
350
3F8
  0
DICTIONARY
  5
17
102
{ACAD_REACTORS
330
C
102
}
330
C
100
AcDbDictionary
281
     1
  3
STANDARD
350
18
  0
DICTIONARY
  5
19
102
{ACAD_REACTORS
330
C
102
}
330
C
100
AcDbDictionary
281
     1
  0
ACDBDICTIONARYWDFLT
  5
3F5
102
{ACAD_REACTORS
330
C
102
}
330
C
100
AcDbDictionary
281
     1
  3
Normal
350
3F6
100
AcDbDictionaryWithDefault
340
3F6
  0
DICTIONARY
  5
AE
102
{ACAD_REACTORS
330
C
102
}
330
C
100
AcDbDictionary
281
     1
  3
A0
350
AF
  3
A1
350
B0
  3
A2
350
B1
  3
A3
350
B2
  3
A4
350
B3
  3
A5
350
B4
  3
A6
350
B5
  3
A7
350
B6
  3
A8
350
B7
  3
A9
350
B8
  3
B0
350
B9
  3
B1
350
BA
  3
B2
350
BB
  3
B3
350
BC
  3
B4
350
BD
  3
B5
350
BE
  3
B6
350
BF
  3
B7
350
C0
  3
B8
350
C1
  3
B9
350
C2
  3
C0
350
C3
  3
C1
350
C4
  3
C2
350
C5
  3
C3
350
C6
  3
C4
350
C7
  3
C5
350
C8
  3
C6
350
C9
  3
C7
350
CA
  3
C8
350
CB
  3
C9
350
CC
  3
D0
350
CD
  3
D1
350
CE
  3
D2
350
CF
  0
DICTIONARY
  5
410
102
{ACAD_REACTORS
330
C
102
}
330
C
100
AcDbDictionary
281
     1
  0
DICTIONARY
  5
3E7
102
{ACAD_REACTORS
330
C
102
}
330
C
100
AcDbDictionary
281
     1
  3
DIMASSOC
350
3ED
  3
HIDETEXT
350
3EE
  0
DICTIONARY
  5
406
102
{ACAD_REACTORS
330
C
102
}
330
C
100
AcDbDictionary
281
     1
  0
XRECORD
  5
C19
102
{ACAD_REACTORS
330
C
102
}
330
C
100
AcDbXrecord
280
     1
  1
DWGPROPS COOKIE
  2

  3

  4

  6

  7

  8
usr4834
  9

300
=
301
=
302
=
303
=
304
=
305
=
306
=
307
=
308
=
309
=
 40
0.0
 41
2458499.35625
 42
2458880.117239872
  1

 90
        0
  0
DICTIONARY
  5
473
102
{ACAD_REACTORS
330
472
102
}
330
472
100
AcDbDictionary
281
     1
  0
DICTIONARY
  5
B8D
102
{ACAD_REACTORS
330
472
102
}
330
472
100
AcDbDictionary
281
     1
1001
ACAD
1000
<All
  0
LAYOUT
  5
3F7
102
{ACAD_REACTORS
330
1A
102
}
330
1A
100
AcDbPlotSettings
  1

  2
none_device
  4
Letter_(8.50_x_11.00_Inches)
  6

 40
6.35
 41
6.35
 42
6.35
 43
6.35
 44
215.9
 45
279.4
 46
0.0
 47
0.0
 48
0.0
 49
0.0
140
0.0
141
0.0
142
1.0
143
2.81625
 70
  1712
 72
     0
 73
     0
 74
     0
  7

 75
     0
147
0.3550821127385708
148
0.1269999999999747
149
0.0
100
AcDbLayout
  1
Model
 70
     1
 71
     0
 10
0.0
 20
0.0
 11
420.0
 21
297.0
 12
0.0
 22
0.0
 32
0.0
 14
-73.0
 24
-74.0
 34
0.0
 15
137.0
 25
74.00000000000001
 35
0.0
146
0.0
 13
0.0
 23
0.0
 33
0.0
 16
1.0
 26
0.0
 36
0.0
 17
0.0
 27
1.0
 37
0.0
 76
     0
330
1F
331
29
  0
LAYOUT
  5
3F8
102
{ACAD_REACTORS
330
1A
102
}
330
1A
100
AcDbPlotSettings
  1

  2
none_device
  4

  6

 40
0.0
 41
0.0
 42
0.0
 43
0.0
 44
0.0
 45
0.0
 46
0.0
 47
0.0
 48
0.0
 49
0.0
140
0.0
141
0.0
142
1.0
143
1.0
 70
   688
 72
     1
 73
     0
 74
     5
  7

 75
    16
147
1.0
148
0.0
149
0.0
100
AcDbLayout
  1
シート 1
 70
     1
 71
     1
 10
0.0
 20
0.0
 11
0.0
 21
0.0
 12
0.0
 22
0.0
 32
0.0
 14
1.000000000000000E+20
 24
1.000000000000000E+20
 34
1.000000000000000E+20
 15
-1.000000000000000E+20
 25
-1.000000000000000E+20
 35
-1.000000000000000E+20
146
0.0
 13
0.0
 23
0.0
 33
0.0
 16
1.0
 26
0.0
 36
0.0
 17
0.0
 27
1.0
 37
0.0
 76
     0
330
1B
  0
MLINESTYLE
  5
18
102
{ACAD_REACTORS
330
17
102
}
330
17
100
AcDbMlineStyle
  2
Standard
 70
     0
  3

 62
   256
 51
90.0
 52
90.0
 71
     2
 49
0.5
 62
   256
  6
BYLAYER
 49
-0.5
 62
   256
  6
BYLAYER
  0
ACDBPLACEHOLDER
  5
3F6
102
{ACAD_REACTORS
330
3F5
102
}
330
3F5
  0
SCALE
  5
AF
102
{ACAD_REACTORS
330
AE
102
}
330
AE
100
AcDbScale
 70
     0
300
1:1
140
1.0
141
1.0
290
     1
  0
SCALE
  5
B0
102
{ACAD_REACTORS
330
AE
102
}
330
AE
100
AcDbScale
 70
     0
300
1:2
140
1.0
141
2.0
290
     0
  0
SCALE
  5
B1
102
{ACAD_REACTORS
330
AE
102
}
330
AE
100
AcDbScale
 70
     0
300
1:4
140
1.0
141
4.0
290
     0
  0
SCALE
  5
B2
102
{ACAD_REACTORS
330
AE
102
}
330
AE
100
AcDbScale
 70
     0
300
1:5
140
1.0
141
5.0
290
     0
  0
SCALE
  5
B3
102
{ACAD_REACTORS
330
AE
102
}
330
AE
100
AcDbScale
 70
     0
300
1:8
140
1.0
141
8.0
290
     0
  0
SCALE
  5
B4
102
{ACAD_REACTORS
330
AE
102
}
330
AE
100
AcDbScale
 70
     0
300
1:10
140
1.0
141
10.0
290
     0
  0
SCALE
  5
B5
102
{ACAD_REACTORS
330
AE
102
}
330
AE
100
AcDbScale
 70
     0
300
1:16
140
1.0
141
16.0
290
     0
  0
SCALE
  5
B6
102
{ACAD_REACTORS
330
AE
102
}
330
AE
100
AcDbScale
 70
     0
300
1:20
140
1.0
141
20.0
290
     0
  0
SCALE
  5
B7
102
{ACAD_REACTORS
330
AE
102
}
330
AE
100
AcDbScale
 70
     0
300
1:30
140
1.0
141
30.0
290
     0
  0
SCALE
  5
B8
102
{ACAD_REACTORS
330
AE
102
}
330
AE
100
AcDbScale
 70
     0
300
1:40
140
1.0
141
40.0
290
     0
  0
SCALE
  5
B9
102
{ACAD_REACTORS
330
AE
102
}
330
AE
100
AcDbScale
 70
     0
300
1:50
140
1.0
141
50.0
290
     0
  0
SCALE
  5
BA
102
{ACAD_REACTORS
330
AE
102
}
330
AE
100
AcDbScale
 70
     0
300
1:100
140
1.0
141
100.0
290
     0
  0
SCALE
  5
BB
102
{ACAD_REACTORS
330
AE
102
}
330
AE
100
AcDbScale
 70
     0
300
2:1
140
2.0
141
1.0
290
     0
  0
SCALE
  5
BC
102
{ACAD_REACTORS
330
AE
102
}
330
AE
100
AcDbScale
 70
     0
300
4:1
140
4.0
141
1.0
290
     0
  0
SCALE
  5
BD
102
{ACAD_REACTORS
330
AE
102
}
330
AE
100
AcDbScale
 70
     0
300
8:1
140
8.0
141
1.0
290
     0
  0
SCALE
  5
BE
102
{ACAD_REACTORS
330
AE
102
}
330
AE
100
AcDbScale
 70
     0
300
10:1
140
10.0
141
1.0
290
     0
  0
SCALE
  5
BF
102
{ACAD_REACTORS
330
AE
102
}
330
AE
100
AcDbScale
 70
     0
300
100:1
140
100.0
141
1.0
290
     0
  0
SCALE
  5
C0
102
{ACAD_REACTORS
330
AE
102
}
330
AE
100
AcDbScale
 70
     0
300
1/128" = 1'-0"
140
0.0078125
141
12.0
290
     0
  0
SCALE
  5
C1
102
{ACAD_REACTORS
330
AE
102
}
330
AE
100
AcDbScale
 70
     0
300
1/64" = 1'-0"
140
0.015625
141
12.0
290
     0
  0
SCALE
  5
C2
102
{ACAD_REACTORS
330
AE
102
}
330
AE
100
AcDbScale
 70
     0
300
1/32" = 1'-0"
140
0.03125
141
12.0
290
     0
  0
SCALE
  5
C3
102
{ACAD_REACTORS
330
AE
102
}
330
AE
100
AcDbScale
 70
     0
300
1/16" = 1'-0"
140
0.0625
141
12.0
290
     0
  0
SCALE
  5
C4
102
{ACAD_REACTORS
330
AE
102
}
330
AE
100
AcDbScale
 70
     0
300
3/32" = 1'-0"
140
0.09375
141
12.0
290
     0
  0
SCALE
  5
C5
102
{ACAD_REACTORS
330
AE
102
}
330
AE
100
AcDbScale
 70
     0
300
1/8" = 1'-0"
140
0.125
141
12.0
290
     0
  0
SCALE
  5
C6
102
{ACAD_REACTORS
330
AE
102
}
330
AE
100
AcDbScale
 70
     0
300
3/16" = 1'-0"
140
0.1875
141
12.0
290
     0
  0
SCALE
  5
C7
102
{ACAD_REACTORS
330
AE
102
}
330
AE
100
AcDbScale
 70
     0
300
1/4" = 1'-0"
140
0.25
141
12.0
290
     0
  0
SCALE
  5
C8
102
{ACAD_REACTORS
330
AE
102
}
330
AE
100
AcDbScale
 70
     0
300
3/8" = 1'-0"
140
0.375
141
12.0
290
     0
  0
SCALE
  5
C9
102
{ACAD_REACTORS
330
AE
102
}
330
AE
100
AcDbScale
 70
     0
300
1/2" = 1'-0"
140
0.5
141
12.0
290
     0
  0
SCALE
  5
CA
102
{ACAD_REACTORS
330
AE
102
}
330
AE
100
AcDbScale
 70
     0
300
3/4" = 1'-0"
140
0.75
141
12.0
290
     0
  0
SCALE
  5
CB
102
{ACAD_REACTORS
330
AE
102
}
330
AE
100
AcDbScale
 70
     0
300
1" = 1'-0"
140
1.0
141
12.0
290
     0
  0
SCALE
  5
CC
102
{ACAD_REACTORS
330
AE
102
}
330
AE
100
AcDbScale
 70
     0
300
1-1/2" = 1'-0"
140
1.5
141
12.0
290
     0
  0
SCALE
  5
CD
102
{ACAD_REACTORS
330
AE
102
}
330
AE
100
AcDbScale
 70
     0
300
3" = 1'-0"
140
3.0
141
12.0
290
     0
  0
SCALE
  5
CE
102
{ACAD_REACTORS
330
AE
102
}
330
AE
100
AcDbScale
 70
     0
300
6" = 1'-0"
140
6.0
141
12.0
290
     0
  0
SCALE
  5
CF
102
{ACAD_REACTORS
330
AE
102
}
330
AE
100
AcDbScale
 70
     0
300
1'-0" = 1'-0"
140
12.0
141
12.0
290
     0
  0
DICTIONARYVAR
  5
3ED
102
{ACAD_REACTORS
330
3E7
102
}
330
3E7
100
DictionaryVariables
280
     0
  1
2
  0
DICTIONARYVAR
  5
3EE
102
{ACAD_REACTORS
330
3E7
102
}
330
3E7
100
DictionaryVariables
280
     0
  1
1
  0
ENDSEC
  0
EOF
