  0
SECTION
  2
HEADER
  9
$ACADVER
  1
AC1015
  9
$ACADMAINTVER
 70
    20
  9
$DWGCODEPAGE
  3
ANSI_932
  9
$INSBASE
 10
0.0
 20
0.0
 30
0.0
  9
$EXTMIN
 10
-31.18403926572546
 20
-30.0
 30
0.0
  9
$EXTMAX
 10
68.81596073427454
 20
34.99987909325575
 30
0.0
  9
$LIMMIN
 10
0.0
 20
0.0
  9
$LIMMAX
 10
420.0
 20
297.0
  9
$ORTHOMODE
 70
     0
  9
$REGENMODE
 70
     1
  9
$FILLMODE
 70
     1
  9
$QTEXTMODE
 70
     0
  9
$MIRRTEXT
 70
     1
  9
$LTSCALE
 40
7.549999999999998
  9
$ATTMODE
 70
     1
  9
$TEXTSIZE
 40
2.5
  9
$TRACEWID
 40
1.0
  9
$TEXTSTYLE
  7
Standard
  9
$CLAYER
  8
1
  9
$CELTYPE
  6
ByLayer
  9
$CECOLOR
 62
   256
  9
$CELTSCALE
 40
1.0
  9
$DISPSILH
 70
     0
  9
$DIMSCALE
 40
1.0
  9
$DIMASZ
 40
2.5
  9
$DIMEXO
 40
0.625
  9
$DIMDLI
 40
3.75
  9
$DIMRND
 40
0.0
  9
$DIMDLE
 40
0.0
  9
$DIMEXE
 40
1.25
  9
$DIMTP
 40
0.0
  9
$DIMTM
 40
0.0
  9
$DIMTXT
 40
2.5
  9
$DIMCEN
 40
2.5
  9
$DIMTSZ
 40
0.0
  9
$DIMTOL
 70
     0
  9
$DIMLIM
 70
     0
  9
$DIMTIH
 70
     0
  9
$DIMTOH
 70
     0
  9
$DIMSE1
 70
     0
  9
$DIMSE2
 70
     0
  9
$DIMTAD
 70
     1
  9
$DIMZIN
 70
     8
  9
$DIMBLK
  1

  9
$DIMASO
 70
     1
  9
$DIMSHO
 70
     1
  9
$DIMPOST
  1

  9
$DIMAPOST
  1

  9
$DIMALT
 70
     0
  9
$DIMALTD
 70
     3
  9
$DIMALTF
 40
0.03937007874016
  9
$DIMLFAC
 40
1.0
  9
$DIMTOFL
 70
     1
  9
$DIMTVP
 40
0.0
  9
$DIMTIX
 70
     0
  9
$DIMSOXD
 70
     0
  9
$DIMSAH
 70
     0
  9
$DIMBLK1
  1

  9
$DIMBLK2
  1

  9
$DIMSTYLE
  2
ISO-25
  9
$DIMCLRD
 70
     0
  9
$DIMCLRE
 70
     0
  9
$DIMCLRT
 70
     0
  9
$DIMTFAC
 40
1.0
  9
$DIMGAP
 40
0.625
  9
$DIMJUST
 70
     0
  9
$DIMSD1
 70
     0
  9
$DIMSD2
 70
     0
  9
$DIMTOLJ
 70
     0
  9
$DIMTZIN
 70
     8
  9
$DIMALTZ
 70
     0
  9
$DIMALTTZ
 70
     0
  9
$DIMUPT
 70
     0
  9
$DIMDEC
 70
     2
  9
$DIMTDEC
 70
     2
  9
$DIMALTU
 70
     2
  9
$DIMALTTD
 70
     3
  9
$DIMTXSTY
  7
Standard
  9
$DIMAUNIT
 70
     0
  9
$DIMADEC
 70
     0
  9
$DIMALTRND
 40
0.0
  9
$DIMAZIN
 70
     0
  9
$DIMDSEP
 70
    44
  9
$DIMATFIT
 70
     3
  9
$DIMFRAC
 70
     0
  9
$DIMLDRBLK
  1

  9
$DIMLUNIT
 70
     2
  9
$DIMLWD
 70
    -2
  9
$DIMLWE
 70
    -2
  9
$DIMTMOVE
 70
     0
  9
$LUNITS
 70
     2
  9
$LUPREC
 70
     4
  9
$SKETCHINC
 40
1.0
  9
$FILLETRAD
 40
10.0
  9
$AUNITS
 70
     0
  9
$AUPREC
 70
     0
  9
$MENU
  1
.
  9
$ELEVATION
 40
0.0
  9
$PELEVATION
 40
0.0
  9
$THICKNESS
 40
0.0
  9
$LIMCHECK
 70
     0
  9
$CHAMFERA
 40
10.0
  9
$CHAMFERB
 40
10.0
  9
$CHAMFERC
 40
20.0
  9
$CHAMFERD
 40
0.0
  9
$SKPOLY
 70
     0
  9
$TDCREATE
 40
2458765.839571759
  9
$TDUCREATE
 40
2458765.464583322
  9
$TDUPDATE
 40
2458886.484074074
  9
$TDUUPDATE
 40
2458886.109074074
  9
$TDINDWG
 40
0.0640654282
  9
$TDUSRTIMER
 40
2458836.262565359
  9
$USRTIMER
 70
     1
  9
$ANGBASE
 50
0.0
  9
$ANGDIR
 70
     0
  9
$PDMODE
 70
     0
  9
$PDSIZE
 40
0.0
  9
$PLINEWID
 40
0.0
  9
$SPLFRAME
 70
     0
  9
$SPLINETYPE
 70
     6
  9
$SPLINESEGS
 70
     8
  9
$HANDSEED
  5
1778
  9
$SURFTAB1
 70
     6
  9
$SURFTAB2
 70
     6
  9
$SURFTYPE
 70
     6
  9
$SURFU
 70
     6
  9
$SURFV
 70
     6
  9
$UCSBASE
  2

  9
$UCSNAME
  2

  9
$UCSORG
 10
0.0
 20
0.0
 30
0.0
  9
$UCSXDIR
 10
1.0
 20
0.0
 30
0.0
  9
$UCSYDIR
 10
0.0
 20
1.0
 30
0.0
  9
$UCSORTHOREF
  2

  9
$UCSORTHOVIEW
 70
     0
  9
$UCSORGTOP
 10
0.0
 20
0.0
 30
0.0
  9
$UCSORGBOTTOM
 10
0.0
 20
0.0
 30
0.0
  9
$UCSORGLEFT
 10
0.0
 20
0.0
 30
0.0
  9
$UCSORGRIGHT
 10
0.0
 20
0.0
 30
0.0
  9
$UCSORGFRONT
 10
0.0
 20
0.0
 30
0.0
  9
$UCSORGBACK
 10
0.0
 20
0.0
 30
0.0
  9
$PUCSBASE
  2

  9
$PUCSNAME
  2

  9
$PUCSORG
 10
0.0
 20
0.0
 30
0.0
  9
$PUCSXDIR
 10
1.0
 20
0.0
 30
0.0
  9
$PUCSYDIR
 10
0.0
 20
1.0
 30
0.0
  9
$PUCSORTHOREF
  2

  9
$PUCSORTHOVIEW
 70
     0
  9
$PUCSORGTOP
 10
0.0
 20
0.0
 30
0.0
  9
$PUCSORGBOTTOM
 10
0.0
 20
0.0
 30
0.0
  9
$PUCSORGLEFT
 10
0.0
 20
0.0
 30
0.0
  9
$PUCSORGRIGHT
 10
0.0
 20
0.0
 30
0.0
  9
$PUCSORGFRONT
 10
0.0
 20
0.0
 30
0.0
  9
$PUCSORGBACK
 10
0.0
 20
0.0
 30
0.0
  9
$USERI1
 70
     0
  9
$USERI2
 70
     0
  9
$USERI3
 70
     0
  9
$USERI4
 70
     0
  9
$USERI5
 70
     0
  9
$USERR1
 40
0.0
  9
$USERR2
 40
0.0
  9
$USERR3
 40
0.0
  9
$USERR4
 40
0.0
  9
$USERR5
 40
0.0
  9
$WORLDVIEW
 70
     1
  9
$SHADEDGE
 70
     3
  9
$SHADEDIF
 70
    70
  9
$TILEMODE
 70
     1
  9
$MAXACTVP
 70
    64
  9
$PINSBASE
 10
0.0
 20
0.0
 30
0.0
  9
$PLIMCHECK
 70
     0
  9
$PEXTMIN
 10
1.000000000000000E+20
 20
1.000000000000000E+20
 30
1.000000000000000E+20
  9
$PEXTMAX
 10
-1.000000000000000E+20
 20
-1.000000000000000E+20
 30
-1.000000000000000E+20
  9
$PLIMMIN
 10
0.0
 20
0.0
  9
$PLIMMAX
 10
0.0
 20
0.0
  9
$UNITMODE
 70
     0
  9
$VISRETAIN
 70
     1
  9
$PLINEGEN
 70
     0
  9
$PSLTSCALE
 70
     1
  9
$TREEDEPTH
 70
  3020
  9
$CMLSTYLE
  2
Standard
  9
$CMLJUST
 70
     0
  9
$CMLSCALE
 40
20.0
  9
$PROXYGRAPHICS
 70
     1
  9
$MEASUREMENT
 70
     1
  9
$CELWEIGHT
370
    -1
  9
$ENDCAPS
280
     0
  9
$JOINSTYLE
280
     0
  9
$LWDISPLAY
290
     0
  9
$INSUNITS
 70
     4
  9
$HYPERLINKBASE
  1

  9
$STYLESHEET
  1

  9
$XEDIT
290
     1
  9
$CEPSNTYPE
380
     0
  9
$PSTYLEMODE
290
     1
  9
$FINGERPRINTGUID
  2
{4E574D77-AF2F-4C2B-BABC-C73A7248EB60}
  9
$VERSIONGUID
  2
{3779F4F3-0F5F-8D4B-8458-3634C9B91586}
  9
$EXTNAMES
290
     1
  9
$PSVPSCALE
 40
0.0
  9
$OLESTARTUP
290
     0
  0
ENDSEC
  0
SECTION
  2
CLASSES
  0
CLASS
  1
ACDBDICTIONARYWDFLT
  2
AcDbDictionaryWithDefault
  3
ObjectDBX Classes
 90
        0
280
     0
281
     0
  0
CLASS
  1
VISUALSTYLE
  2
AcDbVisualStyle
  3
ObjectDBX Classes
 90
     4095
280
     0
281
     0
  0
CLASS
  1
MATERIAL
  2
AcDbMaterial
  3
ObjectDBX Classes
 90
     1153
280
     0
281
     0
  0
CLASS
  1
SCALE
  2
AcDbScale
  3
ObjectDBX Classes
 90
     1153
280
     0
281
     0
  0
CLASS
  1
DICTIONARYVAR
  2
AcDbDictionaryVar
  3
ObjectDBX Classes
 90
        0
280
     0
281
     0
  0
CLASS
  1
ACDBPLACEHOLDER
  2
AcDbPlaceHolder
  3
ObjectDBX Classes
 90
        0
280
     0
281
     0
  0
CLASS
  1
LAYOUT
  2
AcDbLayout
  3
ObjectDBX Classes
 90
        0
280
     0
281
     0
  0
CLASS
  1
TABLESTYLE
  2
AcDbTableStyle
  3
ObjectDBX Classes
 90
     4095
280
     0
281
     0
  0
CLASS
  1
MLEADERSTYLE
  2
AcDbMLeaderStyle
  3
ACDB_MLEADERSTYLE_CLASS
 90
     4095
280
     0
281
     0
  0
CLASS
  1
SUN
  2
AcDbSun
  3
SCENEOE
 90
    33921
280
     0
281
     0
  0
CLASS
  1
RASTERVARIABLES
  2
AcDbRasterVariables
  3
ISM
 90
        0
280
     0
281
     0
  0
CLASS
  1
DIMASSOC
  2
AcDbDimAssoc
  3
"AcDbDimAssoc|Product Desc:     AcDim ARX App For Dimension|Company:          Autodesk, Inc.|WEB Address:      www.autodesk.com"
 90
        0
280
     0
281
     0
  0
CLASS
  1
ACDBSECTIONVIEWSTYLE
  2
AcDbSectionViewStyle
  3
ObjectDBX Classes
 90
     1025
280
     0
281
     0
  0
CLASS
  1
ACDBDETAILVIEWSTYLE
  2
AcDbDetailViewStyle
  3
ObjectDBX Classes
 90
     1025
280
     0
281
     0
  0
CLASS
  1
EXACXREFPANELOBJECT
  2
ExAcXREFPanelObject
  3
EXAC_ESW
 90
     1025
280
     0
281
     0
  0
CLASS
  1
NPOCOLLECTION
  2
AcDbImpNonPersistentObjectsCollection
  3
ObjectDBX Classes
 90
     1153
280
     0
281
     0
  0
CLASS
  1
CELLSTYLEMAP
  2
AcDbCellStyleMap
  3
ObjectDBX Classes
 90
     1152
280
     0
281
     0
  0
CLASS
  1
SOLID_BACKGROUND
  2
AcDbSolidBackground
  3
SCENEOE
 90
    36863
280
     0
281
     0
  0
ENDSEC
  0
SECTION
  2
TABLES
  0
TABLE
  2
VPORT
  5
8
330
0
100
AcDbSymbolTable
 70
     1
  0
VPORT
  5
29
330
8
100
AcDbSymbolTableRecord
100
AcDbViewportTableRecord
  2
*Active
 70
     0
 10
0.0
 20
0.0
 11
1.0
 21
1.0
 12
30.81087398000259
 22
-1.913785547069622
 13
0.0
 23
0.0
 14
10.0
 24
10.0
 15
10.0
 25
10.0
 16
0.0
 26
0.0
 36
1.0
 17
0.0
 27
0.0
 37
0.0
 40
101.9259303834494
 41
2.283154121863799
 42
50.0
 43
0.0
 44
0.0
 50
0.0
 51
0.0
 71
    16
 72
   100
 73
     1
 74
     3
 75
     0
 76
     0
 77
     0
 78
     0
281
     0
 65
     1
110
0.0
120
0.0
130
0.0
111
1.0
121
0.0
131
0.0
112
0.0
122
1.0
132
0.0
 79
     0
146
0.0
1001
ACAD_NAV_VCDISPLAY
1070
     3
  0
ENDTAB
  0
TABLE
  2
LTYPE
  5
5
330
0
100
AcDbSymbolTable
 70
    10
  0
LTYPE
  5
14
330
5
100
AcDbSymbolTableRecord
100
AcDbLinetypeTableRecord
  2
ByBlock
 70
     0
  3

 72
    65
 73
     0
 40
0.0
  0
LTYPE
  5
15
330
5
100
AcDbSymbolTableRecord
100
AcDbLinetypeTableRecord
  2
ByLayer
 70
     0
  3

 72
    65
 73
     0
 40
0.0
  0
LTYPE
  5
16
330
5
100
AcDbSymbolTableRecord
100
AcDbLinetypeTableRecord
  2
Continuous
 70
     0
  3
Solid line
 72
    65
 73
     0
 40
0.0
  0
LTYPE
  5
45
330
5
100
AcDbSymbolTableRecord
100
AcDbLinetypeTableRecord
  2
phl_thick
 70
     0
  3
THICK
 72
    65
 73
     0
 40
0.0
  0
LTYPE
  5
48
330
5
100
AcDbSymbolTableRecord
100
AcDbLinetypeTableRecord
  2
CUT
 70
     0
  3
THICK
 72
    65
 73
     0
 40
0.0
  0
LTYPE
  5
4B
330
5
100
AcDbSymbolTableRecord
100
AcDbLinetypeTableRecord
  2
SKVIEW1
 70
     0
  3
THICK
 72
    65
 73
     0
 40
0.0
  0
LTYPE
  5
51
330
5
100
AcDbSymbolTableRecord
100
AcDbLinetypeTableRecord
  2
ls_SKVIEW2
 70
     0
  3
THIN
 72
    65
 73
     0
 40
0.0
  0
LTYPE
  5
F9
330
5
100
AcDbSymbolTableRecord
100
AcDbLinetypeTableRecord
  2
ls_SK2
 70
     0
  3
THIN
 72
    65
 73
     0
 40
0.0
  0
LTYPE
  5
13F
330
5
100
AcDbSymbolTableRecord
100
AcDbLinetypeTableRecord
  2
ls1
 70
     0
  3
THICK
 72
    65
 73
     0
 40
0.0
  0
LTYPE
  5
14B
330
5
100
AcDbSymbolTableRecord
100
AcDbLinetypeTableRecord
  2
INFTOTAL
 70
     0
  3
THIN
 72
    65
 73
     0
 40
0.0
  0
LTYPE
  5
677
330
5
100
AcDbSymbolTableRecord
100
AcDbLinetypeTableRecord
  2
CENTER
 70
     0
  3
Center ____ _ ____ _ ____ _ ____ _ ____ _ ____
 72
    65
 73
     4
 40
10.16
 49
6.349999999999997
 74
     0
 49
-1.27
 74
     0
 49
1.27
 74
     0
 49
-1.27
 74
     0
  0
LTYPE
  5
822
330
5
100
AcDbSymbolTableRecord
100
AcDbLinetypeTableRecord
  2
AM_DIN_G_W050
 70
     0
  3
____ . ____ . ____ . ____ . ____ . ____ . ____
 72
    65
 73
     4
 40
13.75
 49
9.75
 74
     0
 49
-1.5
 74
     0
 49
1.0
 74
     0
 49
-1.5
 74
     0
  0
ENDTAB
  0
TABLE
  2
LAYER
  5
2
102
{ACAD_XDICTIONARY
360
470
102
}
330
0
100
AcDbSymbolTable
 70
    12
  0
LAYER
  5
10
102
{ACAD_XDICTIONARY
360
929
102
}
330
2
100
AcDbSymbolTableRecord
100
AcDbLayerTableRecord
  2
0
 70
     0
 62
     7
  6
Continuous
370
    -3
390
F
  0
LAYER
  5
44
102
{ACAD_XDICTIONARY
360
92B
102
}
330
2
100
AcDbSymbolTableRecord
100
AcDbLayerTableRecord
  2
1
 70
     0
 62
     4
  6
Continuous
370
    -3
390
F
  0
LAYER
  5
47
102
{ACAD_XDICTIONARY
360
92D
102
}
330
2
100
AcDbSymbolTableRecord
100
AcDbLayerTableRecord
  2
CUT
 70
     0
 62
     1
  6
Continuous
370
    -3
390
F
  0
LAYER
  5
14A
102
{ACAD_XDICTIONARY
360
92F
102
}
330
2
100
AcDbSymbolTableRecord
100
AcDbLayerTableRecord
  2
INFTOTAL
 70
     0
 62
     9
  6
Continuous
370
    -3
390
F
  0
LAYER
  5
5AF
102
{ACAD_XDICTIONARY
360
5B0
102
}
330
2
100
AcDbSymbolTableRecord
100
AcDbLayerTableRecord
  2
2
 70
     0
 62
     7
  6
Continuous
370
    -3
390
F
  0
LAYER
  5
673
102
{ACAD_XDICTIONARY
360
674
102
}
330
2
100
AcDbSymbolTableRecord
100
AcDbLayerTableRecord
  2
SK4
 70
     0
 62
     2
  6
CENTER
370
    -3
390
F
  0
LAYER
  5
6A0
102
{ACAD_XDICTIONARY
360
6A1
102
}
330
2
100
AcDbSymbolTableRecord
100
AcDbLayerTableRecord
  2
4
 70
     0
 62
     2
  6
CENTER
370
    -3
390
F
  0
LAYER
  5
759
102
{ACAD_XDICTIONARY
360
75A
102
}
330
2
100
AcDbSymbolTableRecord
100
AcDbLayerTableRecord
  2
SK1
 70
     0
 62
     4
  6
Continuous
370
    -3
390
F
  0
LAYER
  5
7B1
102
{ACAD_XDICTIONARY
360
931
102
}
330
2
100
AcDbSymbolTableRecord
100
AcDbLayerTableRecord
  2
SKVIEW1
 70
     0
 62
     4
  6
ByBlock
370
    -3
390
F
  0
LAYER
  5
7E7
102
{ACAD_XDICTIONARY
360
933
102
}
330
2
100
AcDbSymbolTableRecord
100
AcDbLayerTableRecord
  2
SKVIEW2
 70
     0
 62
     7
  6
ByBlock
370
    -3
390
F
  0
LAYER
  5
820
102
{ACAD_XDICTIONARY
360
935
102
}
330
2
100
AcDbSymbolTableRecord
100
AcDbLayerTableRecord
  2
SKVIEW4
 70
     0
 62
     2
  6
CENTER
370
    -3
390
F
  0
ENDTAB
  0
TABLE
  2
STYLE
  5
3
330
0
100
AcDbSymbolTable
 70
     3
  0
STYLE
  5
11
330
3
100
AcDbSymbolTableRecord
100
AcDbTextStyleTableRecord
  2
Standard
 70
     0
 40
0.0
 41
1.0
 50
0.0
 71
     0
 42
2.5
  3
Monospac821 BT
  4

  0
STYLE
  5
442
330
3
100
AcDbSymbolTableRecord
100
AcDbTextStyleTableRecord
  2
BMG_TEXT
 70
     0
 40
3.5
 41
1.0
 50
0.0
 71
     0
 42
2.5
  3
Monos.ttf
  4

1001
ACAD
1000
Monospac821 BT
1071
       49
  0
STYLE
  5
7B5
330
3
100
AcDbSymbolTableRecord
100
AcDbTextStyleTableRecord
  2
MX_NOTE_STANDARD
 70
     0
 40
0.0
 41
1.0
 50
0.0
 71
     0
 42
2.5
  3
txt.shx
  4
extfont.shx
  0
ENDTAB
  0
TABLE
  2
VIEW
  5
6
330
0
100
AcDbSymbolTable
 70
     0
  0
ENDTAB
  0
TABLE
  2
UCS
  5
7
330
0
100
AcDbSymbolTable
 70
     0
  0
ENDTAB
  0
TABLE
  2
APPID
  5
9
330
0
100
AcDbSymbolTable
 70
     8
  0
APPID
  5
12
330
9
100
AcDbSymbolTableRecord
100
AcDbRegAppTableRecord
  2
ACAD
 70
     0
  0
APPID
  5
3F
330
9
100
AcDbSymbolTableRecord
100
AcDbRegAppTableRecord
  2
ccLab
 70
     0
  0
APPID
  5
443
330
9
100
AcDbSymbolTableRecord
100
AcDbRegAppTableRecord
  2
ACAD_NAV_VCDISPLAY
 70
     0
  0
APPID
  5
4F8
330
9
100
AcDbSymbolTableRecord
100
AcDbRegAppTableRecord
  2
ACAD_DSTYLE_DIMRADIAL_EXTENSION
 70
     0
  0
APPID
  5
5B6
330
9
100
AcDbSymbolTableRecord
100
AcDbRegAppTableRecord
  2
ACAD_DSTYLE_DIMINSPECT
 70
     0
  0
APPID
  5
AC6
330
9
100
AcDbSymbolTableRecord
100
AcDbRegAppTableRecord
  2
ACAD_EXEMPT_FROM_CAD_STANDARDS
 70
     0
  0
APPID
  5
CFD
330
9
100
AcDbSymbolTableRecord
100
AcDbRegAppTableRecord
  2
AcadAnnoMonitorAlertIconDisabled
 70
     0
  0
APPID
  5
10F4
330
9
100
AcDbSymbolTableRecord
100
AcDbRegAppTableRecord
  2
ACAD_MLEADERVER
 70
     0
  0
ENDTAB
  0
TABLE
  2
DIMSTYLE
  5
A
330
0
100
AcDbSymbolTable
 70
     2
100
AcDbDimStyleTable
 71
     1
340
27
  0
DIMSTYLE
105
27
102
{ACAD_REACTORS
330
6DE
330
705
330
714
330
147A
330
148C
330
149E
102
}
330
A
100
AcDbSymbolTableRecord
100
AcDbDimStyleTableRecord
  2
ISO-25
 70
     0
 41
2.5
 42
0.625
 43
3.75
 44
1.25
 73
     0
 74
     0
 77
     1
 78
     8
140
2.5
141
2.5
143
0.03937007874016
147
0.625
171
     3
172
     1
271
     2
272
     2
274
     3
278
    44
283
     0
284
     8
340
11
  0
DIMSTYLE
105
7B4
330
A
100
AcDbSymbolTableRecord
100
AcDbDimStyleTableRecord
  2
MXDIMSTYLE
 70
     0
 41
2.5
 42
0.5
 43
3.75
 44
1.0
 73
     0
 74
     0
 77
     1
 78
     8
140
3.0
141
2.5
143
0.03937
147
1.0
171
     4
172
     1
173
     1
271
     2
272
     2
274
     4
283
     0
288
     1
340
7B5
341
7B6
343
7B6
344
7B6
  0
ENDTAB
  0
TABLE
  2
BLOCK_RECORD
  5
1
330
0
100
AcDbSymbolTable
 70
    28
  0
BLOCK_RECORD
  5
1F
330
1
100
AcDbSymbolTableRecord
100
AcDbBlockTableRecord
  2
*Model_Space
340
22
  0
BLOCK_RECORD
  5
1B
330
1
100
AcDbSymbolTableRecord
100
AcDbBlockTableRecord
  2
*Paper_Space
340
1E
  0
BLOCK_RECORD
  5
23
330
1
100
AcDbSymbolTableRecord
100
AcDbBlockTableRecord
  2
*Paper_Space0
340
26
  0
BLOCK_RECORD
  5
3DF
330
1
100
AcDbSymbolTableRecord
100
AcDbBlockTableRecord
  2
*D1
340
0
  0
BLOCK_RECORD
  5
4CC
330
1
100
AcDbSymbolTableRecord
100
AcDbBlockTableRecord
  2
*D2
340
0
  0
BLOCK_RECORD
  5
4DB
330
1
100
AcDbSymbolTableRecord
100
AcDbBlockTableRecord
  2
*D3
340
0
  0
BLOCK_RECORD
  5
4EC
330
1
100
AcDbSymbolTableRecord
100
AcDbBlockTableRecord
  2
*D4
340
0
  0
BLOCK_RECORD
  5
4FC
330
1
100
AcDbSymbolTableRecord
100
AcDbBlockTableRecord
  2
*D5
340
0
  0
BLOCK_RECORD
  5
508
330
1
100
AcDbSymbolTableRecord
100
AcDbBlockTableRecord
  2
*D6
340
0
  0
BLOCK_RECORD
  5
5D7
330
1
100
AcDbSymbolTableRecord
100
AcDbBlockTableRecord
  2
*D7
340
0
  0
BLOCK_RECORD
  5
5E8
330
1
100
AcDbSymbolTableRecord
100
AcDbBlockTableRecord
  2
*D8
340
0
  0
BLOCK_RECORD
  5
620
330
1
100
AcDbSymbolTableRecord
100
AcDbBlockTableRecord
  2
*D9
340
0
  0
BLOCK_RECORD
  5
630
330
1
100
AcDbSymbolTableRecord
100
AcDbBlockTableRecord
  2
*D10
340
0
  0
BLOCK_RECORD
  5
6D0
330
1
100
AcDbSymbolTableRecord
100
AcDbBlockTableRecord
  2
*D11
340
0
  0
BLOCK_RECORD
  5
6E1
330
1
100
AcDbSymbolTableRecord
100
AcDbBlockTableRecord
  2
*D12
340
0
  0
BLOCK_RECORD
  5
6F0
330
1
100
AcDbSymbolTableRecord
100
AcDbBlockTableRecord
  2
*D13
340
0
  0
BLOCK_RECORD
  5
6FC
330
1
100
AcDbSymbolTableRecord
100
AcDbBlockTableRecord
  2
*D14
340
0
  0
BLOCK_RECORD
  5
708
330
1
100
AcDbSymbolTableRecord
100
AcDbBlockTableRecord
  2
*D15
340
0
  0
BLOCK_RECORD
  5
717
330
1
100
AcDbSymbolTableRecord
100
AcDbBlockTableRecord
  2
*D16
340
0
  0
BLOCK_RECORD
  5
7B6
330
1
100
AcDbSymbolTableRecord
100
AcDbBlockTableRecord
  2
_OPEN30
340
0
  0
BLOCK_RECORD
  5
BBF
330
1
100
AcDbSymbolTableRecord
100
AcDbBlockTableRecord
  2
*D18
340
0
  0
BLOCK_RECORD
  5
BF4
330
1
100
AcDbSymbolTableRecord
100
AcDbBlockTableRecord
  2
*D19
340
0
  0
BLOCK_RECORD
  5
C10
330
1
100
AcDbSymbolTableRecord
100
AcDbBlockTableRecord
  2
*D20
340
0
  0
BLOCK_RECORD
  5
C9A
330
1
100
AcDbSymbolTableRecord
100
AcDbBlockTableRecord
  2
*D21
340
0
  0
BLOCK_RECORD
  5
CCC
330
1
100
AcDbSymbolTableRecord
100
AcDbBlockTableRecord
  2
*D22
340
0
  0
BLOCK_RECORD
  5
FF7
330
1
100
AcDbSymbolTableRecord
100
AcDbBlockTableRecord
  2
*D23
340
0
  0
BLOCK_RECORD
  5
1009
330
1
100
AcDbSymbolTableRecord
100
AcDbBlockTableRecord
  2
*D24
340
0
  0
BLOCK_RECORD
  5
147B
330
1
100
AcDbSymbolTableRecord
100
AcDbBlockTableRecord
  2
*D25
340
0
  0
BLOCK_RECORD
  5
148D
330
1
100
AcDbSymbolTableRecord
100
AcDbBlockTableRecord
  2
*D26
340
0
  0
BLOCK_RECORD
  5
149F
330
1
100
AcDbSymbolTableRecord
100
AcDbBlockTableRecord
  2
*D27
340
0
  0
ENDTAB
  0
ENDSEC
  0
SECTION
  2
BLOCKS
  0
BLOCK
  5
20
330
1F
100
AcDbEntity
  8
0
100
AcDbBlockBegin
  2
*Model_Space
 70
     0
 10
0.0
 20
0.0
 30
0.0
  3
*Model_Space
  1

  0
ENDBLK
  5
21
330
1F
100
AcDbEntity
  8
0
100
AcDbBlockEnd
  0
BLOCK
  5
1C
330
1B
100
AcDbEntity
 67
     1
  8
0
100
AcDbBlockBegin
  2
*Paper_Space
 70
     0
 10
0.0
 20
0.0
 30
0.0
  3
*Paper_Space
  1

  0
ENDBLK
  5
1D
330
1B
100
AcDbEntity
 67
     1
  8
0
100
AcDbBlockEnd
  0
BLOCK
  5
24
330
23
100
AcDbEntity
 67
     1
  8
0
100
AcDbBlockBegin
  2
*Paper_Space0
 70
     0
 10
0.0
 20
0.0
 30
0.0
  3
*Paper_Space0
  1

  0
ENDBLK
  5
25
330
23
100
AcDbEntity
 67
     1
  8
0
100
AcDbBlockEnd
  0
BLOCK
  5
3E0
330
3DF
100
AcDbEntity
  8
0
100
AcDbBlockBegin
  2
*D1
 70
     1
 10
0.0
 20
0.0
 30
0.0
  3
*D1
  1

  0
LINE
  5
3E2
330
3DF
100
AcDbEntity
  8
0
 62
     0
370
    -2
100
AcDbLine
 10
21.30099661597363
 20
5.276711841531747
 30
0.0
 11
21.30099661597363
 21
13.64718688895714
 31
0.0
  0
LINE
  5
3E3
330
3DF
100
AcDbEntity
  8
0
 62
     0
370
    -2
100
AcDbLine
 10
18.70000000000001
 20
5.189434722714266
 30
0.0
 11
18.70000000000001
 21
13.64718688895714
 31
0.0
  0
LINE
  5
3E4
330
3DF
100
AcDbEntity
  8
0
 62
     0
370
    -2
100
AcDbLine
 10
21.30099661597363
 20
12.39718688895714
 30
0.0
 11
33.64349661597363
 21
12.39718688895714
 31
0.0
  0
LINE
  5
3E5
330
3DF
100
AcDbEntity
  8
0
 62
     0
370
    -2
100
AcDbLine
 10
21.30099661597363
 20
12.39718688895714
 30
0.0
 11
18.70000000000001
 21
12.39718688895714
 31
0.0
  0
LINE
  5
3E6
330
3DF
100
AcDbEntity
  8
0
 62
     0
370
    -2
100
AcDbLine
 10
23.80099661597363
 20
12.39718688895714
 30
0.0
 11
26.30099661597363
 21
12.39718688895714
 31
0.0
  0
LINE
  5
3E7
330
3DF
100
AcDbEntity
  8
0
 62
     0
370
    -2
100
AcDbLine
 10
16.20000000000001
 20
12.39718688895714
 30
0.0
 11
13.70000000000001
 21
12.39718688895714
 31
0.0
  0
SOLID
  5
3E8
330
3DF
100
AcDbEntity
  8
0
 62
     0
100
AcDbTrace
 10
23.80099661597363
 20
12.8138535556238
 30
0.0
 11
23.80099661597363
 21
11.98052022229047
 31
0.0
 12
21.30099661597363
 22
12.39718688895714
 32
0.0
 13
21.30099661597363
 23
12.39718688895714
 33
0.0
  0
SOLID
  5
3E9
330
3DF
100
AcDbEntity
  8
0
 62
     0
100
AcDbTrace
 10
16.20000000000001
 20
11.98052022229047
 30
0.0
 11
16.20000000000001
 21
12.8138535556238
 31
0.0
 12
18.70000000000001
 22
12.39718688895714
 32
0.0
 13
18.70000000000001
 23
12.39718688895714
 33
0.0
  0
MTEXT
  5
3EA
330
3DF
100
AcDbEntity
  8
0
 62
     0
100
AcDbMText
 10
29.97224661597363
 20
14.64343688895714
 30
0.0
 40
2.5
 41
0.0
 71
     5
 72
     1
  1
2,6
 73
     1
 44
1.0
1001
ACAD
1000
MTEXTBEGIN
1070
    73
1070
     1
1070
    44
1040
1.0
1070
    74
1070
     0
1000
MTEXTEND
  0
ENDBLK
  5
3E1
330
3DF
100
AcDbEntity
  8
0
100
AcDbBlockEnd
  0
BLOCK
  5
4CD
330
4CC
100
AcDbEntity
  8
0
100
AcDbBlockBegin
  2
*D2
 70
     1
 10
0.0
 20
0.0
 30
0.0
  3
*D2
  1

  0
LINE
  5
4CF
330
4CC
100
AcDbEntity
  8
0
 62
     0
370
    -2
100
AcDbLine
 10
-4.375
 20
-4.99999999999991
 30
0.0
 11
5.807327035936522
 21
-4.999999999999911
 31
0.0
  0
LINE
  5
4D0
330
4CC
100
AcDbEntity
  8
0
 62
     0
370
    -2
100
AcDbLine
 10
-4.374999999999999
 20
4.999999999999769
 30
0.0
 11
5.807327035936522
 21
4.999999999999766
 31
0.0
  0
LINE
  5
4D1
330
4CC
100
AcDbEntity
  8
0
 62
     0
370
    -2
100
AcDbLine
 10
4.557327035936523
 20
-2.499999999999911
 30
0.0
 11
4.557327035936523
 21
2.499999999999765
 31
0.0
  0
SOLID
  5
4D2
330
4CC
100
AcDbEntity
  8
0
 62
     0
100
AcDbTrace
 10
4.140660369269856
 20
-2.499999999999911
 30
0.0
 11
4.97399370260319
 21
-2.499999999999911
 31
0.0
 12
4.557327035936523
 22
-4.999999999999911
 32
0.0
 13
4.557327035936523
 23
-4.999999999999911
 33
0.0
  0
SOLID
  5
4D3
330
4CC
100
AcDbEntity
  8
0
 62
     0
100
AcDbTrace
 10
4.97399370260319
 20
2.499999999999765
 30
0.0
 11
4.140660369269856
 21
2.499999999999765
 31
0.0
 12
4.557327035936525
 22
4.999999999999766
 32
0.0
 13
4.557327035936525
 23
4.999999999999766
 33
0.0
  0
MTEXT
  5
4D4
330
4CC
100
AcDbEntity
  8
0
 62
     0
100
AcDbMText
 10
2.602327035936522
 20
-0.0000000000000716
 30
0.0
 40
2.5
 41
0.0
 71
     5
 72
     1
  1
%%c10
 11
0.0000000000000002
 21
1.0
 31
0.0
 73
     1
 44
1.0
1001
ACAD
1000
MTEXTBEGIN
1070
    73
1070
     1
1070
    44
1040
1.0
1070
    74
1070
     0
1000
MTEXTEND
  0
ENDBLK
  5
4CE
330
4CC
100
AcDbEntity
  8
0
100
AcDbBlockEnd
  0
BLOCK
  5
4DC
330
4DB
100
AcDbEntity
  8
0
100
AcDbBlockBegin
  2
*D3
 70
     1
 10
0.0
 20
0.0
 30
0.0
  3
*D3
  1

  0
LINE
  5
4DE
330
4DB
100
AcDbEntity
  8
0
 62
     0
370
    -2
100
AcDbLine
 10
0.0000000000000048
 20
-4.04140786500004
 30
0.0
 11
0.0000000000000055
 21
-8.357876414791547
 31
0.0
  0
LINE
  5
4DF
330
4DB
100
AcDbEntity
  8
0
 62
     0
370
    -2
100
AcDbLine
 10
-4.999999999999839
 20
-5.624948220013672
 30
0.0
 11
-4.999999999999839
 21
-8.357876414791547
 31
0.0
  0
LINE
  5
4E0
330
4DB
100
AcDbEntity
  8
0
 62
     0
370
    -2
100
AcDbLine
 10
0.0000000000000053
 20
-7.107876414791547
 30
0.0
 11
7.990000000000001
 21
-7.107876414791547
 31
0.0
  0
LINE
  5
4E1
330
4DB
100
AcDbEntity
  8
0
 62
     0
370
    -2
100
AcDbLine
 10
0.0000000000000053
 20
-7.107876414791547
 30
0.0
 11
-4.999999999999839
 21
-7.107876414791547
 31
0.0
  0
LINE
  5
4E2
330
4DB
100
AcDbEntity
  8
0
 62
     0
370
    -2
100
AcDbLine
 10
2.500000000000003
 20
-7.107876414791547
 30
0.0
 11
5.000000000000004
 21
-7.107876414791547
 31
0.0
  0
LINE
  5
4E3
330
4DB
100
AcDbEntity
  8
0
 62
     0
370
    -2
100
AcDbLine
 10
-7.49999999999984
 20
-7.107876414791547
 30
0.0
 11
-9.99999999999984
 21
-7.107876414791547
 31
0.0
  0
SOLID
  5
4E4
330
4DB
100
AcDbEntity
  8
0
 62
     0
100
AcDbTrace
 10
2.500000000000003
 20
-6.691209748124884
 30
0.0
 11
2.500000000000003
 21
-7.524543081458218
 31
0.0
 12
0.0000000000000053
 22
-7.107876414791547
 32
0.0
 13
0.0000000000000053
 23
-7.107876414791547
 33
0.0
  0
SOLID
  5
4E5
330
4DB
100
AcDbEntity
  8
0
 62
     0
100
AcDbTrace
 10
-7.49999999999984
 20
-7.524543081458213
 30
0.0
 11
-7.49999999999984
 21
-6.69120974812488
 31
0.0
 12
-4.999999999999839
 22
-7.107876414791547
 32
0.0
 13
-4.999999999999839
 23
-7.107876414791547
 33
0.0
  0
MTEXT
  5
4E6
330
4DB
100
AcDbEntity
  8
0
 62
     0
100
AcDbMText
 10
6.495000000000002
 20
-5.196626414791547
 30
0.0
 40
2.5
 41
0.0
 71
     5
 72
     1
  1
5
 73
     1
 44
1.0
1001
ACAD
1000
MTEXTBEGIN
1070
    73
1070
     1
1070
    44
1040
1.0
1070
    74
1070
     0
1000
MTEXTEND
  0
ENDBLK
  5
4DD
330
4DB
100
AcDbEntity
  8
0
100
AcDbBlockEnd
  0
BLOCK
  5
4ED
330
4EC
100
AcDbEntity
  8
0
100
AcDbBlockBegin
  2
*D4
 70
     1
 10
0.0
 20
0.0
 30
0.0
  3
*D4
  1

  0
LINE
  5
4EF
330
4EC
100
AcDbEntity
  8
0
 62
     0
370
    -2
100
AcDbLine
 10
0.0000000000000004
 20
4.041407864999959
 30
0.0
 11
-0.0000000000000001
 21
10.29710097817105
 31
0.0
  0
LINE
  5
4F0
330
4EC
100
AcDbEntity
  8
0
 62
     0
370
    -2
100
AcDbLine
 10
-8.5
 20
5.210952145799961
 30
0.0
 11
-8.5
 21
10.29710097817105
 31
0.0
  0
LINE
  5
4F1
330
4EC
100
AcDbEntity
  8
0
 62
     0
370
    -2
100
AcDbLine
 10
0.0
 20
9.047100978171052
 30
0.0
 11
-18.29
 21
9.047100978171055
 31
0.0
  0
LINE
  5
4F2
330
4EC
100
AcDbEntity
  8
0
 62
     0
370
    -2
100
AcDbLine
 10
-2.5
 20
9.047100978171052
 30
0.0
 11
-6.0
 21
9.047100978171052
 31
0.0
  0
SOLID
  5
4F3
330
4EC
100
AcDbEntity
  8
0
 62
     0
100
AcDbTrace
 10
-2.5
 20
8.630434311504386
 30
0.0
 11
-2.5
 21
9.463767644837716
 31
0.0
 12
0.0
 22
9.047100978171052
 32
0.0
 13
0.0
 23
9.047100978171052
 33
0.0
  0
SOLID
  5
4F4
330
4EC
100
AcDbEntity
  8
0
 62
     0
100
AcDbTrace
 10
-6.0
 20
9.463767644837719
 30
0.0
 11
-6.0
 21
8.630434311504387
 31
0.0
 12
-8.5
 22
9.047100978171052
 32
0.0
 13
-8.5
 23
9.047100978171052
 33
0.0
  0
MTEXT
  5
4F5
330
4EC
100
AcDbEntity
  8
0
 62
     0
100
AcDbMText
 10
-14.645
 20
11.29335097817106
 30
0.0
 40
2.5
 41
0.0
 71
     5
 72
     1
  1
8,5
 73
     1
 44
1.0
1001
ACAD
1000
MTEXTBEGIN
1070
    73
1070
     1
1070
    44
1040
1.0
1070
    74
1070
     0
1000
MTEXTEND
  0
ENDBLK
  5
4EE
330
4EC
100
AcDbEntity
  8
0
100
AcDbBlockEnd
  0
BLOCK
  5
4FD
330
4FC
100
AcDbEntity
  8
0
100
AcDbBlockBegin
  2
*D5
 70
     1
 10
0.0
 20
0.0
 30
0.0
  3
*D5
  1

  0
LINE
  5
4FF
330
4FC
100
AcDbEntity
  8
0
 62
     0
370
    -2
100
AcDbLine
 10
-3.368950475502207
 20
7.423824994792527
 30
0.0
 11
-2.324732578948998
 21
18.57877131229665
 31
0.0
  0
MTEXT
  5
500
330
4FC
100
AcDbEntity
  8
0
 62
     0
100
AcDbMText
 10
-4.57217526759971
 20
15.1570952630146
 30
0.0
 40
2.5
 41
0.0
 71
     5
 72
     1
  1
R15
 11
0.0932028299661956
 21
0.9956471425591963
 31
0.0
 73
     1
 44
1.0
1001
ACAD
1000
MTEXTBEGIN
1070
    73
1070
     1
1070
    44
1040
1.0
1070
    74
1070
     0
1000
MTEXTEND
  0
LINE
  5
501
330
4FC
100
AcDbEntity
  8
0
 62
     0
370
    -2
100
AcDbLine
 10
-4.999999999910615
 20
-9.999999999993235
 30
0.0
 11
-3.601957550417696
 21
4.934707138394538
 31
0.0
  0
SOLID
  5
502
330
4FC
100
AcDbEntity
  8
0
 62
     0
100
AcDbTrace
 10
-3.783803451568537
 20
7.462659507278442
 30
0.0
 11
-2.954097499435876
 21
7.384990482306612
 31
0.0
 12
-3.601957550417696
 22
4.934707138394538
 32
0.0
 13
-3.601957550417696
 23
4.934707138394538
 33
0.0
  0
ARC
  5
5A4
330
4FC
100
AcDbEntity
  8
0
 62
     0
370
    -2
100
AcDbCircle
 10
-4.999999999910615
 20
-9.999999999993235
 30
0.0
 40
14.99999999999983
100
AcDbArc
 50
285.8808956961851
 51
89.42814034161058
  0
ENDBLK
  5
4FE
330
4FC
100
AcDbEntity
  8
0
100
AcDbBlockEnd
  0
BLOCK
  5
509
330
508
100
AcDbEntity
  8
0
100
AcDbBlockBegin
  2
*D6
 70
     1
 10
0.0
 20
0.0
 30
0.0
  3
*D6
  1

  0
LINE
  5
50B
330
508
100
AcDbEntity
  8
0
 62
     0
370
    -2
100
AcDbLine
 10
1.16381567289585
 20
6.167389823131227
 30
0.0
 11
5.710034541466817
 21
11.94725649190162
 31
0.0
  0
MTEXT
  5
50C
330
508
100
AcDbEntity
  8
0
 62
     0
100
AcDbMText
 10
2.844784423476508
 20
11.34946926064243
 30
0.0
 40
2.5
 41
0.0
 71
     5
 72
     1
  1
R1
 11
0.6182330493935635
 21
0.7859948451723687
 31
0.0
 73
     1
 44
1.0
1001
ACAD
1000
MTEXTBEGIN
1070
    73
1070
     1
1070
    44
1040
1.0
1070
    74
1070
     0
1000
MTEXTEND
  0
LINE
  5
50D
330
508
100
AcDbEntity
  8
0
 62
     0
370
    -2
100
AcDbLine
 10
-0.9999999999816248
 20
3.416407865027935
 30
0.0
 11
-0.3817669505880584
 21
4.202402710200304
 31
0.0
  0
SOLID
  5
50E
330
508
100
AcDbEntity
  8
0
 62
     0
100
AcDbTrace
 10
0.8363178207406967
 20
6.424986927045214
 30
0.0
 11
1.491313525051004
 21
5.909792719217244
 31
0.0
 12
-0.3817669505880584
 22
4.202402710200304
 32
0.0
 13
-0.3817669505880584
 23
4.202402710200304
 33
0.0
  0
ARC
  5
5A7
330
508
100
AcDbEntity
  8
0
 62
     0
370
    -2
100
AcDbCircle
 10
-0.9999999999816248
 20
3.416407865027935
 30
0.0
 40
1.000000000000005
100
AcDbArc
 50
334.4484082116892
 51
143.5800862717375
  0
ENDBLK
  5
50A
330
508
100
AcDbEntity
  8
0
100
AcDbBlockEnd
  0
BLOCK
  5
5D8
330
5D7
100
AcDbEntity
  8
0
100
AcDbBlockBegin
  2
*D7
 70
     1
 10
0.0
 20
0.0
 30
0.0
  3
*D7
  1

  0
LINE
  5
5D9
330
5D7
100
AcDbEntity
  8
2
 62
     0
370
    -2
100
AcDbLine
 10
-0.0000000000121929
 20
-0.625000000011739
 30
0.0
 11
-0.0000000000121929
 21
-13.27444247487102
 31
0.0
  0
LINE
  5
5DA
330
5D7
100
AcDbEntity
  8
2
 62
     0
370
    -2
100
AcDbLine
 10
8.5
 20
0.5445442807999941
 30
0.0
 11
8.5
 21
-13.27444247487102
 31
0.0
  0
LINE
  5
5DB
330
5D7
100
AcDbEntity
  8
2
 62
     0
370
    -2
100
AcDbLine
 10
-0.0000000000121929
 20
-12.02444247487102
 30
0.0
 11
-24.0019962403495
 21
-12.02444247487102
 31
0.0
  0
LINE
  5
5DC
330
5D7
100
AcDbEntity
  8
2
 62
     0
370
    -2
100
AcDbLine
 10
2.499999999987806
 20
-12.02444247487102
 30
0.0
 11
6.0
 21
-12.02444247487102
 31
0.0
  0
SOLID
  5
5DD
330
5D7
100
AcDbEntity
  8
2
 62
     0
100
AcDbTrace
 10
2.499999999987806
 20
-11.60777580820436
 30
0.0
 11
2.499999999987806
 21
-12.44110914153769
 31
0.0
 12
-0.0000000000121929
 22
-12.02444247487102
 32
0.0
 13
-0.0000000000121929
 23
-12.02444247487102
 33
0.0
  0
SOLID
  5
5DE
330
5D7
100
AcDbEntity
  8
2
 62
     0
100
AcDbTrace
 10
6.0
 20
-12.44110914153769
 30
0.0
 11
6.0
 21
-11.60777580820436
 31
0.0
 12
8.5
 22
-12.02444247487102
 32
0.0
 13
8.5
 23
-12.02444247487102
 33
0.0
  0
MTEXT
  5
5DF
330
5D7
100
AcDbEntity
  8
2
 62
     0
100
AcDbMText
 10
-19.2682462403495
 20
-9.778192474871023
 30
0.0
 40
2.5
 41
0.0
 71
     5
 72
     1
  1
\A1;8,50
 73
     1
 44
1.0
1001
ACAD
1000
MTEXTBEGIN
1070
    73
1070
     1
1070
    44
1040
1.0
1070
    74
1070
     0
1000
MTEXTEND
  0
ENDBLK
  5
5E0
330
5D7
100
AcDbEntity
  8
0
100
AcDbBlockEnd
  0
BLOCK
  5
5E9
330
5E8
100
AcDbEntity
  8
0
100
AcDbBlockBegin
  2
*D8
 70
     1
 10
0.0
 20
0.0
 30
0.0
  3
*D8
  1

  0
LINE
  5
AE5
330
5E8
100
AcDbEntity
  8
SKVIEW2
 62
     0
370
    -2
100
AcDbLine
 10
31.66270099092738
 20
8.468360071673856
 30
0.0
 11
31.66270099092738
 21
16.45221607702704
 31
0.0
  0
LINE
  5
AE6
330
5E8
100
AcDbEntity
  8
SKVIEW2
 62
     0
370
    -2
100
AcDbLine
 10
36.66270099092736
 20
9.400579139061202
 30
0.0
 11
36.66270099092736
 21
16.45221607702704
 31
0.0
  0
LINE
  5
AE7
330
5E8
100
AcDbEntity
  8
SKVIEW2
 62
     0
370
    -2
100
AcDbLine
 10
29.16270099092738
 20
15.20221607702704
 30
0.0
 11
26.66270099092738
 21
15.20221607702704
 31
0.0
  0
LINE
  5
AE8
330
5E8
100
AcDbEntity
  8
SKVIEW2
 62
     0
370
    -2
100
AcDbLine
 10
39.16270099092736
 20
15.20221607702704
 30
0.0
 11
54.46786613498917
 21
15.20221607702704
 31
0.0
  0
LINE
  5
AE9
330
5E8
100
AcDbEntity
  8
SKVIEW2
 62
     0
370
    -2
100
AcDbLine
 10
31.66270099092738
 20
15.20221607702704
 30
0.0
 11
36.66270099092736
 21
15.20221607702704
 31
0.0
  0
SOLID
  5
AEA
330
5E8
100
AcDbEntity
  8
SKVIEW2
 62
     0
100
AcDbTrace
 10
29.16270099092738
 20
15.6188827436937
 30
0.0
 11
29.16270099092738
 21
14.78554941036037
 31
0.0
 12
31.66270099092738
 22
15.20221607702704
 32
0.0
 13
31.66270099092738
 23
15.20221607702704
 33
0.0
  0
SOLID
  5
AEB
330
5E8
100
AcDbEntity
  8
SKVIEW2
 62
     0
100
AcDbTrace
 10
39.16270099092736
 20
15.6188827436937
 30
0.0
 11
39.16270099092736
 21
14.78554941036037
 31
0.0
 12
36.66270099092736
 22
15.20221607702704
 32
0.0
 13
36.66270099092736
 23
15.20221607702704
 33
0.0
  0
MTEXT
  5
AEC
330
5E8
100
AcDbEntity
  8
SKVIEW2
 62
     0
100
AcDbMText
 10
48.06528356295827
 20
18.09741987182676
 30
0.0
 40
3.5
 41
0.0
 71
     5
 72
     1
  1
\A1;5,00
  7
BMG_TEXT
 73
     1
 44
1.0
1001
ACAD
1000
MTEXTBEGIN
1070
    73
1070
     1
1070
    44
1040
1.0
1070
    74
1070
     0
1000
MTEXTEND
  0
ENDBLK
  5
5EA
330
5E8
100
AcDbEntity
  8
0
100
AcDbBlockEnd
  0
BLOCK
  5
621
330
620
100
AcDbEntity
  8
0
100
AcDbBlockBegin
  2
*D9
 70
     1
 10
0.0
 20
0.0
 30
0.0
  3
*D9
  1

  0
ENDBLK
  5
628
330
620
100
AcDbEntity
  8
0
100
AcDbBlockEnd
  0
BLOCK
  5
631
330
630
100
AcDbEntity
  8
0
100
AcDbBlockBegin
  2
*D10
 70
     1
 10
0.0
 20
0.0
 30
0.0
  3
*D10
  1

  0
ENDBLK
  5
632
330
630
100
AcDbEntity
  8
0
100
AcDbBlockEnd
  0
BLOCK
  5
6D1
330
6D0
100
AcDbEntity
  8
0
100
AcDbBlockBegin
  2
*D11
 70
     1
 10
0.0
 20
0.0
 30
0.0
  3
*D11
  1

  0
LINE
  5
6D3
330
6D0
100
AcDbEntity
  8
0
 62
     0
370
    -2
100
AcDbLine
 10
0.0000000000183802
 20
4.041407865033225
 30
0.0
 11
0.0000000000183799
 21
11.2868084874276
 31
0.0
  0
LINE
  5
6D4
330
6D0
100
AcDbEntity
  8
0
 62
     0
370
    -2
100
AcDbLine
 10
-4.999999999999833
 20
5.624948220013679
 30
0.0
 11
-4.999999999999833
 21
11.2868084874276
 31
0.0
  0
LINE
  5
6D5
330
6D0
100
AcDbEntity
  8
0
 62
     0
370
    -2
100
AcDbLine
 10
0.00000000001838
 20
10.0368084874276
 30
0.0
 11
-4.999999999999833
 21
10.0368084874276
 31
0.0
  0
LINE
  5
6D6
330
6D0
100
AcDbEntity
  8
0
 62
     0
370
    -2
100
AcDbLine
 10
2.500000000018375
 20
10.0368084874276
 30
0.0
 11
5.000000000018379
 21
10.0368084874276
 31
0.0
  0
LINE
  5
6D7
330
6D0
100
AcDbEntity
  8
0
 62
     0
370
    -2
100
AcDbLine
 10
-7.499999999999837
 20
10.0368084874276
 30
0.0
 11
-9.999999999999838
 21
10.0368084874276
 31
0.0
  0
SOLID
  5
6D8
330
6D0
100
AcDbEntity
  8
0
 62
     0
100
AcDbTrace
 10
2.500000000018375
 20
10.45347515409427
 30
0.0
 11
2.500000000018375
 21
9.620141820760935
 31
0.0
 12
0.00000000001838
 22
10.0368084874276
 32
0.0
 13
0.00000000001838
 23
10.0368084874276
 33
0.0
  0
SOLID
  5
6D9
330
6D0
100
AcDbEntity
  8
0
 62
     0
100
AcDbTrace
 10
-7.499999999999837
 20
9.620141820760935
 30
0.0
 11
-7.499999999999837
 21
10.45347515409427
 31
0.0
 12
-4.999999999999833
 22
10.0368084874276
 32
0.0
 13
-4.999999999999833
 23
10.0368084874276
 33
0.0
  0
MTEXT
  5
6DA
330
6D0
100
AcDbEntity
  8
0
 62
     0
100
AcDbMText
 10
-2.499999999990729
 20
12.4625584874276
 30
0.0
 40
3.5
 41
0.0
 71
     5
 72
     1
  1
5
  7
BMG_TEXT
 73
     1
 44
1.0
1001
ACAD
1000
MTEXTBEGIN
1070
    73
1070
     1
1070
    44
1040
1.0
1070
    74
1070
     0
1000
MTEXTEND
  0
ENDBLK
  5
6D2
330
6D0
100
AcDbEntity
  8
0
100
AcDbBlockEnd
  0
BLOCK
  5
6E2
330
6E1
100
AcDbEntity
  8
0
100
AcDbBlockBegin
  2
*D12
 70
     1
 10
0.0
 20
0.0
 30
0.0
  3
*D12
  1

  0
LINE
  5
172B
330
6E1
100
AcDbEntity
  8
2
 62
     0
370
    -2
100
AcDbLine
 10
15.41455769749789
 20
12.50000000252954
 30
0.0
 11
40.96659075183868
 21
12.50000000252955
 31
0.0
  0
LINE
  5
172C
330
6E1
100
AcDbEntity
  8
2
 62
     0
370
    -2
100
AcDbLine
 10
15.41455769749789
 20
-12.49964454930689
 30
0.0
 11
40.96659075183868
 21
-12.49964454930688
 31
0.0
  0
LINE
  5
172D
330
6E1
100
AcDbEntity
  8
2
 62
     0
370
    -2
100
AcDbLine
 10
39.71659075183869
 20
-9.999644549306882
 30
0.0
 11
39.71659075183869
 21
10.00000000252954
 31
0.0
  0
LINE
  5
172E
330
6E1
100
AcDbEntity
  8
2
 62
     0
370
    -2
100
AcDbLine
 10
39.71659075183869
 20
12.50000000252955
 30
0.0
 11
39.71659075183868
 21
34.36410663897595
 31
0.0
  0
SOLID
  5
172F
330
6E1
100
AcDbEntity
  8
2
 62
     0
100
AcDbTrace
 10
39.29992408517203
 20
-9.999644549306882
 30
0.0
 11
40.13325741850535
 21
-9.999644549306882
 31
0.0
 12
39.71659075183869
 22
-12.49964454930688
 32
0.0
 13
39.71659075183869
 23
-12.49964454930688
 33
0.0
  0
SOLID
  5
1730
330
6E1
100
AcDbEntity
  8
2
 62
     0
100
AcDbTrace
 10
39.29992408517203
 20
10.00000000252954
 30
0.0
 11
40.13325741850535
 21
10.00000000252954
 31
0.0
 12
39.71659075183869
 22
12.50000000252955
 32
0.0
 13
39.71659075183869
 23
12.50000000252955
 33
0.0
  0
MTEXT
  5
1731
330
6E1
100
AcDbEntity
  8
2
 62
     0
100
AcDbMText
 10
36.77465470124135
 20
24.86243762984031
 30
0.0
 40
3.5
 41
0.0
 71
     5
 72
     1
  1
%%c25,00
  7
BMG_TEXT
 11
0.0000000000000001
 21
1.0
 31
0.0
 73
     1
 44
1.0
1001
ACAD
1000
MTEXTBEGIN
1070
    73
1070
     1
1070
    44
1040
1.0
1070
    74
1070
     0
1000
MTEXTEND
  0
ENDBLK
  5
6E3
330
6E1
100
AcDbEntity
  8
0
100
AcDbBlockEnd
  0
BLOCK
  5
6F1
330
6F0
100
AcDbEntity
  8
0
100
AcDbBlockBegin
  2
*D13
 70
     1
 10
0.0
 20
0.0
 30
0.0
  3
*D13
  1

  0
LINE
  5
6F3
330
6F0
100
AcDbEntity
  8
2
 62
     0
370
    -2
100
AcDbLine
 10
2.222108790613098
 20
7.453280323680512
 30
0.0
 11
1.336676227155676
 21
19.54640892737812
 31
0.0
  0
MTEXT
  5
6F4
330
6F0
100
AcDbEntity
  8
2
 62
     0
100
AcDbMText
 10
4.117860518981828
 20
14.92440821773955
 30
0.0
 40
3.5
 41
0.0
 71
     5
 72
     1
  1
R15
  7
BMG_TEXT
 11
0.0730223548272171
 21
-0.9973303042099384
 31
0.0
 73
     1
 44
1.0
1001
ACAD
1000
MTEXTBEGIN
1070
    73
1070
     1
1070
    44
1040
1.0
1070
    74
1070
     0
1000
MTEXTEND
  0
LINE
  5
6F5
330
6F0
100
AcDbEntity
  8
2
 62
     0
370
    -2
100
AcDbLine
 10
3.500000000089383
 20
-9.999999999993235
 30
0.0
 11
2.404664677681141
 21
4.959954563155669
 31
0.0
  0
SOLID
  5
6F6
330
6F0
100
AcDbEntity
  8
2
 62
     0
100
AcDbTrace
 10
1.80655449719229
 20
7.422854342502508
 30
0.0
 11
2.637663084033904
 21
7.483706304858522
 31
0.0
 12
2.404664677681141
 22
4.959954563155669
 32
0.0
 13
2.404664677681141
 23
4.959954563155669
 33
0.0
  0
ENDBLK
  5
6F2
330
6F0
100
AcDbEntity
  8
0
100
AcDbBlockEnd
  0
BLOCK
  5
6FD
330
6FC
100
AcDbEntity
  8
0
100
AcDbBlockBegin
  2
*D14
 70
     1
 10
0.0
 20
0.0
 30
0.0
  3
*D14
  1

  0
LINE
  5
6FF
330
6FC
100
AcDbEntity
  8
2
 62
     0
370
    -2
100
AcDbLine
 10
9.658515575599738
 20
6.171550422133227
 30
0.0
 11
14.7621714743779
 21
12.68588820251175
 31
0.0
  0
MTEXT
  5
700
330
6FC
100
AcDbEntity
  8
2
 62
     0
100
AcDbMText
 10
11.10341549627511
 20
11.88388134144562
 30
0.0
 40
3.5
 41
0.0
 71
     5
 72
     1
  1
R1
  7
BMG_TEXT
 11
0.6167187358803891
 21
0.787183587744368
 31
0.0
 73
     1
 44
1.0
1001
ACAD
1000
MTEXTBEGIN
1070
    73
1070
     1
1070
    44
1040
1.0
1070
    74
1070
     0
1000
MTEXTEND
  0
LINE
  5
701
330
6FC
100
AcDbEntity
  8
2
 62
     0
370
    -2
100
AcDbLine
 10
7.500000000018372
 20
3.416407865027935
 30
0.0
 11
8.116718735898766
 21
4.203591452772307
 31
0.0
  0
SOLID
  5
702
330
6FC
100
AcDbEntity
  8
2
 62
     0
100
AcDbTrace
 10
9.330522414039585
 20
6.428516562083387
 30
0.0
 11
9.986508737159892
 21
5.914584282183063
 31
0.0
 12
8.116718735898766
 22
4.203591452772307
 32
0.0
 13
8.116718735898766
 23
4.203591452772307
 33
0.0
  0
ENDBLK
  5
6FE
330
6FC
100
AcDbEntity
  8
0
100
AcDbBlockEnd
  0
BLOCK
  5
709
330
708
100
AcDbEntity
  8
0
100
AcDbBlockBegin
  2
*D15
 70
     1
 10
0.0
 20
0.0
 30
0.0
  3
*D15
  1

  0
LINE
  5
FC3
330
708
100
AcDbEntity
  8
2
 62
     0
370
    -2
100
AcDbLine
 10
-0.0000000000000071
 20
-5.167401293153922
 30
0.0
 11
-0.0000000000000085
 21
-27.5303408903522
 31
0.0
  0
LINE
  5
FC4
330
708
100
AcDbEntity
  8
2
 62
     0
370
    -2
100
AcDbLine
 10
18.49999754939788
 20
-0.6250000172704448
 30
0.0
 11
18.49999754939788
 21
-27.5303408903522
 31
0.0
  0
LINE
  5
FC5
330
708
100
AcDbEntity
  8
2
 62
     0
370
    -2
100
AcDbLine
 10
2.49999999999999
 20
-26.2803408903522
 30
0.0
 11
15.99999754939788
 21
-26.2803408903522
 31
0.0
  0
LINE
  5
FC6
330
708
100
AcDbEntity
  8
2
 62
     0
370
    -2
100
AcDbLine
 10
18.49999754939788
 20
-26.2803408903522
 30
0.0
 11
36.49595679043794
 21
-26.2803408903522
 31
0.0
  0
SOLID
  5
FC7
330
708
100
AcDbEntity
  8
2
 62
     0
100
AcDbTrace
 10
2.49999999999999
 20
-25.86367422368553
 30
0.0
 11
2.49999999999999
 21
-26.69700755701886
 31
0.0
 12
-0.0000000000000084
 22
-26.2803408903522
 32
0.0
 13
-0.0000000000000084
 23
-26.2803408903522
 33
0.0
  0
SOLID
  5
FC8
330
708
100
AcDbEntity
  8
2
 62
     0
100
AcDbTrace
 10
15.99999754939788
 20
-25.86367422368553
 30
0.0
 11
15.99999754939788
 21
-26.69700755701886
 31
0.0
 12
18.49999754939788
 22
-26.2803408903522
 32
0.0
 13
18.49999754939788
 23
-26.2803408903522
 33
0.0
  0
MTEXT
  5
FC9
330
708
100
AcDbEntity
  8
2
 62
     0
100
AcDbMText
 10
28.74797716991791
 20
-23.38513709555247
 30
0.0
 40
3.5
 41
0.0
 71
     5
 72
     1
  1
18,50
  7
BMG_TEXT
 73
     1
 44
1.0
1001
ACAD
1000
MTEXTBEGIN
1070
    73
1070
     1
1070
    44
1040
1.0
1070
    74
1070
     0
1000
MTEXTEND
  0
ENDBLK
  5
70A
330
708
100
AcDbEntity
  8
0
100
AcDbBlockEnd
  0
BLOCK
  5
718
330
717
100
AcDbEntity
  8
0
100
AcDbBlockBegin
  2
*D16
 70
     1
 10
0.0
 20
0.0
 30
0.0
  3
*D16
  1

  0
LINE
  5
142E
330
717
100
AcDbEntity
  8
2
 62
     0
370
    -2
100
AcDbLine
 10
10.20000000000003
 20
-13.01644429040003
 30
0.0
 11
10.20000000000003
 21
-20.88513709555247
 31
0.0
  0
LINE
  5
142F
330
717
100
AcDbEntity
  8
2
 62
     0
370
    -2
100
AcDbLine
 10
18.49999754939788
 20
-0.6250000172704448
 30
0.0
 11
18.49999754939788
 21
-20.88513709555247
 31
0.0
  0
LINE
  5
1430
330
717
100
AcDbEntity
  8
2
 62
     0
370
    -2
100
AcDbLine
 10
12.70000000000003
 20
-19.63513709555247
 30
0.0
 11
15.99999754939788
 21
-19.63513709555247
 31
0.0
  0
LINE
  5
1431
330
717
100
AcDbEntity
  8
2
 62
     0
370
    -2
100
AcDbLine
 10
18.49999754939788
 20
-19.63513709555247
 30
0.0
 11
35.14986961438835
 21
-19.63513709555247
 31
0.0
  0
SOLID
  5
1432
330
717
100
AcDbEntity
  8
2
 62
     0
100
AcDbTrace
 10
12.70000000000003
 20
-19.2184704288858
 30
0.0
 11
12.70000000000003
 21
-20.05180376221914
 31
0.0
 12
10.20000000000003
 22
-19.63513709555247
 32
0.0
 13
10.20000000000003
 23
-19.63513709555247
 33
0.0
  0
SOLID
  5
1433
330
717
100
AcDbEntity
  8
2
 62
     0
100
AcDbTrace
 10
15.99999754939788
 20
-19.2184704288858
 30
0.0
 11
15.99999754939788
 21
-20.05180376221914
 31
0.0
 12
18.49999754939788
 22
-19.63513709555247
 32
0.0
 13
18.49999754939788
 23
-19.63513709555247
 33
0.0
  0
MTEXT
  5
1434
330
717
100
AcDbEntity
  8
2
 62
     0
100
AcDbMText
 10
28.76942337405104
 20
-16.73993330075275
 30
0.0
 40
3.5
 41
0.0
 71
     5
 72
     1
  1
8,30
  7
BMG_TEXT
 73
     1
 44
1.0
1001
ACAD
1000
MTEXTBEGIN
1070
    73
1070
     1
1070
    44
1040
1.0
1070
    74
1070
     0
1000
MTEXTEND
  0
ENDBLK
  5
719
330
717
100
AcDbEntity
  8
0
100
AcDbBlockEnd
  0
BLOCK
  5
7B7
330
7B6
100
AcDbEntity
  8
0
  6
ByBlock
 62
     0
100
AcDbBlockBegin
  2
_OPEN30
 70
     0
 10
0.0
 20
0.0
 30
0.0
  3
_OPEN30
  1

  0
LINE
  5
7B8
330
7B6
100
AcDbEntity
  8
0
  6
ByBlock
 62
     0
100
AcDbLine
 10
-1.0
 20
0.267949
 30
0.0
 11
0.0
 21
0.0
 31
0.0
  0
LINE
  5
7B9
330
7B6
100
AcDbEntity
  8
0
  6
ByBlock
 62
     0
100
AcDbLine
 10
0.0
 20
0.0
 30
0.0
 11
-1.0
 21
-0.267949
 31
0.0
  0
LINE
  5
7BA
330
7B6
100
AcDbEntity
  8
0
  6
ByBlock
 62
     0
100
AcDbLine
 10
0.0
 20
0.0
 30
0.0
 11
-1.0
 21
0.0
 31
0.0
  0
ENDBLK
  5
7BB
330
7B6
100
AcDbEntity
  8
0
  6
ByBlock
 62
     0
100
AcDbBlockEnd
  0
BLOCK
  5
BC0
330
BBF
100
AcDbEntity
  8
0
100
AcDbBlockBegin
  2
*D18
 70
     1
 10
0.0
 20
0.0
 30
0.0
  3
*D18
  1

  0
LINE
  5
BD6
330
BBF
100
AcDbEntity
  8
0
 62
     0
370
    -2
100
AcDbLine
 10
59.12500000000003
 20
34.99987909325577
 30
0.0
 11
74.51726638468013
 21
34.99987909325577
 31
0.0
  0
LINE
  5
BD7
330
BBF
100
AcDbEntity
  8
0
 62
     0
370
    -2
100
AcDbLine
 10
59.12500000000003
 20
-30.00000000000002
 30
0.0
 11
74.51726638468014
 21
-30.00000000000001
 31
0.0
  0
LINE
  5
BD8
330
BBF
100
AcDbEntity
  8
0
 62
     0
370
    -2
100
AcDbLine
 10
73.26726638468013
 20
32.49987909325577
 30
0.0
 11
73.26726638468014
 21
-27.50000000000001
 31
0.0
  0
SOLID
  5
BD9
330
BBF
100
AcDbEntity
  8
0
 62
     0
100
AcDbTrace
 10
72.85059971801345
 20
32.49987909325577
 30
0.0
 11
73.6839330513468
 21
32.49987909325577
 31
0.0
 12
73.26726638468013
 22
34.99987909325577
 32
0.0
 13
73.26726638468013
 23
34.99987909325577
 33
0.0
  0
SOLID
  5
BDA
330
BBF
100
AcDbEntity
  8
0
 62
     0
100
AcDbTrace
 10
72.85059971801347
 20
-27.50000000000001
 30
0.0
 11
73.68393305134681
 21
-27.50000000000001
 31
0.0
 12
73.26726638468014
 22
-30.00000000000001
 32
0.0
 13
73.26726638468014
 23
-30.00000000000001
 33
0.0
  0
MTEXT
  5
BDB
330
BBF
100
AcDbEntity
  8
0
 62
     0
100
AcDbMText
 10
71.34834509163723
 20
2.499939546627854
 30
0.0
 40
2.5
 41
0.0
 71
     5
 72
     1
  1
65
 11
0.0000000000000001
 21
1.0
 31
0.0
 73
     1
 44
1.0
1001
ACAD
1000
MTEXTBEGIN
1070
    73
1070
     1
1070
    44
1040
1.0
1070
    74
1070
     0
1000
MTEXTEND
  0
ENDBLK
  5
BC1
330
BBF
100
AcDbEntity
  8
0
100
AcDbBlockEnd
  0
BLOCK
  5
BF5
330
BF4
100
AcDbEntity
  8
0
100
AcDbBlockBegin
  2
*D19
 70
     1
 10
0.0
 20
0.0
 30
0.0
  3
*D19
  1

  0
LINE
  5
F5B
330
BF4
100
AcDbEntity
  8
0
 62
     0
370
    -2
100
AcDbLine
 10
19.41936105670382
 20
25.10817334954887
 30
0.0
 11
14.49133130592968
 21
11.07851044913701
 31
0.0
  0
MTEXT
  5
F5C
330
BF4
100
AcDbEntity
  8
0
 62
     0
100
AcDbMText
 10
16.07781485598166
 20
22.79488949321197
 30
0.0
 40
3.5
 41
0.0
 71
     5
 72
     1
  1
R2
  7
BMG_TEXT
 11
0.3314075014515149
 21
0.943487714801663
 31
0.0
 73
     1
 44
1.0
1001
ACAD
1000
MTEXTBEGIN
1070
    73
1070
     1
1070
    44
1040
1.0
1070
    74
1070
     0
1000
MTEXTEND
  0
LINE
  5
F5D
330
BF4
100
AcDbEntity
  8
0
 62
     0
370
    -2
100
AcDbLine
 10
12.99999754939787
 20
6.832815732529526
 30
0.0
 11
13.6628125523009
 21
8.719791162132851
 31
0.0
  0
SOLID
  5
F5E
330
BF4
100
AcDbEntity
  8
0
 62
     0
100
AcDbTrace
 10
14.09821142476232
 20
11.21659690807514
 30
0.0
 11
14.88445118709704
 21
10.94042399019888
 31
0.0
 12
13.6628125523009
 22
8.719791162132851
 32
0.0
 13
13.6628125523009
 23
8.719791162132851
 33
0.0
  0
ENDBLK
  5
BF6
330
BF4
100
AcDbEntity
  8
0
100
AcDbBlockEnd
  0
BLOCK
  5
C11
330
C10
100
AcDbEntity
  8
0
100
AcDbBlockBegin
  2
*D20
 70
     1
 10
0.0
 20
0.0
 30
0.0
  3
*D20
  1

  0
LINE
  5
F61
330
C10
100
AcDbEntity
  8
0
 62
     0
370
    -2
100
AcDbLine
 10
0.9129254579343632
 20
26.86475771485219
 30
0.0
 11
2.176392154173981
 21
12.37711001210376
 31
0.0
  0
MTEXT
  5
F62
330
C10
100
AcDbEntity
  8
0
 62
     0
100
AcDbMText
 10
3.759270925777749
 20
22.2711549663566
 30
0.0
 40
3.5
 41
0.0
 71
     5
 72
     1
  1
R30
  7
BMG_TEXT
 11
0.0868801660068884
 21
-0.9962187695253565
 31
0.0
 73
     1
 44
1.0
1001
ACAD
1000
MTEXTBEGIN
1070
    73
1070
     1
1070
    44
1040
1.0
1070
    74
1070
     0
1000
MTEXTEND
  0
LINE
  5
F63
330
C10
100
AcDbEntity
  8
0
 62
     0
370
    -2
100
AcDbLine
 10
4.999997549397873
 20
-19.99999999747043
 30
0.0
 11
2.393592569191203
 21
9.886563088290373
 31
0.0
  0
SOLID
  5
F64
330
C10
100
AcDbEntity
  8
0
 62
     0
100
AcDbTrace
 10
2.591483308142874
 20
12.4133100812733
 30
0.0
 11
1.761301000205081
 21
12.34090994293423
 31
0.0
 12
2.393592569191203
 22
9.886563088290373
 32
0.0
 13
2.393592569191203
 23
9.886563088290373
 33
0.0
  0
ENDBLK
  5
C12
330
C10
100
AcDbEntity
  8
0
100
AcDbBlockEnd
  0
BLOCK
  5
C9B
330
C9A
100
AcDbEntity
  8
0
100
AcDbBlockBegin
  2
*D21
 70
     1
 10
0.0
 20
0.0
 30
0.0
  3
*D21
  1

  0
LINE
  5
CC0
330
C9A
100
AcDbEntity
  8
0
 62
     0
370
    -2
100
AcDbLine
 10
33.66270099092738
 20
9.34916887815563
 30
0.0
 11
33.66270099092738
 21
15.34289047175758
 31
0.0
  0
LINE
  5
CC1
330
C9A
100
AcDbEntity
  8
0
 62
     0
370
    -2
100
AcDbLine
 10
38.66270099092736
 20
10.08553399247593
 30
0.0
 11
38.66270099092736
 21
15.34289047175758
 31
0.0
  0
LINE
  5
CC2
330
C9A
100
AcDbEntity
  8
0
 62
     0
370
    -2
100
AcDbLine
 10
31.16270099092738
 20
14.09289047175758
 30
0.0
 11
28.66270099092738
 21
14.09289047175758
 31
0.0
  0
LINE
  5
CC3
330
C9A
100
AcDbEntity
  8
0
 62
     0
370
    -2
100
AcDbLine
 10
41.16270099092735
 20
14.09289047175758
 30
0.0
 11
43.66270099092736
 21
14.09289047175758
 31
0.0
  0
LINE
  5
CC4
330
C9A
100
AcDbEntity
  8
0
 62
     0
370
    -2
100
AcDbLine
 10
33.66270099092738
 20
14.09289047175758
 30
0.0
 11
38.66270099092736
 21
14.09289047175758
 31
0.0
  0
SOLID
  5
CC5
330
C9A
100
AcDbEntity
  8
0
 62
     0
100
AcDbTrace
 10
31.16270099092738
 20
14.50955713842425
 30
0.0
 11
31.16270099092738
 21
13.67622380509092
 31
0.0
 12
33.66270099092738
 22
14.09289047175758
 32
0.0
 13
33.66270099092738
 23
14.09289047175758
 33
0.0
  0
SOLID
  5
CC6
330
C9A
100
AcDbEntity
  8
0
 62
     0
100
AcDbTrace
 10
41.16270099092735
 20
14.50955713842425
 30
0.0
 11
41.16270099092735
 21
13.67622380509092
 31
0.0
 12
38.66270099092736
 22
14.09289047175758
 32
0.0
 13
38.66270099092736
 23
14.09289047175758
 33
0.0
  0
MTEXT
  5
CC7
330
C9A
100
AcDbEntity
  8
0
 62
     0
100
AcDbMText
 10
36.16270099092737
 20
16.5183121161708
 30
0.0
 40
3.5
 41
0.0
 71
     5
 72
     1
  1
5
  7
BMG_TEXT
 73
     1
 44
1.0
1001
ACAD
1000
MTEXTBEGIN
1070
    73
1070
     1
1070
    44
1040
1.0
1070
    74
1070
     0
1000
MTEXTEND
  0
ENDBLK
  5
C9C
330
C9A
100
AcDbEntity
  8
0
100
AcDbBlockEnd
  0
BLOCK
  5
CCD
330
CCC
100
AcDbEntity
  8
0
100
AcDbBlockBegin
  2
*D22
 70
     1
 10
0.0
 20
0.0
 30
0.0
  3
*D22
  1

  0
LINE
  5
146F
330
CCC
100
AcDbEntity
  8
SKVIEW2
 62
     0
370
    -2
100
AcDbLine
 10
37.53941463742933
 20
11.82810937035564
 30
0.0
 11
37.53941463742933
 21
19.26125763584133
 31
0.0
  0
LINE
  5
1470
330
CCC
100
AcDbEntity
  8
SKVIEW2
 62
     0
370
    -2
100
AcDbLine
 10
43.49079113633833
 20
12.00893230984759
 30
0.0
 11
43.49079113633833
 21
19.26125763584133
 31
0.0
  0
LINE
  5
1471
330
CCC
100
AcDbEntity
  8
SKVIEW2
 62
     0
370
    -2
100
AcDbLine
 10
35.03941463742933
 20
18.01125763584133
 30
0.0
 11
32.53941463742933
 21
18.01125763584133
 31
0.0
  0
LINE
  5
1472
330
CCC
100
AcDbEntity
  8
SKVIEW2
 62
     0
370
    -2
100
AcDbLine
 10
45.99079113633833
 20
18.01125763584133
 30
0.0
 11
48.49079113633833
 21
18.01125763584133
 31
0.0
  0
LINE
  5
1473
330
CCC
100
AcDbEntity
  8
SKVIEW2
 62
     0
370
    -2
100
AcDbLine
 10
37.53941463742933
 20
18.01125763584133
 30
0.0
 11
43.49079113633833
 21
18.01125763584133
 31
0.0
  0
SOLID
  5
1474
330
CCC
100
AcDbEntity
  8
SKVIEW2
 62
     0
100
AcDbTrace
 10
35.03941463742933
 20
18.42792430250799
 30
0.0
 11
35.03941463742933
 21
17.59459096917466
 31
0.0
 12
37.53941463742933
 22
18.01125763584133
 32
0.0
 13
37.53941463742933
 23
18.01125763584133
 33
0.0
  0
SOLID
  5
1475
330
CCC
100
AcDbEntity
  8
SKVIEW2
 62
     0
100
AcDbTrace
 10
45.99079113633833
 20
18.42792430250799
 30
0.0
 11
45.99079113633833
 21
17.59459096917466
 31
0.0
 12
43.49079113633833
 22
18.01125763584133
 32
0.0
 13
43.49079113633833
 23
18.01125763584133
 33
0.0
  0
MTEXT
  5
1476
330
CCC
100
AcDbEntity
  8
SKVIEW2
 62
     0
100
AcDbMText
 10
40.51510288688382
 20
20.90646143064105
 30
0.0
 40
3.5
 41
0.0
 71
     5
 72
     1
  1
5,00
  7
BMG_TEXT
 73
     1
 44
1.0
1001
ACAD
1000
MTEXTBEGIN
1070
    73
1070
     1
1070
    44
1040
1.0
1070
    74
1070
     0
1000
MTEXTEND
  0
ENDBLK
  5
CCE
330
CCC
100
AcDbEntity
  8
0
100
AcDbBlockEnd
  0
BLOCK
  5
FF8
330
FF7
100
AcDbEntity
  8
0
100
AcDbBlockBegin
  2
*D23
 70
     1
 10
0.0
 20
0.0
 30
0.0
  3
*D23
  1

  0
LINE
  5
1422
330
FF7
100
AcDbEntity
  8
2
 62
     0
370
    -2
100
AcDbLine
 10
24.05706098814214
 20
27.02104434471515
 30
0.0
 11
17.99827229616837
 21
13.1243479356664
 31
0.0
  0
MTEXT
  5
1423
330
FF7
100
AcDbEntity
  8
2
 62
     0
100
AcDbMText
 10
18.87330144845573
 20
22.37561073383048
 30
0.0
 40
3.5
 41
0.0
 71
     5
 72
     1
  1
R2,5
  7
BMG_TEXT
 11
0.3996549493541002
 21
0.9166656541273768
 31
0.0
 73
     1
 44
1.0
1001
ACAD
1000
MTEXTBEGIN
1070
    73
1070
     1
1070
    44
1040
1.0
1070
    74
1070
     0
1000
MTEXTEND
  0
LINE
  5
1424
330
FF7
100
AcDbEntity
  8
2
 62
     0
370
    -2
100
AcDbLine
 10
15.99999754939787
 20
8.541019665029518
 30
0.0
 11
16.99913492278312
 21
10.83268380034796
 31
0.0
  0
SOLID
  5
1425
330
FF7
100
AcDbEntity
  8
2
 62
     0
100
AcDbTrace
 10
17.6163282736153
 20
13.29087083123061
 30
0.0
 11
18.38021631872144
 21
12.9578250401022
 31
0.0
 12
16.99913492278312
 22
10.83268380034796
 32
0.0
 13
16.99913492278312
 23
10.83268380034796
 33
0.0
  0
ENDBLK
  5
FF9
330
FF7
100
AcDbEntity
  8
0
100
AcDbBlockEnd
  0
BLOCK
  5
100A
330
1009
100
AcDbEntity
  8
0
100
AcDbBlockBegin
  2
*D24
 70
     1
 10
0.0
 20
0.0
 30
0.0
  3
*D24
  1

  0
LINE
  5
1428
330
1009
100
AcDbEntity
  8
2
 62
     0
370
    -2
100
AcDbLine
 10
-0.8746631340249212
 20
32.78522712480008
 30
0.0
 11
1.274554298267389
 21
14.71989660461501
 31
0.0
  0
MTEXT
  5
1429
330
1009
100
AcDbEntity
  8
2
 62
     0
100
AcDbMText
 10
2.927205364808651
 20
25.3358366643423
 30
0.0
 40
3.5
 41
0.0
 71
     5
 72
     1
  1
R37,5
  7
BMG_TEXT
 11
0.1181360812782616
 21
-0.9929974150521319
 31
0.0
 73
     1
 44
1.0
1001
ACAD
1000
MTEXTBEGIN
1070
    73
1070
     1
1070
    44
1040
1.0
1070
    74
1070
     0
1000
MTEXTEND
  0
LINE
  5
142A
330
1009
100
AcDbEntity
  8
2
 62
     0
370
    -2
100
AcDbLine
 10
5.999997549397866
 20
-24.99999999747045
 30
0.0
 11
1.569894501463043
 21
12.23740306698468
 31
0.0
  0
SOLID
  5
142B
330
1009
100
AcDbEntity
  8
2
 62
     0
100
AcDbTrace
 10
1.688303221205774
 20
14.76911997181428
 30
0.0
 11
0.8608053753290015
 21
14.67067323741573
 31
0.0
 12
1.569894501463043
 22
12.23740306698468
 32
0.0
 13
1.569894501463043
 23
12.23740306698468
 33
0.0
  0
ENDBLK
  5
100B
330
1009
100
AcDbEntity
  8
0
100
AcDbBlockEnd
  0
BLOCK
  5
147C
330
147B
100
AcDbEntity
  8
0
100
AcDbBlockBegin
  2
*D25
 70
     1
 10
0.0
 20
0.0
 30
0.0
  3
*D25
  1

  0
LINE
  5
1548
330
147B
100
AcDbEntity
  8
2
 62
     0
370
    -2
100
AcDbLine
 10
27.03692078615356
 20
26.01342189768906
 30
0.0
 11
17.82709073427439
 21
13.97157312290531
 31
0.0
  0
MTEXT
  5
1549
330
147B
100
AcDbEntity
  8
2
 62
     0
100
AcDbMText
 10
20.8916863055208
 20
22.7442462253721
 30
0.0
 40
3.5
 41
0.0
 71
     5
 72
     1
  1
R2,5
  7
BMG_TEXT
 11
0.6075066073553004
 21
0.7943146240751539
 31
0.0
 73
     1
 44
1.0
1001
ACAD
1000
MTEXTBEGIN
1070
    73
1070
     1
1070
    44
1040
1.0
1070
    74
1070
     0
1000
MTEXTEND
  0
LINE
  5
154A
330
147B
100
AcDbEntity
  8
2
 62
     0
370
    -2
100
AcDbLine
 10
14.78955769749788
 20
10.00000000252953
 30
0.0
 11
16.30832421588614
 21
11.98578656271742
 31
0.0
  0
SOLID
  5
154B
330
147B
100
AcDbEntity
  8
2
 62
     0
100
AcDbTrace
 10
17.49612630757641
 20
14.22470087597002
 30
0.0
 11
18.15805516097237
 21
13.7184453698406
 31
0.0
 12
16.30832421588614
 22
11.98578656271742
 32
0.0
 13
16.30832421588614
 23
11.98578656271742
 33
0.0
  0
ENDBLK
  5
147D
330
147B
100
AcDbEntity
  8
0
100
AcDbBlockEnd
  0
BLOCK
  5
148E
330
148D
100
AcDbEntity
  8
0
100
AcDbBlockBegin
  2
*D26
 70
     1
 10
0.0
 20
0.0
 30
0.0
  3
*D26
  1

  0
LINE
  5
15B7
330
148D
100
AcDbEntity
  8
2
 62
     0
370
    -2
100
AcDbLine
 10
39.01316006440738
 20
5.442976369773502
 30
0.0
 11
20.87657035892288
 21
4.014895059163716
 31
0.0
  0
MTEXT
  5
15B8
330
148D
100
AcDbEntity
  8
2
 62
     0
100
AcDbMText
 10
30.96374220988178
 20
7.713327558032005
 30
0.0
 40
3.5
 41
0.0
 71
     5
 72
     1
  1
R37,5
  7
BMG_TEXT
 11
0.9969143202381173
 21
0.0784973764158537
 31
0.0
 73
     1
 44
1.0
1001
ACAD
1000
MTEXTBEGIN
1070
    73
1070
     1
1070
    44
1040
1.0
1070
    74
1070
     0
1000
MTEXTEND
  0
LINE
  5
15B9
330
148D
100
AcDbEntity
  8
2
 62
     0
370
    -2
100
AcDbLine
 10
-19.00000245060213
 20
0.875000002529534
 30
0.0
 11
18.38428455832759
 21
3.818651618124082
 31
0.0
  0
SOLID
  5
15BA
330
148D
100
AcDbEntity
  8
2
 62
     0
100
AcDbTrace
 10
20.84386311874961
 20
4.430276025929599
 30
0.0
 11
20.90927759909614
 21
3.599514092397833
 31
0.0
 12
18.38428455832759
 22
3.818651618124082
 32
0.0
 13
18.38428455832759
 23
3.818651618124082
 33
0.0
  0
ENDBLK
  5
148F
330
148D
100
AcDbEntity
  8
0
100
AcDbBlockEnd
  0
BLOCK
  5
14A0
330
149F
100
AcDbEntity
  8
0
100
AcDbBlockBegin
  2
*D27
 70
     1
 10
0.0
 20
0.0
 30
0.0
  3
*D27
  1

  0
LINE
  5
15D2
330
149F
100
AcDbEntity
  8
SKVIEW2
 62
     0
370
    -2
100
AcDbLine
 10
46.53941463742933
 20
11.82810937035564
 30
0.0
 11
46.53941463742933
 21
21.24447969178254
 31
0.0
  0
LINE
  5
15D3
330
149F
100
AcDbEntity
  8
SKVIEW2
 62
     0
370
    -2
100
AcDbLine
 10
52.53941463742933
 20
11.93657142635564
 30
0.0
 11
52.53941463742933
 21
21.24447969178254
 31
0.0
  0
LINE
  5
15D4
330
149F
100
AcDbEntity
  8
SKVIEW2
 62
     0
370
    -2
100
AcDbLine
 10
44.03941463742933
 20
19.99447969178254
 30
0.0
 11
41.53941463742933
 21
19.99447969178254
 31
0.0
  0
LINE
  5
15D5
330
149F
100
AcDbEntity
  8
SKVIEW2
 62
     0
370
    -2
100
AcDbLine
 10
55.03941463742933
 20
19.99447969178254
 30
0.0
 11
57.53941463742933
 21
19.99447969178254
 31
0.0
  0
LINE
  5
15D6
330
149F
100
AcDbEntity
  8
SKVIEW2
 62
     0
370
    -2
100
AcDbLine
 10
46.53941463742933
 20
19.99447969178254
 30
0.0
 11
52.53941463742933
 21
19.99447969178254
 31
0.0
  0
SOLID
  5
15D7
330
149F
100
AcDbEntity
  8
SKVIEW2
 62
     0
100
AcDbTrace
 10
44.03941463742933
 20
20.41114635844921
 30
0.0
 11
44.03941463742933
 21
19.57781302511587
 31
0.0
 12
46.53941463742933
 22
19.99447969178254
 32
0.0
 13
46.53941463742933
 23
19.99447969178254
 33
0.0
  0
SOLID
  5
15D8
330
149F
100
AcDbEntity
  8
SKVIEW2
 62
     0
100
AcDbTrace
 10
55.03941463742933
 20
20.41114635844921
 30
0.0
 11
55.03941463742933
 21
19.57781302511587
 31
0.0
 12
52.53941463742933
 22
19.99447969178254
 32
0.0
 13
52.53941463742933
 23
19.99447969178254
 33
0.0
  0
MTEXT
  5
15D9
330
149F
100
AcDbEntity
  8
SKVIEW2
 62
     0
100
AcDbMText
 10
49.53941463742933
 20
22.88968348658226
 30
0.0
 40
3.5
 41
0.0
 71
     5
 72
     1
  1
6,00
  7
BMG_TEXT
 73
     1
 44
1.0
1001
ACAD
1000
MTEXTBEGIN
1070
    73
1070
     1
1070
    44
1040
1.0
1070
    74
1070
     0
1000
MTEXTEND
  0
ENDBLK
  5
14A1
330
149F
100
AcDbEntity
  8
0
100
AcDbBlockEnd
  0
ENDSEC
  0
SECTION
  2
ENTITIES
  0
LINE
  5
53D
330
1F
100
AcDbEntity
  8
INFTOTAL
100
AcDbLine
 10
-31.18403926572546
 20
-30.0
 30
0.0
 11
68.81596073427454
 21
-30.0
 31
0.0
  0
LINE
  5
53E
330
1F
100
AcDbEntity
  8
INFTOTAL
100
AcDbLine
 10
68.81596073427454
 20
-30.0
 30
0.0
 11
68.81596073427454
 21
34.99987909325575
 31
0.0
  0
LINE
  5
53F
330
1F
100
AcDbEntity
  8
INFTOTAL
100
AcDbLine
 10
68.81596073427454
 20
34.99987909325575
 30
0.0
 11
-31.18403926572546
 21
34.99987909325575
 31
0.0
  0
LINE
  5
540
330
1F
100
AcDbEntity
  8
INFTOTAL
100
AcDbLine
 10
-31.18403926572546
 20
34.99987909325575
 30
0.0
 11
-31.18403926572546
 21
-30.0
 31
0.0
  0
CIRCLE
  5
66D
330
1F
100
AcDbEntity
  8
SK1
100
AcDbCircle
 10
0.0
 20
-0.0000000000000355
 30
0.0
 40
1.75
  0
LINE
  5
66E
330
1F
100
AcDbEntity
  8
SK1
100
AcDbLine
 10
-0.0000024505913588
 20
-1.752374116708389
 30
0.0
 11
-0.0000024506128456
 21
1.747625883291608
 31
0.0
  0
LINE
  5
66F
330
1F
100
AcDbEntity
  8
SK1
100
AcDbLine
 10
-1.749999999999968
 20
-0.0000000000000347
 30
0.0
 11
1.75
 21
-0.0000000000000363
 31
0.0
  0
HATCH
  5
670
330
1F
100
AcDbEntity
  8
SK1
  6
Continuous
100
AcDbHatch
 10
0.0
 20
0.0
 30
0.0
210
0.0
220
0.0
230
1.0
  2
_U
 70
     0
 71
     0
 91
        1
 92
        1
 93
        3
 72
     1
 10
-1.749999999999988
 20
-0.0000000000000355
 11
0.0
 21
-0.0000000000000355
 72
     1
 10
0.0
 20
-0.0000000000000355
 11
0.0000000000115676
 21
1.749999999999964
 72
     2
 10
0.0
 20
-0.0000000000000355
 40
1.75
 50
89.99999999962124
 51
179.9999999999999
 73
     1
 97
        0
 75
     0
 76
     0
 52
45.0
 41
0.3200000000000001
 77
     0
 78
     1
 53
45.0
 43
-79.99999999996695
 44
-0.0000000000000355
 45
-0.2262741699796952
 46
0.2262741699796952
 79
     0
 98
        1
 10
-79.99999999996695
 20
-0.0000000000000355
  0
HATCH
  5
671
330
1F
100
AcDbEntity
  8
SK1
  6
Continuous
100
AcDbHatch
 10
0.0
 20
0.0
 30
0.0
210
0.0
220
0.0
230
1.0
  2
_U
 70
     0
 71
     0
 91
        1
 92
        1
 93
        3
 72
     1
 10
-0.000002450624399
 20
-0.0023741167083879
 11
-0.0000024505913445
 21
-1.752374116708385
 72
     2
 10
-0.000002450624399
 20
-0.0023741167083879
 40
1.75
 50
270.0000000010821
 51
359.9999999999998
 73
     1
 72
     1
 10
1.749997549375585
 20
-0.0023741167083895
 11
-0.000002450624399
 21
-0.0023741167083879
 97
        0
 75
     0
 76
     0
 52
45.0
 41
0.3
 77
     0
 78
     1
 53
45.0
 43
-80.00000245059132
 44
-0.0023741167083879
 45
-0.2121320343559642
 46
0.2121320343559642
 79
     0
 98
        1
 10
-80.00000245059132
 20
-0.0023741167083879
  0
LINE
  5
6CB
330
1F
100
AcDbEntity
  8
SKVIEW4
100
AcDbLine
 10
41.53941463742933
 20
-0.0239167561443594
 30
0.0
 11
57.53941463742933
 21
-0.0239167561443594
 31
0.0
  0
LINE
  5
6CC
330
1F
100
AcDbEntity
  8
SK4
100
AcDbLine
 10
5.999997549397888
 20
-17.31261691975728
 30
0.0
 11
5.999997549397888
 21
17.31261691975721
 31
0.0
  0
DIMENSION
  5
6DE
330
1F
100
AcDbEntity
  8
2
100
AcDbDimension
  2
*D12
 10
39.71659075183869
 20
-12.49964454930688
 30
0.0
 11
39.71659075183868
 21
24.86243762984031
 31
0.0
 70
   160
  1
%%c<>
 71
     5
 42
24.99964455183643
  3
ISO-25
100
AcDbAlignedDimension
 13
14.78955769749788
 23
12.50000000252954
 33
0.0
 14
14.78955769749788
 24
-12.49964454930688
 34
0.0
 50
90.0
100
AcDbRotatedDimension
1001
ACAD
1000
DSTYLE
1002
{
1070
    78
1070
     0
1070
   340
1005
442
1002
}
  0
DIMENSION
  5
705
330
1F
100
AcDbEntity
  8
2
100
AcDbDimension
  2
*D15
 10
18.49999754939788
 20
-26.2803408903522
 30
0.0
 11
28.74797716991791
 21
-26.2803408903522
 31
0.0
 70
   160
 71
     5
 42
18.49999754939789
  3
ISO-25
100
AcDbAlignedDimension
 13
-0.0000000000000071
 23
-4.542401293153922
 33
0.0
 14
18.49999754939788
 24
-0.0000000172704446
 34
0.0
100
AcDbRotatedDimension
1001
ACAD
1000
DSTYLE
1002
{
1070
    78
1070
     0
1070
   340
1005
442
1002
}
  0
DIMENSION
  5
714
330
1F
100
AcDbEntity
  8
2
100
AcDbDimension
  2
*D16
 10
18.49999754939788
 20
-19.63513709555247
 30
0.0
 11
28.76942337405104
 21
-19.63513709555247
 31
0.0
 70
   160
  1
<>
 71
     5
 42
8.299997549397847
  3
ISO-25
100
AcDbAlignedDimension
 13
10.20000000000003
 23
-12.39144429040003
 33
0.0
 14
18.49999754939788
 24
-0.0000000172704446
 34
0.0
100
AcDbRotatedDimension
1001
ACAD
1000
DSTYLE
1002
{
1070
    78
1070
     0
1070
   340
1005
442
1002
}
  0
LINE
  5
876
330
1F
100
AcDbEntity
  8
SK4
100
AcDbLine
 10
-4.999999999999983
 20
-0.0000000006837043
 30
0.0
 11
23.50000000000003
 21
0.0000000025295392
 31
0.0
  0
LINE
  5
12CC
330
1F
100
AcDbEntity
  8
CUT
100
AcDbLine
 10
10.19999754939786
 20
12.50000000252954
 30
0.0
 11
-0.0000024506021248
 21
12.14380815372955
 31
0.0
  0
LINE
  5
12CD
330
1F
100
AcDbEntity
  8
CUT
100
AcDbLine
 10
14.78955769749788
 20
12.50000000252954
 30
0.0
 11
10.19999754939786
 21
12.50000000252954
 31
0.0
  0
ARC
  5
12CE
102
{ACAD_REACTORS
330
148B
102
}
330
1F
100
AcDbEntity
  8
CUT
100
AcDbCircle
 10
14.78955769749788
 20
10.00000000252954
 30
0.0
 40
2.500000000000003
100
AcDbArc
 50
15.11244954330052
 51
90.0
  0
ARC
  5
12CF
102
{ACAD_REACTORS
330
149D
102
}
330
1F
100
AcDbEntity
  8
CUT
100
AcDbCircle
 10
-19.00000245060212
 20
0.8750000025295392
 30
0.0
 40
37.50000000000031
100
AcDbArc
 50
0.0
 51
15.11244954329972
  0
LINE
  5
12D0
330
1F
100
AcDbEntity
  8
CUT
100
AcDbLine
 10
-0.0000024506021248
 20
12.14380815372955
 30
0.0
 11
-0.0000024506021248
 21
0.0000000025295392
 31
0.0
  0
LINE
  5
12D1
330
1F
100
AcDbEntity
  8
CUT
100
AcDbLine
 10
-0.0000024506021248
 20
0.0000000025295392
 30
0.0
 11
18.49999754939787
 21
0.0000000025295392
 31
0.0
  0
LINE
  5
12D2
330
1F
100
AcDbEntity
  8
CUT
100
AcDbLine
 10
18.49999754939787
 20
0.0000000025295392
 30
0.0
 11
18.49999754939787
 21
0.8750000025295392
 31
0.0
  0
SPLINE
  5
1332
330
1F
100
AcDbEntity
  8
SKVIEW1
  6
Continuous
370
    25
100
AcDbSpline
210
0.0
220
0.0
230
1.0
 70
     8
 71
     3
 72
    17
 73
    13
 74
     0
 42
0.000000001
 43
0.0000000001
 40
0.0
 40
0.0
 40
0.0
 40
0.0
 40
0.0004064970153204
 40
0.0004064970153204
 40
0.0004064970153204
 40
0.0005306495543532
 40
0.0005306495543532
 40
0.0005306495543532
 40
0.0007452457311605
 40
0.0007452457311605
 40
0.0007452457311605
 40
0.000838916563141
 40
0.000838916563141
 40
0.000838916563141
 40
0.000838916563141
 10
51.08687403384124
 20
-10.68690382159255
 30
0.0
 10
51.21960480145154
 20
-10.7118516463601
 30
0.0
 10
51.352340266441
 20
-10.73679401142137
 30
0.0
 10
51.48508034336702
 20
-10.76173095746681
 30
0.0
 10
51.52562189170232
 20
-10.76934721343749
 30
0.0
 10
51.56616387113444
 20
-10.77696296408042
 30
0.0
 10
51.60670627925629
 20
-10.78457821056143
 30
0.0
 10
51.67678334544514
 20
-10.79774107276957
 30
0.0
 10
51.74686169406619
 20
-10.81090242901727
 30
0.0
 10
51.81694131277781
 20
-10.82406228534554
 30
0.0
 10
51.84753093635089
 20
-10.82980653822189
 30
0.0
 10
51.87812080220163
 20
-10.83555050537149
 30
0.0
 10
51.90871090931029
 20
-10.84129418729826
 30
0.0
  0
SPLINE
  5
1333
330
1F
100
AcDbEntity
  8
SKVIEW1
  6
Continuous
370
    25
100
AcDbSpline
210
0.0
220
0.0
230
1.0
 70
     8
 71
     3
 72
    12
 73
     8
 74
     0
 42
0.000000001
 43
0.0000000001
 40
0.1247129107535828
 40
0.1247129107535828
 40
0.1247129107535828
 40
0.1247129107535828
 40
0.4332615523506389
 40
0.4332615523506389
 40
0.6498923285271189
 40
0.6498923285271189
 40
0.8665231047035991
 40
0.8665231047035991
 40
0.8665231047035991
 40
0.8665231047035991
 10
51.08687403384159
 20
-10.68690382159249
 30
0.0
 10
50.87069244123815
 20
-9.45120663899781
 30
0.0
 10
50.6431864378966
 20
-8.209407468756722
 30
0.0
 10
50.23723153401125
 20
-6.085496916202292
 30
0.0
 10
50.06434978889437
 20
-5.206511875474625
 30
0.0
 10
49.70764058332235
 20
-3.442576114079334
 30
0.0
 10
49.52352959093246
 20
-2.557697444372989
 30
0.0
 10
49.33447024517628
 20
-1.669641163111928
 30
0.0
  0
SPLINE
  5
1334
330
1F
100
AcDbEntity
  8
SKVIEW1
  6
Continuous
370
    25
100
AcDbSpline
210
0.0
220
0.0
230
1.0
 70
     8
 71
     3
 72
    10
 73
     6
 74
     0
 42
0.000000001
 43
0.0000000001
 40
0.4332803283459297
 40
0.4332803283459297
 40
0.4332803283459297
 40
0.4332803283459297
 40
0.5222834914614416
 40
0.5222834914614416
 40
0.7388954916426309
 40
0.7388954916426309
 40
0.7388954916426309
 40
0.7388954916426309
 10
50.46457311387975
 20
-3.246651145144816
 30
0.0
 10
50.53996151173277
 20
-3.612475175245221
 30
0.0
 10
50.61441266636975
 20
-3.977769658138564
 30
0.0
 10
50.86685054777801
 20
-5.230288621347987
 30
0.0
 10
51.04023601474096
 20
-6.114913366344661
 30
0.0
 10
51.20812353610467
 20
-6.996431743992393
 30
0.0
  0
SPLINE
  5
1335
330
1F
100
AcDbEntity
  8
SKVIEW1
  6
Continuous
370
    25
100
AcDbSpline
210
0.0
220
0.0
230
1.0
 70
     8
 71
     3
 72
     8
 73
     4
 74
     0
 42
0.000000001
 43
0.0000000001
 40
0.7388954916426309
 40
0.7388954916426309
 40
0.7388954916426309
 40
0.7388954916426309
 40
0.8665231047035991
 40
0.8665231047035991
 40
0.8665231047035991
 40
0.8665231047035991
 10
50.13447024517629
 20
-1.669641163111928
 30
0.0
 10
50.24643692288014
 20
-2.196402966295821
 30
0.0
 10
50.35646862709892
 20
-2.72207149957128
 30
0.0
 10
50.46457311387975
 20
-3.246651145144816
 30
0.0
  0
SPLINE
  5
1336
330
1F
100
AcDbEntity
  8
SKVIEW1
  6
Continuous
370
    25
100
AcDbSpline
210
0.0
220
0.0
230
1.0
 70
     8
 71
     3
 72
    12
 73
     8
 74
     0
 42
0.000000001
 43
0.0000000001
 40
0.1167100704516371
 40
0.1167100704516371
 40
0.1167100704516371
 40
0.1167100704516371
 40
0.2166307761753193
 40
0.2166307761753193
 40
0.4332615523506389
 40
0.4332615523506389
 40
0.4332803283459297
 40
0.4332803283459297
 40
0.4332803283459297
 40
0.4332803283459297
 10
51.90871185859569
 20
-10.84129406339782
 30
0.0
 10
51.83877447496474
 20
-10.43890108475464
 30
0.0
 10
51.76763423710615
 20
-10.03582848732682
 30
0.0
 10
51.53848552777914
 20
-8.756751037908927
 30
0.0
 10
51.3760683143035
 20
-7.878255224141518
 30
0.0
 10
51.20815264114813
 20
-6.996584564541262
 30
0.0
 10
51.20813808864706
 20
-6.996508154278501
 30
0.0
 10
51.20812353610467
 20
-6.996431743992393
 30
0.0
  0
SPLINE
  5
1337
330
1F
100
AcDbEntity
  8
SKVIEW1
  6
Continuous
370
    25
100
AcDbSpline
210
0.0
220
0.0
230
1.0
 70
     8
 71
     3
 72
    17
 73
    13
 74
     0
 42
0.000000001
 43
0.0000000001
 40
0.0
 40
0.0
 40
0.0
 40
0.0
 40
0.0004064970153204
 40
0.0004064970153204
 40
0.0004064970153204
 40
0.0005306495543532
 40
0.0005306495543532
 40
0.0005306495543532
 40
0.0007452457311605
 40
0.0007452457311605
 40
0.0007452457311605
 40
0.000838916563141
 40
0.000838916563141
 40
0.000838916563141
 40
0.000838916563141
 10
47.99195524101738
 20
10.63907030930389
 30
0.0
 10
47.85922447340709
 20
10.66401813407144
 30
0.0
 10
47.72648900841764
 20
10.68896049913272
 30
0.0
 10
47.59374893149163
 20
10.71389744517816
 30
0.0
 10
47.55320738315631
 20
10.72151370114883
 30
0.0
 10
47.51266540372421
 20
10.72912945179176
 30
0.0
 10
47.47212299560233
 20
10.73674469827277
 30
0.0
 10
47.40204592941352
 20
10.7499075604809
 30
0.0
 10
47.33196758079246
 20
10.76306891672861
 30
0.0
 10
47.26188796208083
 20
10.77622877305688
 30
0.0
 10
47.23129833850774
 20
10.78197302593323
 30
0.0
 10
47.200708472657
 20
10.78771699308285
 30
0.0
 10
47.17011836554836
 20
10.79346067500962
 30
0.0
  0
SPLINE
  5
1338
330
1F
100
AcDbEntity
  8
SKVIEW1
  6
Continuous
370
    25
100
AcDbSpline
210
0.0
220
0.0
230
1.0
 70
     8
 71
     3
 72
    12
 73
     8
 74
     0
 42
0.000000001
 43
0.0000000001
 40
0.1247129107535828
 40
0.1247129107535828
 40
0.1247129107535828
 40
0.1247129107535828
 40
0.4332615523506389
 40
0.4332615523506389
 40
0.6498923285271189
 40
0.6498923285271189
 40
0.8665231047035991
 40
0.8665231047035991
 40
0.8665231047035991
 40
0.8665231047035991
 10
47.99195524101704
 20
10.63907030930384
 30
0.0
 10
48.20813683362047
 20
9.403373126709155
 30
0.0
 10
48.43564283696204
 20
8.161573956468068
 30
0.0
 10
48.84159774084739
 20
6.037663403913636
 30
0.0
 10
49.01447948596427
 20
5.158678363185969
 30
0.0
 10
49.37118869153628
 20
3.39474260179068
 30
0.0
 10
49.55529968392617
 20
2.509863932084333
 30
0.0
 10
49.74435902968235
 20
1.621807650823274
 30
0.0
  0
SPLINE
  5
1339
330
1F
100
AcDbEntity
  8
SKVIEW1
  6
Continuous
370
    25
100
AcDbSpline
210
0.0
220
0.0
230
1.0
 70
     8
 71
     3
 72
    10
 73
     6
 74
     0
 42
0.000000001
 43
0.0000000001
 40
0.4332803271024237
 40
0.4332803271024237
 40
0.4332803271024237
 40
0.4332803271024237
 40
0.6498923285271189
 40
0.6498923285271189
 40
0.7388955188257949
 40
0.7388955188257949
 40
0.7388955188257949
 40
0.7388955188257949
 10
47.87070573586257
 20
6.948598246885357
 30
0.0
 10
48.03859325812696
 20
6.067079864212749
 30
0.0
 10
48.21197872605349
 20
5.18245511415566
 30
0.0
 10
48.46441663094218
 20
3.929936034443695
 30
0.0
 10
48.53886780860332
 20
3.564641439821581
 30
0.0
 10
48.61425623005382
 20
3.198817297668481
 30
0.0
  0
SPLINE
  5
133A
330
1F
100
AcDbEntity
  8
SKVIEW1
  6
Continuous
370
    25
100
AcDbSpline
210
0.0
220
0.0
230
1.0
 70
     8
 71
     3
 72
     8
 73
     4
 74
     0
 42
0.000000001
 43
0.0000000001
 40
0.7388955188257949
 40
0.7388955188257949
 40
0.7388955188257949
 40
0.7388955188257949
 40
0.8665231047035991
 40
0.8665231047035991
 40
0.8665231047035991
 40
0.8665231047035991
 10
48.61425623005382
 20
3.198817297668481
 30
0.0
 10
48.72236069463061
 20
2.674237763360334
 30
0.0
 10
48.83239237582606
 20
2.148569341813168
 30
0.0
 10
48.94435902968236
 20
1.621807650823274
 30
0.0
  0
SPLINE
  5
133B
330
1F
100
AcDbEntity
  8
SKVIEW1
  6
Continuous
370
    25
100
AcDbSpline
210
0.0
220
0.0
230
1.0
 70
     8
 71
     3
 72
    12
 73
     8
 74
     0
 42
0.000000001
 43
0.0000000001
 40
0.1167100704516378
 40
0.1167100704516378
 40
0.1167100704516378
 40
0.1167100704516378
 40
0.2166307761753193
 40
0.2166307761753193
 40
0.4332615523506389
 40
0.4332615523506389
 40
0.4332803271024237
 40
0.4332803271024237
 40
0.4332803271024237
 40
0.4332803271024237
 10
47.17011741626295
 20
10.79346055110915
 30
0.0
 10
47.24005479989389
 20
10.39106757246599
 30
0.0
 10
47.31119503775249
 20
9.987994975038168
 30
0.0
 10
47.54034374707949
 20
8.708917525620275
 30
0.0
 10
47.70276096055515
 20
7.830421711852863
 30
0.0
 10
47.87067663274672
 20
6.948751057313147
 30
0.0
 10
47.870691184284
 20
6.94867465211092
 30
0.0
 10
47.87070573586257
 20
6.948598246885357
 30
0.0
  0
SPLINE
  5
133C
330
1F
100
AcDbEntity
  8
SKVIEW1
  6
Continuous
370
    25
100
AcDbSpline
210
0.0
220
0.0
230
1.0
 70
    24
 71
     3
 72
    12
 73
     8
 74
     0
 42
0.000000001
 43
0.0000000001
 40
0.0
 40
0.0
 40
0.0
 40
0.0
 40
0.2500000000000001
 40
0.2500000000000001
 40
0.5000000000000002
 40
0.5000000000000002
 40
1.0
 40
1.0
 40
1.0
 40
1.0
 10
46.53941463742931
 20
-1.669641163111928
 30
0.0
 10
46.53941463742931
 20
-2.37380287307418
 30
0.0
 10
46.53941463742931
 20
-3.077255507652156
 30
0.0
 10
46.53941463742931
 20
-4.479471656707971
 30
0.0
 10
46.53941463742931
 20
-5.178438071297563
 30
0.0
 10
46.53941463742931
 20
-7.267450519003316
 30
0.0
 10
46.53941463742931
 20
-8.647150678303614
 30
0.0
 10
46.53941463742931
 20
-10.00575299342809
 30
0.0
  0
SPLINE
  5
133D
330
1F
100
AcDbEntity
  8
SKVIEW1
  6
Continuous
370
    25
100
AcDbSpline
210
0.0
220
0.0
230
1.0
 70
     8
 71
     3
 72
     8
 73
     4
 74
     0
 42
0.000000001
 43
0.0000000001
 40
0.0
 40
0.0
 40
0.0
 40
0.0
 40
1.0
 40
1.0
 40
1.0
 40
1.0
 10
51.09149114484221
 20
-10.79506409578931
 30
0.0
 10
51.09503562710982
 20
-10.75931427462077
 30
0.0
 10
51.09323206007939
 20
-10.72324639366027
 30
0.0
 10
51.08687403384161
 20
-10.6869038215926
 30
0.0
  0
SPLINE
  5
133E
330
1F
100
AcDbEntity
  8
SKVIEW1
  6
Continuous
370
    25
100
AcDbSpline
210
0.0
220
0.0
230
1.0
 70
     8
 71
     3
 72
    14
 73
    10
 74
     0
 42
0.000000001
 43
0.0000000001
 40
0.0000000000000019
 40
0.0000000000000019
 40
0.0000000000000019
 40
0.0000000000000019
 40
0.0029893451376491
 40
0.0029893451376491
 40
0.0029893451376491
 40
0.0039580785164455
 40
0.0039580785164455
 40
0.0039580785164455
 40
0.0048122007807254
 40
0.0048122007807254
 40
0.0048122007807254
 40
0.0048122007807254
 10
46.53941463742754
 20
-10.00575299342793
 30
0.0
 10
47.48147712306404
 20
-10.17027212734061
 30
0.0
 10
48.42389076667936
 20
-10.33408813615529
 30
0.0
 10
49.36660538570139
 20
-10.49726293230355
 30
0.0
 10
49.67210357909937
 20
-10.55014171918721
 30
0.0
 10
49.97763351936065
 20
-10.60295310838234
 30
0.0
 10
50.28319370141647
 20
-10.65569900919093
 30
0.0
 10
50.55260297658318
 20
-10.70220452836312
 30
0.0
 10
50.82203578265763
 20
-10.74865914037484
 30
0.0
 10
51.09149114484221
 20
-10.7950640957893
 30
0.0
  0
SPLINE
  5
133F
330
1F
100
AcDbEntity
  8
SKVIEW1
  6
Continuous
370
    25
100
AcDbSpline
210
0.0
220
0.0
230
1.0
 70
    24
 71
     3
 72
    12
 73
     8
 74
     0
 42
0.000000001
 43
0.0000000001
 40
0.0
 40
0.0
 40
0.0
 40
0.0
 40
0.2499999999999999
 40
0.2499999999999999
 40
0.5000000000000001
 40
0.5000000000000001
 40
1.0
 40
1.0
 40
1.0
 40
1.0
 10
52.53941463742933
 20
1.621807650823274
 30
0.0
 10
52.53941463742933
 20
2.325969360785528
 30
0.0
 10
52.53941463742933
 20
3.029421995363505
 30
0.0
 10
52.53941463742933
 20
4.431638144419316
 30
0.0
 10
52.53941463742933
 20
5.130604559008908
 30
0.0
 10
52.53941463742933
 20
7.219617006714668
 30
0.0
 10
52.53941463742933
 20
8.599317166014968
 30
0.0
 10
52.53941463742933
 20
9.957919481139439
 30
0.0
  0
SPLINE
  5
1340
330
1F
100
AcDbEntity
  8
SKVIEW1
  6
Continuous
370
    25
100
AcDbSpline
210
0.0
220
0.0
230
1.0
 70
     8
 71
     3
 72
     8
 73
     4
 74
     0
 42
0.000000001
 43
0.0000000001
 40
0.0
 40
0.0
 40
0.0
 40
0.0
 40
1.0
 40
1.0
 40
1.0
 40
1.0
 10
47.98733813001642
 20
10.74723058350066
 30
0.0
 10
47.98379364774882
 20
10.71148076233213
 30
0.0
 10
47.98559721477926
 20
10.67541288137161
 30
0.0
 10
47.99195524101704
 20
10.63907030930394
 30
0.0
  0
SPLINE
  5
1341
330
1F
100
AcDbEntity
  8
SKVIEW1
  6
Continuous
370
    25
100
AcDbSpline
210
0.0
220
0.0
230
1.0
 70
     8
 71
     3
 72
    14
 73
    10
 74
     0
 42
0.000000001
 43
0.0000000001
 40
0.0000000000000019
 40
0.0000000000000019
 40
0.0000000000000019
 40
0.0000000000000019
 40
0.0029893451376491
 40
0.0029893451376491
 40
0.0029893451376491
 40
0.0039580785164455
 40
0.0039580785164455
 40
0.0039580785164455
 40
0.0048122007807254
 40
0.0048122007807254
 40
0.0048122007807254
 40
0.0048122007807254
 10
52.53941463743109
 20
9.957919481139272
 30
0.0
 10
51.5973521517946
 20
10.12243861505195
 30
0.0
 10
50.65493850817929
 20
10.28625462386664
 30
0.0
 10
49.71222388915726
 20
10.4494294200149
 30
0.0
 10
49.40672569575927
 20
10.50230820689856
 30
0.0
 10
49.10119575549799
 20
10.55511959609368
 30
0.0
 10
48.79563557344217
 20
10.60786549690227
 30
0.0
 10
48.52622629827546
 20
10.65437101607447
 30
0.0
 10
48.256793492201
 20
10.70082562808621
 30
0.0
 10
47.98733813001642
 20
10.74723058350066
 30
0.0
  0
SPLINE
  5
1342
330
1F
100
AcDbEntity
  8
SKVIEW1
  6
Continuous
370
    25
100
AcDbSpline
210
0.0
220
0.0
230
1.0
 70
     8
 71
     3
 72
    20
 73
    16
 74
     0
 42
0.000000001
 43
0.0000000001
 40
0.0
 40
0.0
 40
0.0
 40
0.0
 40
0.000011506782009
 40
0.000011506782009
 40
0.000011506782009
 40
0.0002270686613576
 40
0.0002270686613576
 40
0.0002270686613576
 40
0.0004410151540922
 40
0.0004410151540922
 40
0.0004410151540922
 40
0.0006549616846948
 40
0.0006549616846948
 40
0.0006549616846948
 40
0.000763864829857
 40
0.000763864829857
 40
0.000763864829857
 40
0.000763864829857
 10
51.94976976802023
 20
-12.28932128496347
 30
0.0
 10
51.94600297047236
 20
-12.2886743108769
 30
0.0
 10
51.94223617549153
 20
-12.28802733880098
 30
0.0
 10
51.93846938307919
 20
-12.28738036873622
 30
0.0
 10
51.86790431635436
 20
-12.27526037889043
 30
0.0
 10
51.79734014998423
 20
-12.26314109466603
 30
0.0
 10
51.72677689382823
 20
-12.25102251943618
 30
0.0
 10
51.65674242753908
 20
-12.23899475888993
 30
0.0
 10
51.5867088559348
 20
-12.22696769641897
 30
0.0
 10
51.51667618874661
 20
-12.21494133534487
 30
0.0
 10
51.44664350916825
 20
-12.20291497214308
 30
0.0
 10
51.3766117320587
 20
-12.19088931000394
 30
0.0
 10
51.30658086724171
 20
-12.17886435227288
 30
0.0
 10
51.27093372917214
 20
-12.17274340360775
 30
0.0
 10
51.23528682709729
 20
-12.16662263739053
 30
0.0
 10
51.19964016232191
 20
-12.16050205406484
 30
0.0
  0
SPLINE
  5
1343
330
1F
100
AcDbEntity
  8
SKVIEW1
  6
Continuous
370
    25
100
AcDbSpline
210
0.0
220
0.0
230
1.0
 70
     8
 71
     3
 72
    14
 73
    10
 74
     0
 42
0.000000001
 43
0.0000000001
 40
0.0
 40
0.0
 40
0.0
 40
0.0
 40
0.2499999999999998
 40
0.2499999999999998
 40
0.5
 40
0.5
 40
0.75
 40
0.75
 40
1.0
 40
1.0
 40
1.0
 40
1.0
 10
51.09149114484221
 20
-10.79506409578931
 30
0.0
 10
51.073005608101
 20
-10.9815101216998
 30
0.0
 10
51.06155825965672
 20
-11.15452883853722
 30
0.0
 10
51.05241542849563
 20
-11.47432541037179
 30
0.0
 10
51.05500246549304
 20
-11.61689347830675
 30
0.0
 10
51.07405585665329
 20
-11.85760889186933
 30
0.0
 10
51.09069242729059
 20
-11.95618357976457
 30
0.0
 10
51.13605452869897
 20
-12.09857291377724
 30
0.0
 10
51.16572578911998
 20
-12.14431405279652
 30
0.0
 10
51.19964016232191
 20
-12.16050205406484
 30
0.0
  0
SPLINE
  5
1344
330
1F
100
AcDbEntity
  8
SKVIEW1
  6
Continuous
370
    25
100
AcDbSpline
210
0.0
220
0.0
230
1.0
 70
     8
 71
     3
 72
    14
 73
    10
 74
     0
 42
0.000000001
 43
0.0000000001
 40
0.0
 40
0.0
 40
0.0
 40
0.0
 40
0.2499999999999999
 40
0.2499999999999999
 40
0.5
 40
0.5
 40
0.75
 40
0.75
 40
1.0
 40
1.0
 40
1.0
 40
1.0
 10
51.90871185955607
 20
-10.84129406448752
 30
0.0
 10
51.94335509675328
 20
-11.04061798658562
 30
0.0
 10
51.97139309387821
 20
-11.22852860936553
 30
0.0
 10
52.01317275037478
 20
-11.57964698566582
 30
0.0
 10
52.02591889475471
 20
-11.73505536626401
 30
0.0
 10
52.03391882339424
 20
-11.99798293998575
 30
0.0
 10
52.02894395401674
 20
-12.10141279678839
 30
0.0
 10
52.0015131391727
 20
-12.24479956121175
 30
0.0
 10
51.9793229605176
 20
-12.28351394910878
 30
0.0
 10
51.94976976801952
 20
-12.28932128496334
 30
0.0
  0
SPLINE
  5
1345
330
1F
100
AcDbEntity
  8
SKVIEW1
  6
Continuous
370
    25
100
AcDbSpline
210
0.0
220
0.0
230
1.0
 70
     8
 71
     3
 72
    20
 73
    16
 74
     0
 42
0.000000001
 43
0.0000000001
 40
0.0
 40
0.0
 40
0.0
 40
0.0
 40
0.000011506782009
 40
0.000011506782009
 40
0.000011506782009
 40
0.0002270686613576
 40
0.0002270686613576
 40
0.0002270686613576
 40
0.0004410151540922
 40
0.0004410151540922
 40
0.0004410151540922
 40
0.0006549616846948
 40
0.0006549616846948
 40
0.0006549616846948
 40
0.000763864829857
 40
0.000763864829857
 40
0.000763864829857
 40
0.000763864829857
 10
47.12905950683841
 20
12.24148777267482
 30
0.0
 10
47.13282630438627
 20
12.24084079858825
 30
0.0
 10
47.13659309936711
 20
12.24019382651233
 30
0.0
 10
47.14035989177945
 20
12.23954685644757
 30
0.0
 10
47.21092495850427
 20
12.22742686660177
 30
0.0
 10
47.28148912487441
 20
12.21530758237738
 30
0.0
 10
47.35205238103039
 20
12.20318900714753
 30
0.0
 10
47.42208684731956
 20
12.19116124660128
 30
0.0
 10
47.49212041892385
 20
12.17913418413032
 30
0.0
 10
47.56215308611205
 20
12.16710782305622
 30
0.0
 10
47.63218576569039
 20
12.15508145985442
 30
0.0
 10
47.70221754279993
 20
12.14305579771528
 30
0.0
 10
47.77224840761694
 20
12.13103083998422
 30
0.0
 10
47.80789554568649
 20
12.12490989131909
 30
0.0
 10
47.84354244776139
 20
12.11878912510188
 30
0.0
 10
47.87918911253671
 20
12.11266854177618
 30
0.0
  0
SPLINE
  5
1346
330
1F
100
AcDbEntity
  8
SKVIEW1
  6
Continuous
370
    25
100
AcDbSpline
210
0.0
220
0.0
230
1.0
 70
     8
 71
     3
 72
    14
 73
    10
 74
     0
 42
0.000000001
 43
0.0000000001
 40
0.0
 40
0.0
 40
0.0
 40
0.0
 40
0.2499999999999999
 40
0.2499999999999999
 40
0.5
 40
0.5
 40
0.75
 40
0.75
 40
1.0
 40
1.0
 40
1.0
 40
1.0
 10
47.98733813001642
 20
10.74723058350066
 30
0.0
 10
48.00582366675765
 20
10.93367660941115
 30
0.0
 10
48.0172710152019
 20
11.10669532624858
 30
0.0
 10
48.02641384636297
 20
11.42649189808315
 30
0.0
 10
48.02382680936561
 20
11.5690599660181
 30
0.0
 10
48.00477341820535
 20
11.80977537958068
 30
0.0
 10
47.98813684756797
 20
11.90835006747594
 30
0.0
 10
47.94277474615957
 20
12.0507394014886
 30
0.0
 10
47.91310348574339
 20
12.09648054050708
 30
0.0
 10
47.87918911253668
 20
12.11266854177619
 30
0.0
  0
SPLINE
  5
1347
330
1F
100
AcDbEntity
  8
SKVIEW1
  6
Continuous
370
    25
100
AcDbSpline
210
0.0
220
0.0
230
1.0
 70
     8
 71
     3
 72
    14
 73
    10
 74
     0
 42
0.000000001
 43
0.0000000001
 40
0.0
 40
0.0
 40
0.0
 40
0.0
 40
0.25
 40
0.25
 40
0.5
 40
0.5
 40
0.75
 40
0.75
 40
1.0
 40
1.0
 40
1.0
 40
1.0
 10
47.17011741530257
 20
10.79346055219886
 30
0.0
 10
47.13547417810536
 20
10.99278447429696
 30
0.0
 10
47.10743618098041
 20
11.18069509707687
 30
0.0
 10
47.06565652448385
 20
11.53181347337717
 30
0.0
 10
47.05291038010392
 20
11.68722185397536
 30
0.0
 10
47.04491045146439
 20
11.9501494276971
 30
0.0
 10
47.04988532084189
 20
12.05357928449973
 30
0.0
 10
47.07731613568593
 20
12.1969660489231
 30
0.0
 10
47.09950631434105
 20
12.23568043682014
 30
0.0
 10
47.12905950683913
 20
12.24148777267469
 30
0.0
  0
SPLINE
  5
1348
330
1F
100
AcDbEntity
  8
SKVIEW1
  6
Continuous
370
    25
100
AcDbSpline
210
0.0
220
0.0
230
1.0
 70
     8
 71
     3
 72
     8
 73
     4
 74
     0
 42
0.000000001
 43
0.0000000001
 40
0.0
 40
0.0
 40
0.0
 40
0.0
 40
0.0001720599494326
 40
0.0001720599494326
 40
0.0001720599494326
 40
0.0001720599494326
 10
46.70113099898844
 20
-10.80420053420309
 30
0.0
 10
46.64720640149282
 20
-10.78622247983474
 30
0.0
 10
46.59330080401256
 20
-10.76826510486603
 30
0.0
 10
46.53941463742931
 20
-10.75032766090785
 30
0.0
  0
SPLINE
  5
1349
330
1F
100
AcDbEntity
  8
SKVIEW1
  6
Continuous
370
    25
100
AcDbSpline
210
0.0
220
0.0
230
1.0
 70
     8
 71
     3
 72
    18
 73
    14
 74
     0
 42
0.000000001
 43
0.0000000001
 40
0.0
 40
0.0
 40
0.0
 40
0.0
 40
0.03125
 40
0.03125
 40
0.0624999999999999
 40
0.0624999999999999
 40
0.1250000000000001
 40
0.1250000000000001
 40
0.2500000000000003
 40
0.2500000000000003
 40
0.5000000000000002
 40
0.5000000000000002
 40
1.0
 40
1.0
 40
1.0
 40
1.0
 10
50.74647376671548
 20
-12.08779524975627
 30
0.0
 10
50.75317360682456
 20
-12.08647169027713
 30
0.0
 10
50.74857359405772
 20
-12.08150089650135
 30
0.0
 10
50.7133176434005
 20
-12.06419740173099
 30
0.0
 10
50.68345648442934
 20
-12.05213459961392
 30
0.0
 10
50.57957347154891
 20
-12.01297743001925
 30
0.0
 10
50.49448682020773
 20
-11.98365641597431
 30
0.0
 10
50.23866878158654
 20
-11.8973382520412
 30
0.0
 10
50.06184453371955
 20
-11.84025643735871
 30
0.0
 10
49.526821294852
 20
-11.66936050251956
 30
0.0
 10
49.17226088865054
 20
-11.55902064349295
 30
0.0
 10
48.11036353292538
 20
-11.23091855895649
 30
0.0
 10
47.40475285683735
 20
-11.01665986095085
 30
0.0
 10
46.70113099898844
 20
-10.8042005342031
 30
0.0
  0
SPLINE
  5
134A
330
1F
100
AcDbEntity
  8
SKVIEW1
  6
Continuous
370
    25
100
AcDbSpline
210
0.0
220
0.0
230
1.0
 70
    24
 71
     3
 72
    10
 73
     6
 74
     0
 42
0.000000001
 43
0.0000000001
 40
0.0
 40
0.0
 40
0.0
 40
0.0
 40
0.5
 40
0.5
 40
1.0
 40
1.0
 40
1.0
 40
1.0
 10
46.53941463742931
 20
-10.75032766090785
 30
0.0
 10
46.53941463742931
 20
-10.64285429779963
 30
0.0
 10
46.53941463742931
 20
-10.52677125061106
 30
0.0
 10
46.53941463742933
 20
-10.27788825282696
 30
0.0
 10
46.53941463742931
 20
-10.14407646136272
 30
0.0
 10
46.53941463742931
 20
-10.00575299342815
 30
0.0
  0
SPLINE
  5
134B
330
1F
100
AcDbEntity
  8
SKVIEW1
  6
Continuous
370
    25
100
AcDbSpline
210
0.0
220
0.0
230
1.0
 70
     8
 71
     3
 72
     8
 73
     4
 74
     0
 42
0.000000001
 43
0.0000000001
 40
0.0000000000000001
 40
0.0000000000000001
 40
0.0000000000000001
 40
0.0000000000000001
 40
0.0001720599494327
 40
0.0001720599494327
 40
0.0001720599494327
 40
0.0001720599494327
 10
52.37769827587013
 20
10.75636702191446
 30
0.0
 10
52.4316228733658
 20
10.7383889675461
 30
0.0
 10
52.48552847084607
 20
10.72043159257738
 30
0.0
 10
52.53941463742933
 20
10.70249414861921
 30
0.0
  0
SPLINE
  5
134C
330
1F
100
AcDbEntity
  8
SKVIEW1
  6
Continuous
370
    25
100
AcDbSpline
210
0.0
220
0.0
230
1.0
 70
     8
 71
     3
 72
    18
 73
    14
 74
     0
 42
0.000000001
 43
0.0000000001
 40
0.0
 40
0.0
 40
0.0
 40
0.0
 40
0.03125
 40
0.03125
 40
0.0625000000000001
 40
0.0625000000000001
 40
0.125
 40
0.125
 40
0.2499999999999999
 40
0.2499999999999999
 40
0.5
 40
0.5
 40
1.0
 40
1.0
 40
1.0
 40
1.0
 10
48.33235550814316
 20
12.03996173746762
 30
0.0
 10
48.3256556680341
 20
12.03863817798849
 30
0.0
 10
48.33025568080092
 20
12.0336673842127
 30
0.0
 10
48.36551163145813
 20
12.01636388944234
 30
0.0
 10
48.3953727904293
 20
12.00430108732527
 30
0.0
 10
48.49925580330971
 20
11.9651439177306
 30
0.0
 10
48.58434245465093
 20
11.93582290368565
 30
0.0
 10
48.84016049327208
 20
11.84950473975255
 30
0.0
 10
49.01698474113906
 20
11.79242292507006
 30
0.0
 10
49.55200798000659
 20
11.62152699023092
 30
0.0
 10
49.90656838620807
 20
11.51118713120431
 30
0.0
 10
50.96846574193317
 20
11.18308504666785
 30
0.0
 10
51.67407641802125
 20
10.96882634866222
 30
0.0
 10
52.37769827587013
 20
10.75636702191446
 30
0.0
  0
SPLINE
  5
134D
330
1F
100
AcDbEntity
  8
SKVIEW1
  6
Continuous
370
    25
100
AcDbSpline
210
0.0
220
0.0
230
1.0
 70
    24
 71
     3
 72
    10
 73
     6
 74
     0
 42
0.000000001
 43
0.0000000001
 40
0.0
 40
0.0
 40
0.0
 40
0.0
 40
0.5
 40
0.5
 40
1.0
 40
1.0
 40
1.0
 40
1.0
 10
52.53941463742933
 20
10.70249414861921
 30
0.0
 10
52.53941463742933
 20
10.59502078551099
 30
0.0
 10
52.53941463742933
 20
10.47893773832241
 30
0.0
 10
52.53941463742933
 20
10.23005474053831
 30
0.0
 10
52.53941463742933
 20
10.09624294907407
 30
0.0
 10
52.53941463742933
 20
9.957919481139498
 30
0.0
  0
SPLINE
  5
134E
330
1F
100
AcDbEntity
  8
SKVIEW1
  6
Continuous
370
    25
100
AcDbSpline
210
0.0
220
0.0
230
1.0
 70
     8
 71
     3
 72
     8
 73
     4
 74
     0
 42
0.000000001
 43
0.0000000001
 40
0.0
 40
0.0
 40
0.0
 40
0.0
 40
1.0
 40
1.0
 40
1.0
 40
1.0
 10
50.04251983437642
 20
-12.2066683213798
 30
0.0
 10
48.87551804266755
 20
-11.82712793494646
 30
0.0
 10
47.70798337274814
 20
-11.44767494310981
 30
0.0
 10
46.53941463741023
 20
-11.06828215154481
 30
0.0
  0
SPLINE
  5
134F
330
1F
100
AcDbEntity
  8
SKVIEW1
  6
Continuous
370
    25
100
AcDbSpline
210
0.0
220
0.0
230
1.0
 70
     8
 71
     3
 72
     8
 73
     4
 74
     0
 42
0.000000001
 43
0.0000000001
 40
0.0
 40
0.0
 40
0.0
 40
0.0
 40
1.0
 40
1.0
 40
1.0
 40
1.0
 10
46.53941463742945
 20
-10.81962695176695
 30
0.0
 10
46.59434291528834
 20
-10.81507179468184
 30
0.0
 10
46.64807399709784
 20
-10.80986701707653
 30
0.0
 10
46.7011309989884
 20
-10.80420053420309
 30
0.0
  0
SPLINE
  5
1350
330
1F
100
AcDbEntity
  8
SKVIEW1
  6
Continuous
370
    25
100
AcDbSpline
210
0.0
220
0.0
230
1.0
 70
     8
 71
     3
 72
    10
 73
     6
 74
     0
 42
0.000000001
 43
0.0000000001
 40
0.0
 40
0.0
 40
0.0
 40
0.0
 40
0.5
 40
0.5
 40
1.0
 40
1.0
 40
1.0
 40
1.0
 10
50.74647376671548
 20
-12.08779524975627
 30
0.0
 10
50.6293826380344
 20
-12.11092670823351
 30
0.0
 10
50.51192406682679
 20
-12.13235627126312
 30
0.0
 10
50.27710932564236
 20
-12.17195648105824
 30
0.0
 10
50.16128729535992
 20
-12.19040699237694
 30
0.0
 10
50.0425198343764
 20
-12.2066683213798
 30
0.0
  0
SPLINE
  5
1351
330
1F
100
AcDbEntity
  8
SKVIEW1
  6
Continuous
370
    25
100
AcDbSpline
210
0.0
220
0.0
230
1.0
 70
    24
 71
     3
 72
     8
 73
     4
 74
     0
 42
0.000000001
 43
0.0000000001
 40
0.0
 40
0.0
 40
0.0
 40
0.0
 40
1.0
 40
1.0
 40
1.0
 40
1.0
 10
46.53941463742931
 20
-10.8196269517669
 30
0.0
 10
46.53941463742931
 20
-10.90641271904535
 30
0.0
 10
46.53941463742931
 20
-10.98852096365749
 30
0.0
 10
46.53941463742931
 20
-11.06828215155082
 30
0.0
  0
SPLINE
  5
1352
330
1F
100
AcDbEntity
  8
SKVIEW1
  6
Continuous
370
    25
100
AcDbSpline
210
0.0
220
0.0
230
1.0
 70
     8
 71
     3
 72
     8
 73
     4
 74
     0
 42
0.000000001
 43
0.0000000001
 40
0.0
 40
0.0
 40
0.0
 40
0.0
 40
1.0
 40
1.0
 40
1.0
 40
1.0
 10
49.03630944048223
 20
12.15883480909114
 30
0.0
 10
50.20331123219111
 20
11.77929442265781
 30
0.0
 10
51.37084590211047
 20
11.39984143082116
 30
0.0
 10
52.5394146374484
 20
11.02044863925616
 30
0.0
  0
SPLINE
  5
1353
330
1F
100
AcDbEntity
  8
SKVIEW1
  6
Continuous
370
    25
100
AcDbSpline
210
0.0
220
0.0
230
1.0
 70
     8
 71
     3
 72
     8
 73
     4
 74
     0
 42
0.000000001
 43
0.0000000001
 40
0.0
 40
0.0
 40
0.0
 40
0.0
 40
1.0
 40
1.0
 40
1.0
 40
1.0
 10
52.53941463742928
 20
10.77179343947828
 30
0.0
 10
52.48448635957039
 20
10.76723828239316
 30
0.0
 10
52.43075527776079
 20
10.76203350478789
 30
0.0
 10
52.37769827587017
 20
10.75636702191445
 30
0.0
  0
SPLINE
  5
1354
330
1F
100
AcDbEntity
  8
SKVIEW1
  6
Continuous
370
    25
100
AcDbSpline
210
0.0
220
0.0
230
1.0
 70
     8
 71
     3
 72
    10
 73
     6
 74
     0
 42
0.000000001
 43
0.0000000001
 40
0.0
 40
0.0
 40
0.0
 40
0.0
 40
0.5
 40
0.5
 40
1.0
 40
1.0
 40
1.0
 40
1.0
 10
48.33235550814316
 20
12.03996173746762
 30
0.0
 10
48.44944663682425
 20
12.06309319594485
 30
0.0
 10
48.56690520803185
 20
12.08452275897446
 30
0.0
 10
48.80171994921629
 20
12.12412296876959
 30
0.0
 10
48.91754197949872
 20
12.14257348008828
 30
0.0
 10
49.03630944048224
 20
12.15883480909115
 30
0.0
  0
SPLINE
  5
1355
330
1F
100
AcDbEntity
  8
SKVIEW1
  6
Continuous
370
    25
100
AcDbSpline
210
0.0
220
0.0
230
1.0
 70
    24
 71
     3
 72
     8
 73
     4
 74
     0
 42
0.000000001
 43
0.0000000001
 40
0.0
 40
0.0
 40
0.0
 40
0.0
 40
1.0
 40
1.0
 40
1.0
 40
1.0
 10
52.53941463742933
 20
10.77179343947827
 30
0.0
 10
52.53941463742933
 20
10.85857920675671
 30
0.0
 10
52.53941463742933
 20
10.94068745136883
 30
0.0
 10
52.53941463742933
 20
11.02044863926216
 30
0.0
  0
SPLINE
  5
1356
330
1F
100
AcDbEntity
  8
SKVIEW1
  6
Continuous
370
    25
100
AcDbSpline
210
0.0
220
0.0
230
1.0
 70
     8
 71
     3
 72
     8
 73
     4
 74
     0
 42
0.000000001
 43
0.0000000001
 40
0.0001483307357247
 40
0.0001483307357247
 40
0.0001483307357247
 40
0.0001483307357247
 40
0.0003175691456238
 40
0.0003175691456238
 40
0.0003175691456238
 40
0.0003175691456238
 10
50.04251983437642
 20
-12.2066683213798
 30
0.0
 10
50.04695482818252
 20
-12.20997653656371
 30
0.0
 10
50.0513864638059
 20
-12.21327657146095
 30
0.0
 10
50.05581477600853
 20
-12.21656842610704
 30
0.0
  0
SPLINE
  5
1357
330
1F
100
AcDbEntity
  8
SKVIEW1
  6
Continuous
370
    25
100
AcDbSpline
210
0.0
220
0.0
230
1.0
 70
     8
 71
     3
 72
     8
 73
     4
 74
     0
 42
0.000000001
 43
0.0000000001
 40
0.0
 40
0.0
 40
0.0
 40
0.0
 40
0.7926569548851229
 40
0.7926569548851229
 40
0.7926569548851229
 40
0.7926569548851229
 10
51.18322375001042
 20
-12.41536104651643
 30
0.0
 10
51.43988872404286
 20
-12.38131269724643
 30
0.0
 10
51.69565048515962
 20
-12.33925687222
 30
0.0
 10
51.94976976802023
 20
-12.28932128496347
 30
0.0
  0
SPLINE
  5
1358
330
1F
100
AcDbEntity
  8
SKVIEW1
  6
Continuous
370
    25
100
AcDbSpline
210
0.0
220
0.0
230
1.0
 70
     8
 71
     3
 72
     8
 73
     4
 74
     0
 42
0.000000001
 43
0.0000000001
 40
0.0001483307357247
 40
0.0001483307357247
 40
0.0001483307357247
 40
0.0001483307357247
 40
0.0003175691456238
 40
0.0003175691456238
 40
0.0003175691456238
 40
0.0003175691456238
 10
49.03630944048223
 20
12.15883480909115
 30
0.0
 10
49.03187444667612
 20
12.16214302427505
 30
0.0
 10
49.02744281105274
 20
12.16544305917229
 30
0.0
 10
49.02301449885012
 20
12.16873491381839
 30
0.0
  0
SPLINE
  5
1359
330
1F
100
AcDbEntity
  8
SKVIEW1
  6
Continuous
370
    25
100
AcDbSpline
210
0.0
220
0.0
230
1.0
 70
     8
 71
     3
 72
     8
 73
     4
 74
     0
 42
0.000000001
 43
0.0000000001
 40
0.0
 40
0.0
 40
0.0
 40
0.0
 40
0.7926569548851229
 40
0.7926569548851229
 40
0.7926569548851229
 40
0.7926569548851229
 10
47.89560552484822
 20
12.36752753422777
 30
0.0
 10
47.63894055081578
 20
12.33347918495777
 30
0.0
 10
47.38317878969903
 20
12.29142335993135
 30
0.0
 10
47.12905950683841
 20
12.24148777267482
 30
0.0
  0
SPLINE
  5
135A
330
1F
100
AcDbEntity
  8
SKVIEW1
  6
Continuous
370
    25
100
AcDbSpline
210
0.0
220
0.0
230
1.0
 70
    24
 71
     3
 72
     8
 73
     4
 74
     0
 42
0.000000001
 43
0.0000000001
 40
0.001461623399611
 40
0.001461623399611
 40
0.001461623399611
 40
0.001461623399611
 40
0.0023704301782182
 40
0.0023704301782182
 40
0.0023704301782182
 40
0.0023704301782182
 10
46.53941463742931
 20
-10.75032766090785
 30
0.0
 10
46.53941463742931
 20
-10.77363661551246
 30
0.0
 10
46.53941463742931
 20
-10.79673642217676
 30
0.0
 10
46.53941463742931
 20
-10.8196269517669
 30
0.0
  0
SPLINE
  5
135B
330
1F
100
AcDbEntity
  8
SKVIEW1
  6
Continuous
370
    25
100
AcDbSpline
210
0.0
220
0.0
230
1.0
 70
    24
 71
     3
 72
     8
 73
     4
 74
     0
 42
0.000000001
 43
0.0000000001
 40
0.001461623399611
 40
0.001461623399611
 40
0.001461623399611
 40
0.001461623399611
 40
0.0023704301782184
 40
0.0023704301782184
 40
0.0023704301782184
 40
0.0023704301782184
 10
52.53941463742933
 20
10.70249414861921
 30
0.0
 10
52.53941463742933
 20
10.72580310322382
 30
0.0
 10
52.53941463742933
 20
10.74890290988812
 30
0.0
 10
52.53941463742933
 20
10.77179343947827
 30
0.0
  0
SPLINE
  5
135C
330
1F
100
AcDbEntity
  8
SKVIEW1
  6
Continuous
370
    25
100
AcDbSpline
210
0.0
220
0.0
230
1.0
 70
     8
 71
     3
 72
     8
 73
     4
 74
     0
 42
0.000000001
 43
0.0000000001
 40
0.0
 40
0.0
 40
0.0
 40
0.0
 40
1.0
 40
1.0
 40
1.0
 40
1.0
 10
50.05581477600852
 20
-12.21656842610704
 30
0.0
 10
49.5986535382314
 20
-12.17174088090584
 30
0.0
 10
49.13679636595652
 20
-12.10292720968731
 30
0.0
 10
48.66995242434192
 20
-12.00713233411643
 30
0.0
  0
SPLINE
  5
135D
330
1F
100
AcDbEntity
  8
SKVIEW1
  6
Continuous
370
    25
100
AcDbSpline
210
0.0
220
0.0
230
1.0
 70
    24
 71
     3
 72
     8
 73
     4
 74
     0
 42
0.000000001
 43
0.0000000001
 40
0.0
 40
0.0
 40
0.0
 40
0.0
 40
1.0
 40
1.0
 40
1.0
 40
1.0
 10
46.53941463742931
 20
-11.06828215155092
 30
0.0
 10
46.53941463742931
 20
-11.16854254519292
 30
0.0
 10
46.53941463742931
 20
-11.24811259283811
 30
0.0
 10
46.53941463742931
 20
-11.30450758064642
 30
0.0
  0
SPLINE
  5
135E
330
1F
100
AcDbEntity
  8
SKVIEW1
  6
Continuous
370
    25
100
AcDbSpline
210
0.0
220
0.0
230
1.0
 70
     8
 71
     3
 72
     8
 73
     4
 74
     0
 42
0.000000001
 43
0.0000000001
 40
0.0
 40
0.0
 40
0.0
 40
0.0
 40
1.0
 40
1.0
 40
1.0
 40
1.0
 10
49.02301449885015
 20
12.16873491381839
 30
0.0
 10
49.48017573662725
 20
12.12390736861718
 30
0.0
 10
49.94203290890212
 20
12.05509369739865
 30
0.0
 10
50.40887685051671
 20
11.95929882182777
 30
0.0
  0
SPLINE
  5
135F
330
1F
100
AcDbEntity
  8
SKVIEW1
  6
Continuous
370
    25
100
AcDbSpline
210
0.0
220
0.0
230
1.0
 70
    24
 71
     3
 72
     8
 73
     4
 74
     0
 42
0.000000001
 43
0.0000000001
 40
0.0
 40
0.0
 40
0.0
 40
0.0
 40
1.0
 40
1.0
 40
1.0
 40
1.0
 10
52.53941463742933
 20
11.02044863926227
 30
0.0
 10
52.53941463742933
 20
11.12070903290428
 30
0.0
 10
52.53941463742933
 20
11.20027908054945
 30
0.0
 10
52.53941463742933
 20
11.25667406835777
 30
0.0
  0
SPLINE
  5
1360
330
1F
100
AcDbEntity
  8
SKVIEW1
  6
Continuous
370
    25
100
AcDbSpline
210
0.0
220
0.0
230
1.0
 70
     8
 71
     3
 72
     8
 73
     4
 74
     0
 42
0.000000001
 43
0.0000000001
 40
0.0005875523078862
 40
0.0005875523078862
 40
0.0005875523078862
 40
0.0005875523078862
 40
0.0011112296630122
 40
0.0011112296630122
 40
0.0011112296630122
 40
0.0011112296630122
 10
48.66995242434192
 20
-12.00713233411643
 30
0.0
 10
48.56004049938291
 20
-11.98715777369847
 30
0.0
 10
48.44987570208907
 20
-11.96708849042369
 30
0.0
 10
48.3394600294982
 20
-11.94692497940976
 30
0.0
  0
SPLINE
  5
1361
330
1F
100
AcDbEntity
  8
SKVIEW1
  6
Continuous
370
    25
100
AcDbSpline
210
0.0
220
0.0
230
1.0
 70
     8
 71
     3
 72
     9
 73
     5
 74
     0
 42
0.000000001
 43
0.0000000001
 40
0.0
 40
0.0
 40
0.0
 40
0.0
 40
0.3747823935141621
 40
1.0
 40
1.0
 40
1.0
 40
1.0
 10
50.1422298550684
 20
-12.27171227293703
 30
0.0
 10
50.27316175648357
 20
-12.2939741980841
 30
0.0
 10
50.6225162183821
 20
-12.35337380044629
 30
0.0
 10
50.96752080693115
 20
-12.39151469051711
 30
0.0
 10
51.18322375001042
 20
-12.41536104651643
 30
0.0
  0
SPLINE
  5
1362
330
1F
100
AcDbEntity
  8
SKVIEW1
  6
Continuous
370
    25
100
AcDbSpline
210
0.0
220
0.0
230
1.0
 70
     8
 71
     3
 72
     8
 73
     4
 74
     0
 42
0.000000001
 43
0.0000000001
 40
0.0005875523078862
 40
0.0005875523078862
 40
0.0005875523078862
 40
0.0005875523078862
 40
0.0011112296630122
 40
0.0011112296630122
 40
0.0011112296630122
 40
0.0011112296630122
 10
50.40887685051671
 20
11.95929882182778
 30
0.0
 10
50.51878877547574
 20
11.93932426140982
 30
0.0
 10
50.62895357276957
 20
11.91925497813504
 30
0.0
 10
50.73936924536045
 20
11.8990914671211
 30
0.0
  0
SPLINE
  5
1363
330
1F
100
AcDbEntity
  8
SKVIEW1
  6
Continuous
370
    25
100
AcDbSpline
210
0.0
220
0.0
230
1.0
 70
     8
 71
     3
 72
     9
 73
     5
 74
     0
 42
0.000000001
 43
0.0000000001
 40
0.0
 40
0.0
 40
0.0
 40
0.0
 40
0.3747823935139001
 40
1.0
 40
1.0
 40
1.0
 40
1.0
 10
48.9365994197898
 20
12.22387876064844
 30
0.0
 10
48.80566751837474
 20
12.2461406857955
 30
0.0
 10
48.45631305647639
 20
12.30554028815766
 30
0.0
 10
48.1113084679275
 20
12.34368117822846
 30
0.0
 10
47.89560552484822
 20
12.36752753422777
 30
0.0
  0
SPLINE
  5
1364
330
1F
100
AcDbEntity
  8
SKVIEW1
  6
Continuous
370
    25
100
AcDbSpline
210
0.0
220
0.0
230
1.0
 70
     8
 71
     3
 72
     8
 73
     4
 74
     0
 42
0.000000001
 43
0.0000000001
 40
0.0
 40
0.0
 40
0.0
 40
0.0
 40
1.0
 40
1.0
 40
1.0
 40
1.0
 10
46.58803813852031
 20
-11.43176582213625
 30
0.0
 10
46.57182798398837
 20
-11.42594428045557
 30
0.0
 10
46.55562014938062
 20
-11.42012310514464
 30
0.0
 10
46.53941463742933
 20
-11.41430229663497
 30
0.0
  0
SPLINE
  5
1365
330
1F
100
AcDbEntity
  8
SKVIEW1
  6
Continuous
370
    25
100
AcDbSpline
210
0.0
220
0.0
230
1.0
 70
     8
 71
     3
 72
     8
 73
     4
 74
     0
 42
0.000000001
 43
0.0000000001
 40
0.0
 40
0.0
 40
0.0
 40
0.0
 40
1.0
 40
1.0
 40
1.0
 40
1.0
 10
52.49079113633833
 20
11.38393230984759
 30
0.0
 10
52.50700129087029
 20
11.37811076816692
 30
0.0
 10
52.52320912547806
 20
11.37228959285597
 30
0.0
 10
52.53941463742933
 20
11.36646878434631
 30
0.0
  0
LINE
  5
1366
330
1F
100
AcDbEntity
  8
SKVIEW1
  6
Continuous
370
    25
100
AcDbLine
 10
49.02820974952932
 20
-12.07555113564436
 30
0.0
 11
50.14228971222933
 21
-12.27199349174436
 31
0.0
  0
LINE
  5
1367
330
1F
100
AcDbEntity
  8
SKVIEW1
  6
Continuous
370
    25
100
AcDbLine
 10
50.05061952532933
 20
12.02771762335564
 30
0.0
 11
48.93653956262935
 21
12.22415997945564
 31
0.0
  0
LINE
  5
1368
330
1F
100
AcDbEntity
  8
SKVIEW1
  6
Continuous
370
    25
100
AcDbLine
 10
46.53941463742933
 20
-1.669641163144358
 30
0.0
 11
50.13447024512935
 21
-1.669641163144358
 31
0.0
  0
LINE
  5
1369
330
1F
100
AcDbEntity
  8
SKVIEW1
  6
Continuous
370
    25
100
AcDbLine
 10
49.36260395562932
 20
-0.2868697975443588
 30
0.0
 11
49.30671156122933
 21
-0.0239167561443594
 31
0.0
  0
LINE
  5
136A
330
1F
100
AcDbEntity
  8
SKVIEW1
  6
Continuous
370
    25
100
AcDbLine
 10
49.78466072372932
 20
-0.0239167561443594
 30
0.0
 11
49.29416855112933
 21
-0.0239167561443594
 31
0.0
  0
LINE
  5
136B
330
1F
100
AcDbEntity
  8
SKVIEW1
  6
Continuous
370
    25
100
AcDbLine
 10
49.33447024512934
 20
-1.669641163144358
 30
0.0
 11
49.06693743792931
 21
-0.4109982629443591
 31
0.0
  0
LINE
  5
136C
330
1F
100
AcDbEntity
  8
SKVIEW1
  6
Continuous
370
    25
100
AcDbLine
 10
49.06693743792931
 20
-0.4109982629443591
 30
0.0
 11
49.36260395562932
 21
-0.2868697975443588
 31
0.0
  0
LINE
  5
136D
330
1F
100
AcDbEntity
  8
SKVIEW1
  6
Continuous
370
    25
100
AcDbLine
 10
50.13447024512935
 20
-1.669641163144358
 30
0.0
 11
49.78466072372932
 21
-0.0239167561443594
 31
0.0
  0
LINE
  5
136E
330
1F
100
AcDbEntity
  8
SKVIEW1
  6
Continuous
370
    25
100
AcDbLine
 10
50.01189183692932
 20
0.3631647506556401
 30
0.0
 11
49.71622531922935
 21
0.23903628525564
 31
0.0
  0
LINE
  5
136F
330
1F
100
AcDbEntity
  8
SKVIEW1
  6
Continuous
370
    25
100
AcDbLine
 10
48.94435902972933
 20
1.621807650855639
 30
0.0
 11
49.29416855112933
 21
-0.0239167561443594
 31
0.0
  0
LINE
  5
1370
330
1F
100
AcDbEntity
  8
SKVIEW1
  6
Continuous
370
    25
100
AcDbLine
 10
52.53941463742933
 20
1.621807650855639
 30
0.0
 11
48.94435902972933
 21
1.621807650855639
 31
0.0
  0
LINE
  5
1371
330
1F
100
AcDbEntity
  8
SKVIEW1
  6
Continuous
370
    25
100
AcDbLine
 10
49.74435902972931
 20
1.621807650855639
 30
0.0
 11
50.01189183692932
 21
0.3631647506556401
 31
0.0
  0
LINE
  5
1372
330
1F
100
AcDbEntity
  8
SKVIEW1
  6
Continuous
370
    25
100
AcDbLine
 10
49.71622531922935
 20
0.23903628525564
 30
0.0
 11
49.77211771362934
 21
-0.0239167561443594
 31
0.0
  0
LINE
  5
1373
330
1F
100
AcDbEntity
  8
SKVIEW1
  6
Continuous
370
    25
100
AcDbLine
 10
50.10980418742933
 20
0.3896102496556413
 30
0.0
 11
50.01189183692932
 21
0.3631647506556401
 31
0.0
  0
LINE
  5
1374
330
1F
100
AcDbEntity
  8
SKVIEW1
  6
Continuous
370
    25
100
AcDbLine
 10
50.10980418742933
 20
-1.553596485344359
 30
0.0
 11
50.10980418742933
 21
0.3896102496556413
 31
0.0
  0
LINE
  5
1375
330
1F
100
AcDbEntity
  8
SKVIEW1
  6
Continuous
370
    25
100
AcDbLine
 10
48.96902508742932
 20
-0.4374437619443601
 30
0.0
 11
49.06693743792931
 21
-0.4109982629443591
 31
0.0
  0
LINE
  5
1376
330
1F
100
AcDbEntity
  8
SKVIEW1
  6
Continuous
370
    25
100
AcDbLine
 10
48.96902508742932
 20
1.505762973055639
 30
0.0
 11
48.96902508742932
 21
-0.4374437619443601
 31
0.0
  0
LINE
  5
1377
330
1F
100
AcDbEntity
  8
SKVIEW1
  6
Continuous
370
    25
100
AcDbLine
 10
52.53941463742933
 20
0.5632313069556414
 30
0.0
 11
50.10980418742933
 21
0.3896102496556413
 31
0.0
  0
LINE
  5
1378
330
1F
100
AcDbEntity
  8
SKVIEW1
  6
Continuous
370
    25
100
AcDbLine
 10
52.53941463742933
 20
-11.25094288264436
 30
0.0
 11
52.53941463742933
 21
1.621807650855639
 31
0.0
  0
LINE
  5
1379
330
1F
100
AcDbEntity
  8
SKVIEW1
  6
Continuous
370
    25
100
AcDbLine
 10
46.53941463742933
 20
-0.6110648192443602
 30
0.0
 11
48.96902508742932
 21
-0.4374437619443601
 31
0.0
  0
LINE
  5
137A
330
1F
100
AcDbEntity
  8
SKVIEW1
  6
Continuous
370
    25
100
AcDbLine
 10
46.53941463742933
 20
11.20310937035564
 30
0.0
 11
46.53941463742933
 21
-1.669641163144358
 31
0.0
  0
LINE
  5
137B
330
1F
100
AcDbEntity
  8
SKVIEW1
  6
Continuous
370
    25
100
AcDbLine
 10
52.53941463742933
 20
-11.25094288264436
 30
0.0
 11
52.03941463742933
 21
-11.77321045844436
 31
0.0
  0
LINE
  5
137C
330
1F
100
AcDbEntity
  8
SKVIEW1
  6
Continuous
370
    25
100
AcDbLine
 10
52.02459580822933
 20
-11.77831299054435
 30
0.0
 11
52.03941463742933
 21
-11.77321045844436
 31
0.0
  0
LINE
  5
137D
102
{ACAD_REACTORS
330
14B9
102
}
330
1F
100
AcDbEntity
  8
SKVIEW1
  6
Continuous
370
    25
100
AcDbLine
 10
46.53941463742933
 20
11.20310937035564
 30
0.0
 11
47.03941463742933
 21
11.72537694615564
 31
0.0
  0
LINE
  5
137E
330
1F
100
AcDbEntity
  8
SKVIEW1
  6
Continuous
370
    25
100
AcDbLine
 10
47.05423346662932
 20
11.73047947825564
 30
0.0
 11
47.03941463742933
 21
11.72537694615564
 31
0.0
  0
LINE
  5
137F
330
1F
100
AcDbEntity
  8
SKVIEW1
  6
Continuous
370
    25
100
AcDbLine
 10
51.19964016232933
 20
-12.16050205404435
 30
0.0
 11
50.74647376672935
 21
-12.08779524974436
 31
0.0
  0
LINE
  5
1380
330
1F
100
AcDbEntity
  8
SKVIEW1
  6
Continuous
370
    25
100
AcDbLine
 10
47.87918911252933
 20
12.11266854175564
 30
0.0
 11
48.33235550812933
 21
12.03996173745564
 31
0.0
  0
LINE
  5
1381
330
1F
100
AcDbEntity
  8
SKVIEW1
  6
Continuous
370
    25
100
AcDbLine
 10
50.05581477602935
 20
-12.21656842614436
 30
0.0
 11
51.18322375002931
 21
-12.41536104654436
 31
0.0
  0
LINE
  5
1382
330
1F
100
AcDbEntity
  8
SKVIEW1
  6
Continuous
370
    25
100
AcDbLine
 10
49.02301449882933
 20
12.16873491385564
 30
0.0
 11
47.89560552482932
 21
12.36752753425564
 31
0.0
  0
LINE
  5
1383
330
1F
100
AcDbEntity
  8
SKVIEW1
  6
Continuous
370
    25
100
AcDbLine
 10
46.53941463742933
 20
-11.30450758064436
 30
0.0
 11
48.66995242432935
 21
-12.00713233414436
 31
0.0
  0
LINE
  5
1384
330
1F
100
AcDbEntity
  8
SKVIEW1
  6
Continuous
370
    25
100
AcDbLine
 10
52.53941463742933
 20
11.25667406835564
 30
0.0
 11
50.40887685052933
 21
11.95929882185564
 31
0.0
  0
LINE
  5
1385
330
1F
100
AcDbEntity
  8
SKVIEW1
  6
Continuous
370
    25
100
AcDbLine
 10
48.33946002952932
 20
-11.94692497944435
 30
0.0
 11
47.81901739952932
 21
-11.85515690184436
 31
0.0
  0
LINE
  5
1386
330
1F
100
AcDbEntity
  8
SKVIEW1
  6
Continuous
370
    25
100
AcDbLine
 10
47.81901739952932
 20
-11.85515690184436
 30
0.0
 11
47.80967147792931
 21
-11.85240791424436
 31
0.0
  0
LINE
  5
1387
330
1F
100
AcDbEntity
  8
SKVIEW1
  6
Continuous
370
    25
100
AcDbLine
 10
47.80967147792931
 20
-11.85240791424436
 30
0.0
 11
46.53941463742933
 21
-11.41502340804436
 31
0.0
  0
LINE
  5
1388
330
1F
100
AcDbEntity
  8
SKVIEW1
  6
Continuous
370
    25
100
AcDbLine
 10
46.53941463742933
 20
-11.30450758064436
 30
0.0
 11
46.53941463742933
 21
-11.41430229664436
 31
0.0
  0
LINE
  5
1389
330
1F
100
AcDbEntity
  8
SKVIEW1
  6
Continuous
370
    25
100
AcDbLine
 10
50.73936924532933
 20
11.89909146715564
 30
0.0
 11
51.25981187532933
 21
11.80732338955564
 31
0.0
  0
LINE
  5
138A
330
1F
100
AcDbEntity
  8
SKVIEW1
  6
Continuous
370
    25
100
AcDbLine
 10
51.25981187532933
 20
11.80732338955564
 30
0.0
 11
51.26915779692932
 21
11.80457440195564
 31
0.0
  0
LINE
  5
138B
330
1F
100
AcDbEntity
  8
SKVIEW1
  6
Continuous
370
    25
100
AcDbLine
 10
51.26915779692932
 20
11.80457440195564
 30
0.0
 11
52.53941463742933
 21
11.36718989575564
 31
0.0
  0
LINE
  5
138C
102
{ACAD_REACTORS
330
14B9
102
}
330
1F
100
AcDbEntity
  8
SKVIEW1
  6
Continuous
370
    25
100
AcDbLine
 10
52.53941463742933
 20
11.25667406835564
 30
0.0
 11
52.53941463742933
 21
11.36646878435564
 31
0.0
  0
SPLINE
  5
13D5
330
1F
100
AcDbEntity
  8
1
  6
Continuous
370
    25
100
AcDbSpline
210
0.0
220
0.0
230
1.0
 70
     8
 71
     3
 72
     8
 73
     4
 74
     0
 42
0.000000001
 43
0.0000000001
 40
0.0
 40
0.0
 40
0.0
 40
0.0
 40
0.0001720599494326
 40
0.0001720599494326
 40
0.0001720599494326
 40
0.0001720599494326
 10
15.49242976030044
 20
-10.78028377805879
 30
0.0
 10
15.48479233553587
 20
-10.76230572369044
 30
0.0
 10
15.47697006350039
 20
-10.74434834872173
 30
0.0
 10
15.46897431049117
 20
-10.72641090476356
 30
0.0
  0
SPLINE
  5
13D6
330
1F
100
AcDbEntity
  8
1
  6
Continuous
370
    25
100
AcDbSpline
210
0.0
220
0.0
230
1.0
 70
     8
 71
     3
 72
    10
 73
     6
 74
     0
 42
0.000000001
 43
0.0000000001
 40
0.0
 40
0.0
 40
0.0
 40
0.0
 40
0.5
 40
0.5
 40
1.0
 40
1.0
 40
1.0
 40
1.0
 10
15.46897431049117
 20
-10.72641090476356
 30
0.0
 10
15.56438646088796
 20
-10.61893754165535
 30
0.0
 10
15.6459878217598
 20
-10.50285449446677
 30
0.0
 10
15.78237496789038
 20
-10.25397149668267
 30
0.0
 10
15.83724906025672
 20
-10.12015970521843
 30
0.0
 10
15.87627617369361
 20
-9.981836237283863
 30
0.0
  0
SPLINE
  5
13D7
330
1F
100
AcDbEntity
  8
1
  6
Continuous
370
    25
100
AcDbSpline
210
0.0
220
0.0
230
1.0
 70
     8
 71
     3
 72
    14
 73
    10
 74
     0
 42
0.000000001
 43
0.0000000001
 40
0.0000000000000019
 40
0.0000000000000019
 40
0.0000000000000019
 40
0.0000000000000019
 40
0.0029893451376491
 40
0.0029893451376491
 40
0.0029893451376491
 40
0.0039580785164455
 40
0.0039580785164455
 40
0.0039580785164455
 40
0.0048122007807254
 40
0.0048122007807254
 40
0.0048122007807254
 40
0.0048122007807254
 10
15.87627617369306
 20
-9.981836237283644
 30
0.0
 10
16.15620670110289
 20
-10.14635537119631
 30
0.0
 10
16.43537032489781
 20
-10.310171380011
 30
0.0
 10
16.71388873618701
 20
-10.47334617615927
 30
0.0
 10
16.8041460311945
 20
-10.52622496304293
 30
0.0
 10
16.89433540883078
 20
-10.57903635223804
 30
0.0
 10
16.98446052555022
 20
-10.63178225304663
 30
0.0
 10
17.06392291559837
 20
-10.67828777221882
 30
0.0
 10
17.14333535292165
 20
-10.72474238423057
 30
0.0
 10
17.22270020782888
 20
-10.771147339645
 30
0.0
  0
SPLINE
  5
13D8
330
1F
100
AcDbEntity
  8
1
  6
Continuous
370
    25
100
AcDbSpline
210
0.0
220
0.0
230
1.0
 70
     8
 71
     3
 72
    14
 73
    10
 74
     0
 42
0.000000001
 43
0.0000000001
 40
0.0
 40
0.0
 40
0.0
 40
0.0
 40
0.2499999999999998
 40
0.2499999999999998
 40
0.5
 40
0.5
 40
0.75
 40
0.75
 40
1.0
 40
1.0
 40
1.0
 40
1.0
 10
17.22270020782888
 20
-10.77114733964502
 30
0.0
 10
17.15717605981106
 20
-10.95759336555552
 30
0.0
 10
17.06644832447469
 20
-11.13061208239293
 30
0.0
 10
16.83573803588332
 20
-11.45040865422751
 30
0.0
 10
16.69794193645927
 20
-11.59297672216245
 30
0.0
 10
16.38825256212603
 20
-11.83369213572504
 30
0.0
 10
16.21509387501405
 20
-11.93226682362028
 30
0.0
 10
15.85306869671225
 20
-12.07465615763294
 30
0.0
 10
15.65756176506232
 20
-12.12039729665222
 30
0.0
 10
15.46554380829974
 20
-12.13658529792055
 30
0.0
  0
SPLINE
  5
13D9
330
1F
100
AcDbEntity
  8
1
  6
Continuous
370
    25
100
AcDbSpline
210
0.0
220
0.0
230
1.0
 70
     8
 71
     3
 72
    18
 73
    14
 74
     0
 42
0.000000001
 43
0.0000000001
 40
0.0
 40
0.0
 40
0.0
 40
0.0
 40
0.03125
 40
0.03125
 40
0.0624999999999999
 40
0.0624999999999999
 40
0.1250000000000001
 40
0.1250000000000001
 40
0.2500000000000003
 40
0.2500000000000003
 40
0.5000000000000002
 40
0.5000000000000002
 40
1.0
 40
1.0
 40
1.0
 40
1.0
 10
15.32985643773244
 20
-12.06387849361197
 30
0.0
 10
15.37716827957828
 20
-12.06255493413285
 30
0.0
 10
15.425681581467
 20
-12.05758414035706
 30
0.0
 10
15.51113256254327
 20
-12.0402806455867
 30
0.0
 10
15.5478043905355
 20
-12.02821784346963
 30
0.0
 10
15.6367944990651
 20
-11.98906067387496
 30
0.0
 10
15.67188239535784
 20
-11.95973965983001
 30
0.0
 10
15.75228479836932
 20
-11.8734214958969
 30
0.0
 10
15.77253694611163
 20
-11.81633968121442
 30
0.0
 10
15.80914815974695
 20
-11.64544374637526
 30
0.0
 10
15.79377761039816
 20
-11.53510388734866
 30
0.0
 10
15.71561698572421
 20
-11.20700180281219
 30
0.0
 10
15.61251650728344
 20
-10.99274310480656
 30
0.0
 10
15.49242976030041
 20
-10.7802837780588
 30
0.0
  0
SPLINE
  5
13DA
330
1F
100
AcDbEntity
  8
1
  6
Continuous
370
    25
100
AcDbSpline
210
0.0
220
0.0
230
1.0
 70
     8
 71
     3
 72
     8
 73
     4
 74
     0
 42
0.000000001
 43
0.0000000001
 40
0.0
 40
0.0
 40
0.0
 40
0.0
 40
1.0
 40
1.0
 40
1.0
 40
1.0
 10
10.36842467866383
 20
-12.18275156523551
 30
0.0
 10
10.53967332392139
 20
-11.80321117880216
 30
0.0
 10
10.70752432200086
 20
-11.42375818696551
 30
0.0
 10
10.8680824533
 20
-11.04436539540052
 30
0.0
  0
SPLINE
  5
13DB
330
1F
100
AcDbEntity
  8
1
  6
Continuous
370
    25
100
AcDbSpline
210
0.0
220
0.0
230
1.0
 70
     8
 71
     3
 72
     8
 73
     4
 74
     0
 42
0.000000001
 43
0.0000000001
 40
0.0
 40
0.0
 40
0.0
 40
0.0
 40
1.0
 40
1.0
 40
1.0
 40
1.0
 10
14.56281335020088
 20
-10.7957101956226
 30
0.0
 10
13.33149980459849
 20
-10.88249596290105
 30
0.0
 10
12.09986763192107
 20
-10.96460420751319
 30
0.0
 10
10.86808245330037
 20
-11.04436539540652
 30
0.0
  0
SPLINE
  5
13DC
330
1F
100
AcDbEntity
  8
1
  6
Continuous
370
    25
100
AcDbSpline
210
0.0
220
0.0
230
1.0
 70
     8
 71
     3
 72
     8
 73
     4
 74
     0
 42
0.000000001
 43
0.0000000001
 40
0.0
 40
0.0
 40
0.0
 40
0.0
 40
1.0
 40
1.0
 40
1.0
 40
1.0
 10
14.56281335020084
 20
-10.79571019562266
 30
0.0
 10
14.87250971974416
 20
-10.79115503853754
 30
0.0
 10
15.18241862145425
 20
-10.78595026093223
 30
0.0
 10
15.49242976030045
 20
-10.78028377805879
 30
0.0
  0
SPLINE
  5
13DD
330
1F
100
AcDbEntity
  8
1
  6
Continuous
370
    25
100
AcDbSpline
210
0.0
220
0.0
230
1.0
 70
     8
 71
     3
 72
    10
 73
     6
 74
     0
 42
0.000000001
 43
0.0000000001
 40
0.0
 40
0.0
 40
0.0
 40
0.0
 40
0.5
 40
0.5
 40
1.0
 40
1.0
 40
1.0
 40
1.0
 10
15.32985643773244
 20
-12.06387849361197
 30
0.0
 10
14.50300133798163
 20
-12.08700995208921
 30
0.0
 10
13.67615064575118
 20
-12.10843951511882
 30
0.0
 10
12.02235747305211
 20
-12.14803972491394
 30
0.0
 10
11.19520598444498
 20
-12.16649023623264
 30
0.0
 10
10.36842467866374
 20
-12.18275156523551
 30
0.0
  0
SPLINE
  5
13DE
330
1F
100
AcDbEntity
  8
1
  6
Continuous
370
    25
100
AcDbSpline
210
0.0
220
0.0
230
1.0
 70
     8
 71
     3
 72
     8
 73
     4
 74
     0
 42
0.000000001
 43
0.0000000001
 40
0.0001483307357247
 40
0.0001483307357247
 40
0.0001483307357247
 40
0.0001483307357247
 40
0.0003175691456238
 40
0.0003175691456238
 40
0.0003175691456238
 40
0.0003175691456238
 10
10.36842467866374
 20
-12.18275156523551
 30
0.0
 10
10.31228386482159
 20
-12.18605978041942
 30
0.0
 10
10.25614230295106
 20
-12.18935981531666
 30
0.0
 10
10.20000000000003
 20
-12.19265166996275
 30
0.0
  0
SPLINE
  5
13DF
330
1F
100
AcDbEntity
  8
1
  6
Continuous
370
    25
100
AcDbSpline
210
0.0
220
0.0
230
1.0
 70
     8
 71
     3
 72
     8
 73
     4
 74
     0
 42
0.000000001
 43
0.0000000001
 40
0.0
 40
0.0
 40
0.0
 40
0.0
 40
1.0
 40
1.0
 40
1.0
 40
1.0
 10
10.20000000000003
 20
-12.19265166996274
 30
0.0
 10
7.154561989739121
 20
-12.14782412476154
 30
0.0
 10
4.110194922792373
 20
-12.07901045354301
 30
0.0
 10
1.067402679444697
 20
-11.98321557797213
 30
0.0
  0
SPLINE
  5
13E0
330
1F
100
AcDbEntity
  8
1
  6
Continuous
370
    25
100
AcDbSpline
210
0.0
220
0.0
230
1.0
 70
     8
 71
     3
 72
     8
 73
     4
 74
     0
 42
0.000000001
 43
0.0000000001
 40
0.0
 40
0.0
 40
0.0
 40
0.0
 40
1.0
 40
1.0
 40
1.0
 40
1.0
 10
10.86808245330016
 20
-11.04436539540662
 30
0.0
 10
7.876679196803022
 20
-11.14462578904864
 30
0.0
 10
4.884574928017584
 20
-11.22419583669381
 30
0.0
 10
1.892011901081883
 20
-11.28059082450213
 30
0.0
  0
SPLINE
  5
13E1
330
1F
100
AcDbEntity
  8
1
  6
Continuous
370
    25
100
AcDbSpline
210
0.0
220
0.0
230
1.0
 70
     8
 71
     3
 72
     8
 73
     4
 74
     0
 42
0.000000001
 43
0.0000000001
 40
0.001461623399611
 40
0.001461623399611
 40
0.001461623399611
 40
0.001461623399611
 40
0.0023704301782182
 40
0.0023704301782182
 40
0.0023704301782182
 40
0.0023704301782182
 10
15.46897431049117
 20
-10.72641090476356
 30
0.0
 10
15.16693672795384
 20
-10.74971985936816
 30
0.0
 10
14.86488293206049
 20
-10.77281966603246
 30
0.0
 10
14.56281335020088
 20
-10.7957101956226
 30
0.0
  0
SPLINE
  5
13E2
330
1F
100
AcDbEntity
  8
1
  6
Continuous
370
    25
100
AcDbSpline
210
0.0
220
0.0
230
1.0
 70
     8
 71
     3
 72
    12
 73
     8
 74
     0
 42
0.000000001
 43
0.0000000001
 40
0.0
 40
0.0
 40
0.0
 40
0.0
 40
0.2500000000000001
 40
0.2500000000000001
 40
0.5000000000000002
 40
0.5000000000000002
 40
1.0
 40
1.0
 40
1.0
 40
1.0
 10
17.28601709169517
 20
-1.645724406967635
 30
0.0
 10
17.23521678336685
 20
-2.349886116929885
 30
0.0
 10
17.17806285514524
 20
-3.053338751507865
 30
0.0
 10
17.02173846927337
 20
-4.455554900563677
 30
0.0
 10
16.92159802363281
 20
-5.154521315153273
 30
0.0
 10
16.56892527989325
 20
-7.243533762859025
 30
0.0
 10
16.25959743840531
 20
-8.623233922159322
 30
0.0
 10
15.87627617369362
 20
-9.9818362372838
 30
0.0
  0
CIRCLE
  5
13E3
330
1F
100
AcDbEntity
  8
1
  6
Continuous
370
    25
100
AcDbCircle
 10
6.000000000000027
 20
-0.0000000000000355
 30
0.0
 40
3.11547005383791
  0
SPLINE
  5
13E4
330
1F
100
AcDbEntity
  8
1
  6
Continuous
370
    25
100
AcDbSpline
210
0.0
220
0.0
230
1.0
 70
     8
 71
     3
 72
    12
 73
     8
 74
     0
 42
0.000000001
 43
0.0000000001
 40
0.1247129107535828
 40
0.1247129107535828
 40
0.1247129107535828
 40
0.1247129107535828
 40
0.4332615523506389
 40
0.4332615523506389
 40
0.6498923285271189
 40
0.6498923285271189
 40
0.8665231047035991
 40
0.8665231047035991
 40
0.8665231047035991
 40
0.8665231047035991
 10
17.25519275690546
 20
-10.6629870654482
 30
0.0
 10
17.56744696867176
 20
-9.42728988285352
 30
0.0
 10
17.81232804675649
 20
-8.185490712612429
 30
0.0
 10
18.11801297153312
 20
-6.061580160058002
 30
0.0
 10
18.21175714549442
 20
-5.182595119330333
 30
0.0
 10
18.33422211174273
 20
-3.418659357935041
 30
0.0
 10
18.36093497957392
 20
-2.533780688228694
 30
0.0
 10
18.35893841543327
 20
-1.645724406967635
 30
0.0
  0
SPLINE
  5
13E5
330
1F
100
AcDbEntity
  8
1
  6
Continuous
370
    25
100
AcDbSpline
210
0.0
220
0.0
230
1.0
 70
     8
 71
     3
 72
     8
 73
     4
 74
     0
 42
0.000000001
 43
0.0000000001
 40
0.0
 40
0.0
 40
0.0
 40
0.0
 40
1.0
 40
1.0
 40
1.0
 40
1.0
 10
17.22270020782888
 20
-10.77114733964502
 30
0.0
 10
17.23526403997503
 20
-10.73539751847648
 30
0.0
 10
17.24600917912084
 20
-10.69932963751597
 30
0.0
 10
17.25519275690543
 20
-10.6629870654483
 30
0.0
  0
SPLINE
  5
13E6
330
1F
100
AcDbEntity
  8
1
  6
Continuous
370
    25
100
AcDbSpline
210
0.0
220
0.0
230
1.0
 70
     8
 71
     3
 72
     8
 73
     4
 74
     0
 42
0.000000001
 43
0.0000000001
 40
0.0005875523078862
 40
0.0005875523078862
 40
0.0005875523078862
 40
0.0005875523078862
 40
0.0011112296630122
 40
0.0011112296630122
 40
0.0011112296630122
 40
0.0011112296630122
 10
1.067402679444697
 20
-11.98321557797214
 30
0.0
 10
0.9332705627413986
 20
-11.96324101755418
 30
0.0
 10
0.7993593119485354
 20
-11.94317173427939
 30
0.0
 10
0.6656699289995061
 20
-11.92300822326546
 30
0.0
  0
SPLINE
  5
13E7
330
1F
100
AcDbEntity
  8
1
  6
Continuous
370
    25
100
AcDbSpline
210
0.0
220
0.0
230
1.0
 70
     8
 71
     3
 72
     8
 73
     4
 74
     0
 42
0.000000001
 43
0.0000000001
 40
0.0
 40
0.0
 40
0.0
 40
0.0
 40
1.0
 40
1.0
 40
1.0
 40
1.0
 10
0.6656699289995061
 20
-11.40784906599195
 30
0.0
 10
0.6771078222763265
 20
-11.40202752431127
 30
0.0
 10
0.6885491463780796
 20
-11.39620634900035
 30
0.0
 10
0.6999939053452522
 20
-11.39038554049067
 30
0.0
  0
CIRCLE
  5
13E8
330
1F
100
AcDbEntity
  8
1
  6
Continuous
370
    25
100
AcDbCircle
 10
6.000000000000027
 20
-0.0000000000000355
 30
0.0
 40
3.0
  0
SPLINE
  5
13E9
330
1F
100
AcDbEntity
  8
1
  6
Continuous
370
    25
100
AcDbSpline
210
0.0
220
0.0
230
1.0
 70
     8
 71
     3
 72
    10
 73
     6
 74
     0
 42
0.000000001
 43
0.0000000001
 40
0.4332803271024237
 40
0.4332803271024237
 40
0.4332803271024237
 40
0.4332803271024237
 40
0.6498923285271189
 40
0.6498923285271189
 40
0.7388955188257949
 40
0.7388955188257949
 40
0.7388955188257949
 40
0.7388955188257949
 10
18.10633245462998
 20
6.972515003029647
 30
0.0
 10
18.2372503402845
 20
6.090996620357042
 30
0.0
 10
18.33566438661064
 20
5.206371870299951
 30
0.0
 10
18.42833992644527
 20
3.953852790587986
 30
0.0
 10
18.44980405199558
 20
3.588558195965873
 30
0.0
 10
18.46572719489619
 20
3.222734053812772
 30
0.0
  0
SPLINE
  5
13EA
330
1F
100
AcDbEntity
  8
1
  6
Continuous
370
    25
100
AcDbSpline
210
0.0
220
0.0
230
1.0
 70
     8
 71
     3
 72
     8
 73
     4
 74
     0
 42
0.000000001
 43
0.0000000001
 40
0.7388955188257949
 40
0.7388955188257949
 40
0.7388955188257949
 40
0.7388955188257949
 40
0.8665231047035991
 40
0.8665231047035991
 40
0.8665231047035991
 40
0.8665231047035991
 10
18.46572719489619
 20
3.222734053812772
 30
0.0
 10
18.48856044706582
 20
2.698154519504625
 30
0.0
 10
18.50000000000003
 20
2.17248609795746
 30
0.0
 10
18.50000000000003
 20
1.645724406967566
 30
0.0
  0
SPLINE
  5
13EB
330
1F
100
AcDbEntity
  8
1
  6
Continuous
370
    25
100
AcDbSpline
210
0.0
220
0.0
230
1.0
 70
     8
 71
     3
 72
     8
 73
     4
 74
     0
 42
0.000000001
 43
0.0000000001
 40
0.0
 40
0.0
 40
0.0
 40
0.0
 40
1.0
 40
1.0
 40
1.0
 40
1.0
 10
0.6656699289995061
 20
12.16576908995149
 30
0.0
 10
3.770521922741721
 20
12.26717509244166
 30
0.0
 10
6.958305851145468
 20
12.34262990688215
 30
0.0
 10
10.20000000000003
 20
12.39144429037206
 30
0.0
  0
SPLINE
  5
13EC
330
1F
100
AcDbEntity
  8
1
  6
Continuous
370
    25
100
AcDbSpline
210
0.0
220
0.0
230
1.0
 70
     8
 71
     3
 72
     8
 73
     4
 74
     0
 42
0.000000001
 43
0.0000000001
 40
0.0
 40
0.0
 40
0.0
 40
0.0
 40
0.7926569548851229
 40
0.7926569548851229
 40
0.7926569548851229
 40
0.7926569548851229
 10
10.20000000000003
 20
12.39144429037206
 30
0.0
 10
11.97313445856162
 20
12.35739594110206
 30
0.0
 10
13.75163617308774
 20
12.31534011607564
 30
0.0
 10
15.53035569385964
 20
12.2654045288191
 30
0.0
  0
SPLINE
  5
13ED
330
1F
100
AcDbEntity
  8
1
  6
Continuous
370
    25
100
AcDbSpline
210
0.0
220
0.0
230
1.0
 70
     8
 71
     3
 72
    14
 73
    10
 74
     0
 42
0.000000001
 43
0.0000000001
 40
0.0
 40
0.0
 40
0.0
 40
0.0
 40
0.25
 40
0.25
 40
0.5
 40
0.5
 40
0.75
 40
0.75
 40
1.0
 40
1.0
 40
1.0
 40
1.0
 10
17.32248856820003
 20
10.81737730834315
 30
0.0
 10
17.27058923363518
 20
11.01670123044125
 30
0.0
 10
17.19060977863015
 20
11.20461185322116
 30
0.0
 10
16.96987444239252
 20
11.55573022952145
 30
0.0
 10
16.83356844629793
 20
11.71113861011964
 30
0.0
 10
16.51181974141173
 20
11.97406618384138
 30
0.0
 10
16.33068090735818
 20
12.07749604064403
 30
0.0
 10
15.94159826114347
 20
12.22088280506738
 30
0.0
 10
15.73721461383437
 20
12.25959719296443
 30
0.0
 10
15.53035569385966
 20
12.26540452881898
 30
0.0
  0
SPLINE
  5
13EE
330
1F
100
AcDbEntity
  8
1
  6
Continuous
370
    25
100
AcDbSpline
210
0.0
220
0.0
230
1.0
 70
     8
 71
     3
 72
    12
 73
     8
 74
     0
 42
0.000000001
 43
0.0000000001
 40
0.1167100704516378
 40
0.1167100704516378
 40
0.1167100704516378
 40
0.1167100704516378
 40
0.2166307761753193
 40
0.2166307761753193
 40
0.4332615523506389
 40
0.4332615523506389
 40
0.4332803271024237
 40
0.4332803271024237
 40
0.4332803271024237
 40
0.4332803271024237
 10
17.32248856330329
 20
10.81737730725344
 30
0.0
 10
17.42726243937723
 20
10.41498432861027
 30
0.0
 10
17.52492504463551
 20
10.01191173118245
 30
0.0
 10
17.81200783224013
 20
8.732834281764567
 30
0.0
 10
17.97536354423934
 20
7.854338467997155
 30
0.0
 10
18.10630975988326
 20
6.972667813457441
 30
0.0
 10
18.1063211073787
 20
6.972591408255212
 30
0.0
 10
18.10633245462998
 20
6.972515003029647
 30
0.0
  0
SPLINE
  5
13EF
330
1F
100
AcDbEntity
  8
1
  6
Continuous
370
    25
100
AcDbSpline
210
0.0
220
0.0
230
1.0
 70
     8
 71
     3
 72
     8
 73
     4
 74
     0
 42
0.000000001
 43
0.0000000001
 40
0.000017129408296
 40
0.000017129408296
 40
0.000017129408296
 40
0.000017129408296
 40
0.0006948247297463
 40
0.0006948247297463
 40
0.0006948247297463
 40
0.0006948247297463
 10
0.6656699289993357
 20
-12.16576908995171
 30
0.0
 10
0.4435728281200113
 20
-12.15860311292683
 30
0.0
 10
0.2216651719823233
 20
-12.15125684729708
 30
0.0
 10
-0.0000000000001847
 20
-12.1436983489374
 30
0.0
  0
SPLINE
  5
13F0
330
1F
100
AcDbEntity
  8
1
  6
Continuous
370
    25
100
AcDbSpline
210
0.0
220
0.0
230
1.0
 70
     8
 71
     3
 72
     8
 73
     4
 74
     0
 42
0.000000001
 43
0.0000000001
 40
0.000017129408296
 40
0.000017129408296
 40
0.000017129408296
 40
0.000017129408296
 40
0.0006948247297463
 40
0.0006948247297463
 40
0.0006948247297463
 40
0.0006948247297463
 10
0.6656699289993357
 20
12.16576908995164
 30
0.0
 10
0.4435728281200113
 20
12.15860311292676
 30
0.0
 10
0.2216651719823233
 20
12.15125684729701
 30
0.0
 10
-0.0000000000001847
 20
12.14369834893733
 30
0.0
  0
LWPOLYLINE
  5
13F1
330
1F
100
AcDbEntity
  8
1
  6
Continuous
370
    25
100
AcDbPolyline
 90
        3
 70
   128
 43
0.0
 10
0.3853636585000259
 20
12.14387732439996
 10
0.5232831627000252
 20
12.15633939029996
 10
0.6656699290000319
 20
12.16576908999996
  0
SPLINE
  5
13F2
330
1F
100
AcDbEntity
  8
1
  6
Continuous
370
    25
100
AcDbSpline
210
0.0
220
0.0
230
1.0
 70
     8
 71
     3
 72
     8
 73
     4
 74
     0
 42
0.000000001
 43
0.0000000001
 40
0.0
 40
0.0
 40
0.0
 40
0.0
 40
1.0
 40
1.0
 40
1.0
 40
1.0
 10
0.6656699289995061
 20
-12.16576908995157
 30
0.0
 10
3.770521922741721
 20
-12.26717509244173
 30
0.0
 10
6.958305851145468
 20
-12.34262990688222
 30
0.0
 10
10.20000000000003
 20
-12.39144429037213
 30
0.0
  0
SPLINE
  5
13F3
330
1F
100
AcDbEntity
  8
1
  6
Continuous
370
    25
100
AcDbSpline
210
0.0
220
0.0
230
1.0
 70
     8
 71
     3
 72
     8
 73
     4
 74
     0
 42
0.000000001
 43
0.0000000001
 40
0.7388954916426309
 40
0.7388954916426309
 40
0.7388954916426309
 40
0.7388954916426309
 40
0.8665231047035991
 40
0.8665231047035991
 40
0.8665231047035991
 40
0.8665231047035991
 10
18.50000000000003
 20
-1.645724406967635
 30
0.0
 10
18.50000000000003
 20
-2.17248621015153
 30
0.0
 10
18.48856044219283
 20
-2.698154743426989
 30
0.0
 10
18.46572718030654
 20
-3.222734389000522
 30
0.0
  0
SPLINE
  5
13F4
330
1F
100
AcDbEntity
  8
1
  6
Continuous
370
    25
100
AcDbSpline
210
0.0
220
0.0
230
1.0
 70
     8
 71
     3
 72
    10
 73
     6
 74
     0
 42
0.000000001
 43
0.0000000001
 40
0.4332803283459297
 40
0.4332803283459297
 40
0.4332803283459297
 40
0.4332803283459297
 40
0.5222834914614416
 40
0.5222834914614416
 40
0.7388954916426309
 40
0.7388954916426309
 40
0.7388954916426309
 40
0.7388954916426309
 10
18.46572718030654
 20
-3.222734389000522
 30
0.0
 10
18.44980403888454
 20
-3.588558419100928
 30
0.0
 10
18.42833991820218
 20
-3.953852901994272
 30
0.0
 10
18.33566438698773
 20
-5.206371865203696
 30
0.0
 10
18.23725034141444
 20
-6.09099661020037
 30
0.0
 10
18.10633245688466
 20
-6.972514987848103
 30
0.0
  0
SPLINE
  5
13F5
330
1F
100
AcDbEntity
  8
1
  6
Continuous
370
    25
100
AcDbSpline
210
0.0
220
0.0
230
1.0
 70
     8
 71
     3
 72
    12
 73
     8
 74
     0
 42
0.000000001
 43
0.0000000001
 40
0.1167100704516371
 40
0.1167100704516371
 40
0.1167100704516371
 40
0.1167100704516371
 40
0.2166307761753193
 40
0.2166307761753193
 40
0.4332615523506389
 40
0.4332615523506389
 40
0.4332803283459297
 40
0.4332803283459297
 40
0.4332803283459297
 40
0.4332803283459297
 10
17.32248856330329
 20
-10.81737730725352
 30
0.0
 10
17.42726243937721
 20
-10.41498432861035
 30
0.0
 10
17.52492504463551
 20
-10.01191173118253
 30
0.0
 10
17.81200783224013
 20
-8.732834281764636
 30
0.0
 10
17.97536354423934
 20
-7.854338467997227
 30
0.0
 10
18.10630976063485
 20
-6.972667808396971
 30
0.0
 10
18.10632110888187
 20
-6.972591398134206
 30
0.0
 10
18.10633245688466
 20
-6.972514987848103
 30
0.0
  0
SPLINE
  5
13F6
330
1F
100
AcDbEntity
  8
1
  6
Continuous
370
    25
100
AcDbSpline
210
0.0
220
0.0
230
1.0
 70
     8
 71
     3
 72
    17
 73
    13
 74
     0
 42
0.000000001
 43
0.0000000001
 40
0.0
 40
0.0
 40
0.0
 40
0.0
 40
0.0004064970153204
 40
0.0004064970153204
 40
0.0004064970153204
 40
0.0005306495543532
 40
0.0005306495543532
 40
0.0005306495543532
 40
0.0007452457311605
 40
0.0007452457311605
 40
0.0007452457311605
 40
0.000838916563141
 40
0.000838916563141
 40
0.000838916563141
 40
0.000838916563141
 10
17.25519275690546
 20
-10.66298706544825
 30
0.0
 10
17.2661531288827
 20
-10.6879348902158
 30
0.0
 10
17.27706913312414
 20
-10.71287725527708
 30
0.0
 10
17.28794116534142
 20
-10.73781420132253
 30
0.0
 10
17.29126170748549
 20
-10.7454304572932
 30
0.0
 10
17.29457814787719
 20
-10.75304620793612
 30
0.0
 10
17.29789049768924
 20
-10.76066145441713
 30
0.0
 10
17.30361585461233
 20
-10.77382431662527
 30
0.0
 10
17.30932899038822
 20
-10.78698567287297
 30
0.0
 10
17.31502996238386
 20
-10.80014552920124
 30
0.0
 10
17.31751842608491
 20
-10.80588978207759
 30
0.0
 10
17.32000457223108
 20
-10.8116337492272
 30
0.0
 10
17.32248840556849
 20
-10.81737743115396
 30
0.0
  0
SPLINE
  5
13F7
330
1F
100
AcDbEntity
  8
1
  6
Continuous
370
    25
100
AcDbSpline
210
0.0
220
0.0
230
1.0
 70
     8
 71
     3
 72
    20
 73
    16
 74
     0
 42
0.000000001
 43
0.0000000001
 40
0.0
 40
0.0
 40
0.0
 40
0.0
 40
0.000011506782009
 40
0.000011506782009
 40
0.000011506782009
 40
0.0002270686613576
 40
0.0002270686613576
 40
0.0002270686613576
 40
0.0004410151540922
 40
0.0004410151540922
 40
0.0004410151540922
 40
0.0006549616846948
 40
0.0006549616846948
 40
0.0006549616846948
 40
0.000763864829857
 40
0.000763864829857
 40
0.000763864829857
 40
0.000763864829857
 10
15.53035569385964
 20
-12.26540452881917
 30
0.0
 10
15.53003251879778
 20
-12.26475755473261
 30
0.0
 10
15.52970930978891
 20
-12.26411058265669
 30
0.0
 10
15.52938606682542
 20
-12.26346361259193
 30
0.0
 10
15.52333060669123
 20
-12.25134362274613
 30
0.0
 10
15.51726323037331
 20
-12.23922433852173
 30
0.0
 10
15.5111838876258
 20
-12.22710576329189
 30
0.0
 10
15.50515010251007
 20
-12.21507800274564
 30
0.0
 10
15.49910452947452
 20
-12.20305094027468
 30
0.0
 10
15.4930471190698
 20
-12.19102457920058
 30
0.0
 10
15.48698970759338
 20
-12.17899821599878
 30
0.0
 10
15.48092045857531
 20
-12.16697255385964
 30
0.0
 10
15.4748393222402
 20
-12.15494759612858
 30
0.0
 10
15.47174389985574
 20
-12.14882664746345
 30
0.0
 10
15.46864539740807
 20
-12.14270588124623
 30
0.0
 10
15.46554380829974
 20
-12.13658529792055
 30
0.0
  0
SPLINE
  5
13F8
330
1F
100
AcDbEntity
  8
1
  6
Continuous
370
    25
100
AcDbSpline
210
0.0
220
0.0
230
1.0
 70
     8
 71
     3
 72
     8
 73
     4
 74
     0
 42
0.000000001
 43
0.0000000001
 40
0.0
 40
0.0
 40
0.0
 40
0.0
 40
0.7926569548851229
 40
0.7926569548851229
 40
0.7926569548851229
 40
0.7926569548851229
 10
10.20000000000003
 20
-12.39144429037213
 30
0.0
 10
11.97313445856162
 20
-12.35739594110213
 30
0.0
 10
13.75163617308774
 20
-12.31534011607571
 30
0.0
 10
15.53035569385964
 20
-12.26540452881917
 30
0.0
  0
SPLINE
  5
13F9
330
1F
100
AcDbEntity
  8
1
  6
Continuous
370
    25
100
AcDbSpline
210
0.0
220
0.0
230
1.0
 70
     8
 71
     3
 72
    14
 73
    10
 74
     0
 42
0.000000001
 43
0.0000000001
 40
0.0
 40
0.0
 40
0.0
 40
0.0
 40
0.2499999999999999
 40
0.2499999999999999
 40
0.5
 40
0.5
 40
0.75
 40
0.75
 40
1.0
 40
1.0
 40
1.0
 40
1.0
 10
17.32248856820003
 20
-10.81737730834322
 30
0.0
 10
17.27058923363518
 20
-11.01670123044133
 30
0.0
 10
17.19060977863015
 20
-11.20461185322124
 30
0.0
 10
16.96987444239252
 20
-11.55573022952152
 30
0.0
 10
16.83356844629793
 20
-11.71113861011971
 30
0.0
 10
16.51181974141173
 20
-11.97406618384146
 30
0.0
 10
16.33068090735818
 20
-12.0774960406441
 30
0.0
 10
15.94159826114347
 20
-12.22088280506746
 30
0.0
 10
15.73721461383437
 20
-12.2595971929645
 30
0.0
 10
15.53035569385966
 20
-12.26540452881905
 30
0.0
  0
LINE
  5
13FA
330
1F
100
AcDbEntity
  8
1
  6
Continuous
370
    25
100
AcDbLine
 10
15.46554380830002
 20
-12.13658529790003
 30
0.0
 11
15.32985643770003
 21
-12.06387849360003
 31
0.0
  0
LINE
  5
13FB
330
1F
100
AcDbEntity
  8
1
  6
Continuous
370
    25
100
AcDbLine
 10
1.892011901100033
 20
-11.28059082450004
 30
0.0
 11
1.067402679400029
 21
-11.98321557800003
 31
0.0
  0
LINE
  5
13FC
330
1F
100
AcDbEntity
  8
1
  6
Continuous
370
    25
100
AcDbLine
 10
1.892011901100033
 20
-11.28059082450004
 30
0.0
 11
0.6999939053000333
 21
-11.39038554050003
 31
0.0
  0
LINE
  5
13FD
330
1F
100
AcDbEntity
  8
1
  6
Continuous
370
    25
100
AcDbLine
 10
0.6999939053000333
 20
-11.39038554050003
 30
0.0
 11
0.6656699290000319
 21
-11.39110665190004
 31
0.0
  0
LINE
  5
13FE
330
1F
100
AcDbEntity
  8
1
  6
Continuous
370
    25
100
AcDbLine
 10
0.6656699290000319
 20
-11.39110665190004
 30
0.0
 11
0.5000000000000285
 21
-11.39110665190004
 31
0.0
  0
LINE
  5
13FF
330
1F
100
AcDbEntity
  8
1
  6
Continuous
370
    25
100
AcDbLine
 10
0.5000000000000285
 20
11.22702612649996
 30
0.0
 11
0.5000000000000285
 21
-11.39110665190004
 31
0.0
  0
LINE
  5
1400
330
1F
100
AcDbEntity
  8
1
  6
Continuous
370
    25
100
AcDbLine
 10
0.5000000000000285
 20
11.22702612649996
 30
0.0
 11
17.37238932020003
 21
-0.5871480631000363
 31
0.0
  0
LINE
  5
1401
330
1F
100
AcDbEntity
  8
1
  6
Continuous
370
    25
100
AcDbLine
 10
17.37238932020003
 20
-0.5871480631000363
 30
0.0
 11
17.28601709170003
 21
-1.645724407000034
 31
0.0
  0
LINE
  5
1402
330
1F
100
AcDbEntity
  8
1
  6
Continuous
370
    25
100
AcDbLine
 10
17.28601709170003
 20
-1.645724407000034
 30
0.0
 11
18.50000000000003
 21
-1.645724407000034
 31
0.0
  0
LINE
  5
1403
330
1F
100
AcDbEntity
  8
1
  6
Continuous
370
    25
100
AcDbLine
 10
17.37238932020003
 20
-0.5871480631000363
 30
0.0
 11
18.31919562260003
 21
-0.4135270058000362
 31
0.0
  0
LINE
  5
1404
330
1F
100
AcDbEntity
  8
1
  6
Continuous
370
    25
100
AcDbLine
 10
18.31919562260003
 20
-0.4135270058000362
 30
0.0
 11
18.35893841540003
 21
-0.387081506800035
 31
0.0
  0
LINE
  5
1405
330
1F
100
AcDbEntity
  8
1
  6
Continuous
370
    25
100
AcDbLine
 10
18.35893841540003
 20
-1.645724407000034
 30
0.0
 11
18.35893841540003
 21
-0.387081506800035
 31
0.0
  0
LINE
  5
1406
330
1F
100
AcDbEntity
  8
1
  6
Continuous
370
    25
100
AcDbLine
 10
0.5000000000000285
 20
11.22702612649996
 30
0.0
 11
0.0000000000000284
 21
11.74929370229996
 31
0.0
  0
LINE
  5
1407
330
1F
100
AcDbEntity
  8
1
  6
Continuous
370
    25
100
AcDbLine
 10
0.0000000000000284
 20
2.499999999999964
 30
0.0
 11
0.0000000000000284
 21
12.14369834889996
 31
0.0
  0
LINE
  5
1408
330
1F
100
AcDbEntity
  8
1
  6
Continuous
370
    25
100
AcDbLine
 10
0.3853636585000259
 20
12.14387732439996
 30
0.0
 11
18.31919562260003
 21
-0.4135270058000362
 31
0.0
  0
LINE
  5
1409
330
1F
100
AcDbEntity
  8
1
  6
Continuous
370
    25
100
AcDbLine
 10
0.6656699290000319
 20
-11.92300822330004
 30
0.0
 11
0.0000000000000284
 21
-11.83124014570003
 31
0.0
  0
LINE
  5
140A
330
1F
100
AcDbEntity
  8
1
  6
Continuous
370
    25
100
AcDbLine
 10
0.0000000000000284
 20
-12.14369834890004
 30
0.0
 11
0.0000000000000284
 21
-2.500000000000035
 31
0.0
  0
LINE
  5
140B
330
1F
100
AcDbEntity
  8
1
  6
Continuous
370
    25
100
AcDbLine
 10
0.0000000000000284
 20
-11.82849115810003
 30
0.0
 11
0.6656699290000319
 21
-11.40784906600003
 31
0.0
  0
LINE
  5
140C
330
1F
100
AcDbEntity
  8
1
  6
Continuous
370
    25
100
AcDbLine
 10
0.0000000000000284
 20
-11.56327045860003
 30
0.0
 11
0.5000000000000285
 21
-11.39110665190004
 31
0.0
  0
LINE
  5
140D
330
1F
100
AcDbEntity
  8
1
  6
Continuous
370
    25
100
AcDbLine
 10
0.6656699290000319
 20
-11.39110665190004
 30
0.0
 11
0.6656699290000319
 21
-11.40784906600003
 31
0.0
  0
LINE
  5
140E
330
1F
100
AcDbEntity
  8
1
  6
Continuous
370
    25
100
AcDbLine
 10
0.0000000000000284
 20
-2.500000000000035
 30
0.0
 11
0.3000000000000256
 21
-2.500000000000035
 31
0.0
  0
LINE
  5
140F
330
1F
100
AcDbEntity
  8
1
  6
Continuous
370
    25
100
AcDbLine
 10
0.3000000000000256
 20
-2.500000000000035
 30
0.0
 11
0.3000000000000256
 21
2.499999999999964
 31
0.0
  0
LINE
  5
1410
330
1F
100
AcDbEntity
  8
1
  6
Continuous
370
    25
100
AcDbLine
 10
0.3000000000000256
 20
2.499999999999964
 30
0.0
 11
0.0000000000000284
 21
2.499999999999964
 31
0.0
  0
LINE
  5
1411
330
1F
100
AcDbEntity
  8
1
  6
Continuous
370
    25
100
AcDbLine
 10
18.50000000000003
 20
-1.645724407000034
 30
0.0
 11
18.50000000000003
 21
1.645724406999963
 31
0.0
  0
LINE
  5
1412
330
1F
100
AcDbEntity
  8
1
  6
Continuous
370
    25
100
AcDbLine
 10
18.41572466720002
 20
-0.0000000000000355
 30
0.0
 11
18.50000000000003
 21
-0.0000000000000355
 31
0.0
  0
LINE
  5
1413
330
1F
100
AcDbEntity
  8
1
  6
Continuous
370
    25
100
AcDbLine
 10
18.41572466720002
 20
-0.2629530414000349
 30
0.0
 11
18.41572466720002
 21
-0.0000000000000355
 31
0.0
  0
LINE
  5
1414
330
1F
100
AcDbEntity
  8
1
  6
Continuous
370
    25
100
AcDbLine
 10
0.6656699290000319
 20
12.16576908999996
 30
0.0
 11
18.41572466720002
 21
-0.2629530414000349
 31
0.0
  0
LINE
  5
1415
330
1F
100
AcDbEntity
  8
1
  6
Continuous
370
    25
100
AcDbLine
 10
0.6656699290000319
 20
-11.92300822330004
 30
0.0
 11
0.6656699290000319
 21
-12.16576909000003
 31
0.0
  0
LINE
  5
1416
330
1F
100
AcDbEntity
  8
1
  6
Continuous
370
    25
100
AcDbLine
 10
10.20000000000003
 20
-12.19265167000003
 30
0.0
 11
10.20000000000003
 21
-12.39144429040003
 31
0.0
  0
LINE
  5
1417
330
1F
100
AcDbEntity
  8
1
  6
Continuous
370
    25
100
AcDbLine
 10
18.35893841540003
 20
-0.387081506800035
 30
0.0
 11
18.41572466720002
 21
-0.2629530414000349
 31
0.0
  0
ARC
  5
1418
330
1F
100
AcDbEntity
  8
1
  6
Continuous
370
    25
100
AcDbCircle
 10
0.5328325372000223
 20
10.99166955179996
 30
0.0
 40
1.161606569115997
100
AcDbArc
 50
97.2935252371996
 51
117.3034526984003
  0
DIMENSION
  5
147A
102
{ACAD_XDICTIONARY
360
1484
102
}
102
{ACAD_REACTORS
330
148B
102
}
330
1F
100
AcDbEntity
  8
2
100
AcDbDimension
  2
*D25
 10
14.78955769749788
 20
10.00000000252953
 30
0.0
 11
20.8916863055208
 21
22.7442462253721
 31
0.0
 70
    36
 71
     5
 42
2.500000000000004
  3
ISO-25
100
AcDbRadialDimension
 15
16.30832421588614
 25
11.98578656271742
 35
0.0
 40
0.0
1001
ACAD
1000
DSTYLE
1002
{
1070
   340
1005
442
1070
   288
1070
     1
1002
}
1001
ACAD_DSTYLE_DIMRADIAL_EXTENSION
1070
   387
1070
     1
1070
   388
1040
0.2637620025721074
1070
   390
1040
1.570796326794896
  0
DIMENSION
  5
148C
102
{ACAD_XDICTIONARY
360
1496
102
}
102
{ACAD_REACTORS
330
149D
102
}
330
1F
100
AcDbEntity
  8
2
100
AcDbDimension
  2
*D26
 10
-19.00000245060213
 20
0.875000002529534
 30
0.0
 11
30.96374220988178
 21
7.713327558032005
 31
0.0
 70
    36
 71
     5
 42
37.50000000000033
  3
ISO-25
100
AcDbRadialDimension
 15
18.38428455832759
 25
3.818651618124082
 35
0.0
 40
0.0
1001
ACAD
1000
DSTYLE
1002
{
1070
   288
1070
     1
1070
   340
1005
442
1002
}
1001
ACAD_DSTYLE_DIMRADIAL_EXTENSION
1070
   387
1070
     1
1070
   388
1040
0.0
1070
   390
1040
0.2637620025720934
  0
DIMENSION
  5
149E
102
{ACAD_XDICTIONARY
360
14AD
102
}
102
{ACAD_REACTORS
330
14B9
102
}
330
1F
100
AcDbEntity
  8
SKVIEW2
100
AcDbDimension
  2
*D27
 10
52.53941463742933
 20
19.99447969178254
 30
0.0
 11
49.53941463742933
 21
19.99447969178254
 31
0.0
 70
   160
  1
<>,00
 71
     5
 42
6.0
  3
ISO-25
100
AcDbAlignedDimension
 13
46.53941463742933
 23
11.20310937035564
 33
0.0
 14
52.53941463742933
 24
11.31157142635564
 34
0.0
100
AcDbRotatedDimension
1001
ACAD
1000
DSTYLE
1002
{
1070
   340
1005
442
1002
}
  0
LINE
  5
15EA
330
1F
100
AcDbEntity
  8
4
100
AcDbLine
 10
0.3000000000000256
 20
0.0000000025295392
 30
0.0
 11
18.50000000000003
 21
-0.0000000000000355
 31
0.0
  0
ENDSEC
  0
SECTION
  2
OBJECTS
  0
DICTIONARY
  5
C
330
0
100
AcDbDictionary
281
     1
  3
ACAD_CIP_PREVIOUS_PRODUCT_INFO
350
925
  3
ACAD_COLOR
350
918
  3
ACAD_DETAILVIEWSTYLE
350
436
  3
ACAD_GROUP
350
D
  3
ACAD_IMAGE_VARS
350
268
  3
ACAD_LAYOUT
350
1A
  3
ACAD_MATERIAL
350
8E6
  3
ACAD_MLEADERSTYLE
350
91B
  3
ACAD_MLINESTYLE
350
17
  3
ACAD_PLOTSETTINGS
350
19
  3
ACAD_PLOTSTYLENAME
350
E
  3
ACAD_SCALELIST
350
92
  3
ACAD_SECTIONVIEWSTYLE
350
437
  3
ACAD_TABLESTYLE
350
919
  3
ACAD_VISUALSTYLE
350
8FF
  3
ACDB_RECOMPOSE_DATA
350
1737
  3
AcDbVariableDictionary
350
22B
  3
APPDATA
350
266
  3
DWGPROPS
350
1738
  0
DICTIONARY
  5
470
330
2
100
AcDbDictionary
280
     1
281
     1
  3
ACAD_LAYERSTATES
360
471
  3
ACLYDICTIONARY
360
74E
  0
DICTIONARY
  5
929
330
10
100
AcDbDictionary
280
     1
281
     1
  3
ADSK_XREC_LAYER_RECONCILED
360
92A
  0
DICTIONARY
  5
92B
330
44
100
AcDbDictionary
280
     1
281
     1
  3
ADSK_XREC_LAYER_RECONCILED
360
92C
  0
DICTIONARY
  5
92D
330
47
100
AcDbDictionary
280
     1
281
     1
  3
ADSK_XREC_LAYER_RECONCILED
360
92E
  0
DICTIONARY
  5
92F
330
14A
100
AcDbDictionary
280
     1
281
     1
  3
ADSK_XREC_LAYER_RECONCILED
360
930
  0
DICTIONARY
  5
5B0
330
5AF
100
AcDbDictionary
280
     1
281
     1
  3
ADSK_XREC_LAYER_RECONCILED
360
5B1
  0
DICTIONARY
  5
674
330
673
100
AcDbDictionary
280
     1
281
     1
  3
ADSK_XREC_LAYER_RECONCILED
360
675
  0
DICTIONARY
  5
6A1
330
6A0
100
AcDbDictionary
280
     1
281
     1
  3
ADSK_XREC_LAYER_RECONCILED
360
6A2
  0
DICTIONARY
  5
75A
330
759
100
AcDbDictionary
280
     1
281
     1
  3
ADSK_XREC_LAYER_RECONCILED
360
75B
  0
DICTIONARY
  5
931
330
7B1
100
AcDbDictionary
280
     1
281
     1
  3
ADSK_XREC_LAYER_RECONCILED
360
932
  0
DICTIONARY
  5
933
330
7E7
100
AcDbDictionary
280
     1
281
     1
  3
ADSK_XREC_LAYER_RECONCILED
360
934
  0
DICTIONARY
  5
935
330
820
100
AcDbDictionary
280
     1
281
     1
  3
ADSK_XREC_LAYER_RECONCILED
360
936
  0
DICTIONARY
  5
1484
330
147A
100
AcDbDictionary
280
     1
281
     1
  3
ACAD_DIMASSOC
360
148B
  0
DICTIONARY
  5
1496
330
148C
100
AcDbDictionary
280
     1
281
     1
  3
ACAD_DIMASSOC
360
149D
  0
DICTIONARY
  5
14AD
330
149E
100
AcDbDictionary
280
     1
281
     1
  3
ACAD_DIMASSOC
360
14B9
  0
XRECORD
  5
925
102
{ACAD_REACTORS
330
C
102
}
330
C
100
AcDbXrecord
280
     1
300
AMECH_PP
300
2017
300
86690PDSP_2017_0F
  0
DICTIONARY
  5
918
102
{ACAD_REACTORS
330
C
102
}
330
C
100
AcDbDictionary
281
     1
  0
DICTIONARY
  5
436
102
{ACAD_REACTORS
330
C
102
}
330
C
100
AcDbDictionary
281
     1
  3
Imperial24
350
B6D
  3
Metric50
350
91E
  0
DICTIONARY
  5
D
102
{ACAD_REACTORS
330
C
102
}
330
C
100
AcDbDictionary
281
     1
  0
RASTERVARIABLES
  5
268
102
{ACAD_REACTORS
330
C
102
}
330
C
100
AcDbRasterVariables
 90
        0
 70
     1
 71
     1
 72
     1
  0
DICTIONARY
  5
1A
102
{ACAD_REACTORS
330
C
102
}
330
C
100
AcDbDictionary
281
     1
  3
Layout1
350
1E
  3
Layout2
350
26
  3
Model
350
22
  0
DICTIONARY
  5
8E6
102
{ACAD_REACTORS
330
C
102
}
330
C
100
AcDbDictionary
281
     1
  3
ByBlock
350
8EF
  3
ByLayer
350
8E7
  3
Global
350
8F7
  0
DICTIONARY
  5
91B
102
{ACAD_REACTORS
330
C
102
}
330
C
100
AcDbDictionary
281
     1
  3
Standard
350
91C
  0
DICTIONARY
  5
17
102
{ACAD_REACTORS
330
C
102
}
330
C
100
AcDbDictionary
281
     1
  3
Standard
350
18
  0
DICTIONARY
  5
19
102
{ACAD_REACTORS
330
C
102
}
330
C
100
AcDbDictionary
281
     1
  0
ACDBDICTIONARYWDFLT
  5
E
102
{ACAD_REACTORS
330
C
102
}
330
C
100
AcDbDictionary
281
     1
  3
Normal
350
F
100
AcDbDictionaryWithDefault
340
F
  0
DICTIONARY
  5
92
102
{ACAD_REACTORS
330
C
102
}
330
C
100
AcDbDictionary
281
     1
  3
A0
350
93
  3
A1
350
94
  3
A2
350
95
  3
A3
350
96
  3
A4
350
97
  3
A5
350
98
  3
A6
350
99
  3
A7
350
9A
  3
A8
350
9B
  3
A9
350
9C
  3
B0
350
9D
  3
B1
350
9E
  3
B2
350
9F
  3
B3
350
A0
  3
B4
350
A1
  3
B5
350
A2
  3
B6
350
A3
  3
B7
350
A4
  3
B8
350
A5
  3
B9
350
A6
  3
C0
350
A7
  3
C1
350
A8
  3
C2
350
A9
  3
C3
350
AA
  3
C4
350
AB
  3
C5
350
AC
  3
C6
350
AD
  3
C7
350
AE
  3
C8
350
AF
  3
C9
350
B0
  3
D0
350
B1
  3
D1
350
B2
  3
D2
350
B3
  0
DICTIONARY
  5
437
102
{ACAD_REACTORS
330
C
102
}
330
C
100
AcDbDictionary
281
     1
  3
Imperial24
350
B6C
  3
Metric50
350
91D
  0
DICTIONARY
  5
919
102
{ACAD_REACTORS
330
C
102
}
330
C
100
AcDbDictionary
281
     1
  3
Standard
350
91A
  0
DICTIONARY
  5
8FF
102
{ACAD_REACTORS
330
C
102
}
330
C
100
AcDbDictionary
281
     1
  3
2dWireframe
350
905
  3
Basic
350
904
  3
Brighten
350
90B
  3
ColorChange
350
90F
  3
Conceptual
350
908
  3
Dim
350
90A
  3
EdgeColorOff
350
917
  3
Facepattern
350
90E
  3
Flat
350
900
  3
FlatWithEdges
350
901
  3
Gouraud
350
902
  3
GouraudWithEdges
350
903
  3
Hidden
350
907
  3
JitterOff
350
915
  3
Linepattern
350
90D
  3
OverhangOff
350
916
  3
Realistic
350
909
  3
Shaded
350
914
  3
Shaded with edges
350
913
  3
Shades of Gray
350
910
  3
Sketchy
350
911
  3
Thicken
350
90C
  3
Wireframe
350
906
  3
X-Ray
350
912
  0
XRECORD
  5
1737
102
{ACAD_REACTORS
330
C
102
}
330
C
100
AcDbXrecord
280
     1
 90
        1
330
91A
  0
DICTIONARY
  5
22B
102
{ACAD_REACTORS
330
C
102
}
330
C
100
AcDbDictionary
281
     1
  3
CANNOSCALE
350
93B
  3
CMLEADERSTYLE
350
938
  3
CTABLESTYLE
350
937
  3
CVIEWDETAILSTYLE
350
939
  3
CVIEWSECTIONSTYLE
350
93A
  3
DIMASSOC
350
231
  3
HIDETEXT
350
232
  3
INDEXCTL
350
93D
  3
SORTENTS
350
93C
  3
XCLIPFRAME
350
1735
  0
DICTIONARY
  5
266
102
{ACAD_REACTORS
330
C
102
}
330
C
100
AcDbDictionary
281
     1
  0
XRECORD
  5
1738
102
{ACAD_REACTORS
330
C
102
}
330
C
100
AcDbXrecord
280
     1
  1
DWGPROPS COOKIE
  2

  3

  4

  6

  7

  8
com090
  9

300
=
301
=
302
=
303
=
304
=
305
=
306
=
307
=
308
=
309
=
 40
0.0640538541666667
 41
2458765.839571759
 42
2458886.484074074
  1

 90
        0
  0
DICTIONARY
  5
471
102
{ACAD_REACTORS
330
470
102
}
330
470
100
AcDbDictionary
281
     1
  0
DICTIONARY
  5
74E
102
{ACAD_REACTORS
330
470
102
}
330
470
100
AcDbDictionary
281
     1
1001
ACAD
1000
<All
  0
XRECORD
  5
92A
102
{ACAD_REACTORS
330
929
102
}
330
929
100
AcDbXrecord
280
     1
290
     1
  0
XRECORD
  5
92C
102
{ACAD_REACTORS
330
92B
102
}
330
92B
100
AcDbXrecord
280
     1
290
     1
  0
XRECORD
  5
92E
102
{ACAD_REACTORS
330
92D
102
}
330
92D
100
AcDbXrecord
280
     1
290
     1
  0
XRECORD
  5
930
102
{ACAD_REACTORS
330
92F
102
}
330
92F
100
AcDbXrecord
280
     1
290
     1
  0
XRECORD
  5
5B1
102
{ACAD_REACTORS
330
5B0
102
}
330
5B0
100
AcDbXrecord
280
     1
290
     1
  0
XRECORD
  5
675
102
{ACAD_REACTORS
330
674
102
}
330
674
100
AcDbXrecord
280
     1
290
     1
  0
XRECORD
  5
6A2
102
{ACAD_REACTORS
330
6A1
102
}
330
6A1
100
AcDbXrecord
280
     1
290
     1
  0
XRECORD
  5
75B
102
{ACAD_REACTORS
330
75A
102
}
330
75A
100
AcDbXrecord
280
     1
290
     1
  0
XRECORD
  5
932
102
{ACAD_REACTORS
330
931
102
}
330
931
100
AcDbXrecord
280
     1
290
     1
  0
XRECORD
  5
934
102
{ACAD_REACTORS
330
933
102
}
330
933
100
AcDbXrecord
280
     1
290
     1
  0
XRECORD
  5
936
102
{ACAD_REACTORS
330
935
102
}
330
935
100
AcDbXrecord
280
     1
290
     1
  0
DIMASSOC
  5
148B
102
{ACAD_REACTORS
330
1484
102
}
330
1484
100
AcDbDimAssoc
330
147A
 90
        2
 70
     0
 71
     0
  1
AcDbOsnapPointRef
 72
     3
331
12CE
 73
     2
 91
        0
 40
0.0
 10
0.0
 20
0.0
 30
0.0
 75
     0
  0
DIMASSOC
  5
149D
102
{ACAD_REACTORS
330
1496
102
}
330
1496
100
AcDbDimAssoc
330
148C
 90
        2
 70
     0
 71
     0
  1
AcDbOsnapPointRef
 72
     3
331
12CF
 73
     2
 91
        0
 40
0.0
 10
0.0
 20
0.0
 30
0.0
 75
     0
  0
DIMASSOC
  5
14B9
102
{ACAD_REACTORS
330
14AD
102
}
330
14AD
100
AcDbDimAssoc
330
149E
 90
        3
 70
     0
 71
     0
  1
AcDbOsnapPointRef
 72
    13
331
137D
 73
     2
 91
        0
 40
0.0
 10
0.0
 20
0.0
 30
2.000000000000000E+50
 75
     0
  1
AcDbOsnapPointRef
 72
     2
331
138C
 73
     2
 91
        0
 40
0.5
 10
0.0
 20
0.0
 30
0.0
 75
     0
  0
ACDBDETAILVIEWSTYLE
  5
B6D
102
{ACAD_XDICTIONARY
360
1776
102
}
102
{ACAD_REACTORS
330
436
102
}
330
436
100
AcDbModelDocViewStyle
 70
     0
  3
Imperial24
290
     0
100
AcDbDetailViewStyle
 70
     0
 71
     0
 90
        3
 71
     1
340
11
 40
0.24
340
0
 40
0.24
300

 40
0.36
280
     3
 71
     2
340
16
 90
       25
 71
     3
340
11
 40
0.24
 90
        1
 40
0.75
 90
        1
300
%<\AcVar ViewType \f "%tc1">% %<\AcVar ViewDetailId>%\PSCALE %<\AcVar ViewScale \f "%sn">%
 71
     4
340
16
 90
       25
340
16
 90
       25
280
     0
  0
ACDBDETAILVIEWSTYLE
  5
91E
102
{ACAD_XDICTIONARY
360
1772
102
}
102
{ACAD_REACTORS
330
436
102
}
330
436
100
AcDbModelDocViewStyle
 70
     0
  3
Metric50
290
     0
100
AcDbDetailViewStyle
 70
     0
 71
     0
 90
        3
 71
     1
340
11
 40
5.0
340
0
 40
5.0
300

 40
0.0
280
     1
 71
     2
340
16
 90
       25
 71
     3
340
11
 40
5.0
 90
        0
 40
15.0
 90
        1
300
%<\AcVar ViewDetailId>% (%<\AcVar ViewScale \f "%sn">%)
 71
     4
340
16
 90
       25
340
16
 90
       25
280
     0
  0
LAYOUT
  5
1E
102
{ACAD_XDICTIONARY
360
1739
102
}
102
{ACAD_REACTORS
330
1A
102
}
330
1A
100
AcDbPlotSettings
  1

  2
none_device
  4

  6

 40
0.0
 41
0.0
 42
0.0
 43
0.0
 44
0.0
 45
0.0
 46
0.0
 47
0.0
 48
0.0
 49
0.0
140
0.0
141
0.0
142
1.0
143
1.0
 70
   688
 72
     0
 73
     0
 74
     5
  7

 75
    16
147
1.0
148
0.0
149
0.0
100
AcDbLayout
  1
Layout1
 70
     1
 71
     1
 10
0.0
 20
0.0
 11
0.0
 21
0.0
 12
0.0
 22
0.0
 32
0.0
 14
1.000000000000000E+20
 24
1.000000000000000E+20
 34
1.000000000000000E+20
 15
-1.000000000000000E+20
 25
-1.000000000000000E+20
 35
-1.000000000000000E+20
146
0.0
 13
0.0
 23
0.0
 33
0.0
 16
1.0
 26
0.0
 36
0.0
 17
0.0
 27
1.0
 37
0.0
 76
     0
330
1B
  0
LAYOUT
  5
26
102
{ACAD_XDICTIONARY
360
173D
102
}
102
{ACAD_REACTORS
330
1A
102
}
330
1A
100
AcDbPlotSettings
  1

  2
none_device
  4

  6

 40
0.0
 41
0.0
 42
0.0
 43
0.0
 44
0.0
 45
0.0
 46
0.0
 47
0.0
 48
0.0
 49
0.0
140
0.0
141
0.0
142
1.0
143
1.0
 70
   688
 72
     0
 73
     0
 74
     5
  7

 75
    16
147
1.0
148
0.0
149
0.0
100
AcDbLayout
  1
Layout2
 70
     1
 71
     2
 10
0.0
 20
0.0
 11
0.0
 21
0.0
 12
0.0
 22
0.0
 32
0.0
 14
0.0
 24
0.0
 34
0.0
 15
0.0
 25
0.0
 35
0.0
146
0.0
 13
0.0
 23
0.0
 33
0.0
 16
1.0
 26
0.0
 36
0.0
 17
0.0
 27
1.0
 37
0.0
 76
     0
330
23
  0
LAYOUT
  5
22
102
{ACAD_XDICTIONARY
360
173B
102
}
102
{ACAD_REACTORS
330
1A
102
}
330
1A
100
AcDbPlotSettings
  1

  2
none_device
  4

  6

 40
0.0
 41
0.0
 42
0.0
 43
0.0
 44
0.0
 45
0.0
 46
0.0
 47
0.0
 48
0.0
 49
0.0
140
0.0
141
0.0
142
1.0
143
1.0
 70
  1712
 72
     0
 73
     0
 74
     0
  7

 75
     0
147
1.0
148
0.0
149
0.0
100
AcDbLayout
  1
Model
 70
     1
 71
     0
 10
0.0
 20
0.0
 11
420.0
 21
297.0
 12
0.0
 22
0.0
 32
0.0
 14
-41.5
 24
-30.0
 34
0.0
 15
58.5
 25
30.0
 35
0.0
146
0.0
 13
0.0
 23
0.0
 33
0.0
 16
1.0
 26
0.0
 36
0.0
 17
0.0
 27
1.0
 37
0.0
 76
     0
330
1F
331
29
  0
MATERIAL
  5
8EF
102
{ACAD_XDICTIONARY
360
8F0
102
}
102
{ACAD_REACTORS
330
8E6
102
}
330
8E6
100
AcDbMaterial
  1
ByBlock
 72
     0
 43
0.0008202099737533
 43
0.0
 43
0.0
 43
0.0
 43
0.0
 43
0.0008202099737533
 43
0.0
 43
0.0
 43
0.0
 43
0.0
 43
1.0
 43
0.0
 43
0.0
 43
0.0
 43
0.0
 43
1.0
 77
     0
 47
0.0008202099737533
 47
0.0
 47
0.0
 47
0.0
 47
0.0
 47
0.0008202099737533
 47
0.0
 47
0.0
 47
0.0
 47
0.0
 47
1.0
 47
0.0
 47
0.0
 47
0.0
 47
0.0
 47
1.0
171
     0
 49
0.0008202099737533
 49
0.0
 49
0.0
 49
0.0
 49
0.0
 49
0.0008202099737533
 49
0.0
 49
0.0
 49
0.0
 49
0.0
 49
1.0
 49
0.0
 49
0.0
 49
0.0
 49
0.0
 49
1.0
175
     0
142
0.0008202099737533
142
0.0
142
0.0
142
0.0
142
0.0
142
0.0008202099737533
142
0.0
142
0.0
142
0.0
142
0.0
142
1.0
142
0.0
142
0.0
142
0.0
142
0.0
142
1.0
179
     0
144
0.0008202099737533
144
0.0
144
0.0
144
0.0
144
0.0
144
0.0008202099737533
144
0.0
144
0.0
144
0.0
144
0.0
144
1.0
144
0.0
144
0.0
144
0.0
144
0.0
144
1.0
147
0.0008202099737533
147
0.0
147
0.0
147
0.0
147
0.0
147
0.0008202099737533
147
0.0
147
0.0
147
0.0
147
0.0
147
1.0
147
0.0
147
0.0
147
0.0
147
0.0
147
1.0
  0
MATERIAL
  5
8E7
102
{ACAD_XDICTIONARY
360
8E8
102
}
102
{ACAD_REACTORS
330
8E6
102
}
330
8E6
100
AcDbMaterial
  1
ByLayer
 72
     0
 43
0.0008202099737533
 43
0.0
 43
0.0
 43
0.0
 43
0.0
 43
0.0008202099737533
 43
0.0
 43
0.0
 43
0.0
 43
0.0
 43
1.0
 43
0.0
 43
0.0
 43
0.0
 43
0.0
 43
1.0
 77
     0
 47
0.0008202099737533
 47
0.0
 47
0.0
 47
0.0
 47
0.0
 47
0.0008202099737533
 47
0.0
 47
0.0
 47
0.0
 47
0.0
 47
1.0
 47
0.0
 47
0.0
 47
0.0
 47
0.0
 47
1.0
171
     0
 49
0.0008202099737533
 49
0.0
 49
0.0
 49
0.0
 49
0.0
 49
0.0008202099737533
 49
0.0
 49
0.0
 49
0.0
 49
0.0
 49
1.0
 49
0.0
 49
0.0
 49
0.0
 49
0.0
 49
1.0
175
     0
142
0.0008202099737533
142
0.0
142
0.0
142
0.0
142
0.0
142
0.0008202099737533
142
0.0
142
0.0
142
0.0
142
0.0
142
1.0
142
0.0
142
0.0
142
0.0
142
0.0
142
1.0
179
     0
144
0.0008202099737533
144
0.0
144
0.0
144
0.0
144
0.0
144
0.0008202099737533
144
0.0
144
0.0
144
0.0
144
0.0
144
1.0
144
0.0
144
0.0
144
0.0
144
0.0
144
1.0
147
0.0008202099737533
147
0.0
147
0.0
147
0.0
147
0.0
147
0.0008202099737533
147
0.0
147
0.0
147
0.0
147
0.0
147
1.0
147
0.0
147
0.0
147
0.0
147
0.0
147
1.0
  0
MATERIAL
  5
8F7
102
{ACAD_XDICTIONARY
360
8F8
102
}
102
{ACAD_REACTORS
330
8E6
102
}
330
8E6
100
AcDbMaterial
  1
Global
 72
     0
 43
0.0008202099737533
 43
0.0
 43
0.0
 43
0.0
 43
0.0
 43
0.0008202099737533
 43
0.0
 43
0.0
 43
0.0
 43
0.0
 43
1.0
 43
0.0
 43
0.0
 43
0.0
 43
0.0
 43
1.0
 77
     0
 47
0.0008202099737533
 47
0.0
 47
0.0
 47
0.0
 47
0.0
 47
0.0008202099737533
 47
0.0
 47
0.0
 47
0.0
 47
0.0
 47
1.0
 47
0.0
 47
0.0
 47
0.0
 47
0.0
 47
1.0
171
     0
 49
0.0008202099737533
 49
0.0
 49
0.0
 49
0.0
 49
0.0
 49
0.0008202099737533
 49
0.0
 49
0.0
 49
0.0
 49
0.0
 49
1.0
 49
0.0
 49
0.0
 49
0.0
 49
0.0
 49
1.0
175
     0
142
0.0008202099737533
142
0.0
142
0.0
142
0.0
142
0.0
142
0.0008202099737533
142
0.0
142
0.0
142
0.0
142
0.0
142
1.0
142
0.0
142
0.0
142
0.0
142
0.0
142
1.0
179
     0
144
0.0008202099737533
144
0.0
144
0.0
144
0.0
144
0.0
144
0.0008202099737533
144
0.0
144
0.0
144
0.0
144
0.0
144
1.0
144
0.0
144
0.0
144
0.0
144
0.0
144
1.0
147
0.0008202099737533
147
0.0
147
0.0
147
0.0
147
0.0
147
0.0008202099737533
147
0.0
147
0.0
147
0.0
147
0.0
147
1.0
147
0.0
147
0.0
147
0.0
147
0.0
147
1.0
  0
MLEADERSTYLE
  5
91C
102
{ACAD_REACTORS
330
91B
102
}
330
91B
100
AcDbMLeaderStyle
170
     2
171
     1
172
     0
 90
        2
 40
0.0
 41
0.0
173
     1
 91
-1056964608
340
14
 92
       -2
290
     1
 42
2.0
291
     1
 43
0.36
  3
Standard
 44
4.0
300

342
11
174
     1
178
     6
175
     1
176
     0
 93
-1056964608
 45
4.0
292
     0
297
     0
 46
4.0
 94
-1056964608
 47
1.0
 49
1.0
140
1.0
293
     1
141
0.0
294
     1
177
     0
142
1.0
295
     0
296
     0
143
0.125
1001
ACAD_MLEADERVER
1070
     2
  0
MLINESTYLE
  5
18
102
{ACAD_REACTORS
330
17
102
}
330
17
100
AcDbMlineStyle
  2
STANDARD
 70
     0
  3

 62
   256
 51
90.0
 52
90.0
 71
     2
 49
0.5
 62
   256
  6
BYLAYER
 49
-0.5
 62
   256
  6
BYLAYER
  0
ACDBPLACEHOLDER
  5
F
102
{ACAD_REACTORS
330
E
102
}
330
E
  0
SCALE
  5
93
102
{ACAD_REACTORS
330
92
102
}
330
92
100
AcDbScale
 70
     0
300
1:1
140
1.0
141
1.0
290
     1
  0
SCALE
  5
94
102
{ACAD_REACTORS
330
92
102
}
330
92
100
AcDbScale
 70
     0
300
1:2
140
1.0
141
2.0
290
     0
  0
SCALE
  5
95
102
{ACAD_REACTORS
330
92
102
}
330
92
100
AcDbScale
 70
     0
300
1:4
140
1.0
141
4.0
290
     0
  0
SCALE
  5
96
102
{ACAD_REACTORS
330
92
102
}
330
92
100
AcDbScale
 70
     0
300
1:5
140
1.0
141
5.0
290
     0
  0
SCALE
  5
97
102
{ACAD_REACTORS
330
92
102
}
330
92
100
AcDbScale
 70
     0
300
1:8
140
1.0
141
8.0
290
     0
  0
SCALE
  5
98
102
{ACAD_REACTORS
330
92
102
}
330
92
100
AcDbScale
 70
     0
300
1:10
140
1.0
141
10.0
290
     0
  0
SCALE
  5
99
102
{ACAD_REACTORS
330
92
102
}
330
92
100
AcDbScale
 70
     0
300
1:16
140
1.0
141
16.0
290
     0
  0
SCALE
  5
9A
102
{ACAD_REACTORS
330
92
102
}
330
92
100
AcDbScale
 70
     0
300
1:20
140
1.0
141
20.0
290
     0
  0
SCALE
  5
9B
102
{ACAD_REACTORS
330
92
102
}
330
92
100
AcDbScale
 70
     0
300
1:30
140
1.0
141
30.0
290
     0
  0
SCALE
  5
9C
102
{ACAD_REACTORS
330
92
102
}
330
92
100
AcDbScale
 70
     0
300
1:40
140
1.0
141
40.0
290
     0
  0
SCALE
  5
9D
102
{ACAD_REACTORS
330
92
102
}
330
92
100
AcDbScale
 70
     0
300
1:50
140
1.0
141
50.0
290
     0
  0
SCALE
  5
9E
102
{ACAD_REACTORS
330
92
102
}
330
92
100
AcDbScale
 70
     0
300
1:100
140
1.0
141
100.0
290
     0
  0
SCALE
  5
9F
102
{ACAD_REACTORS
330
92
102
}
330
92
100
AcDbScale
 70
     0
300
2:1
140
2.0
141
1.0
290
     0
  0
SCALE
  5
A0
102
{ACAD_REACTORS
330
92
102
}
330
92
100
AcDbScale
 70
     0
300
4:1
140
4.0
141
1.0
290
     0
  0
SCALE
  5
A1
102
{ACAD_REACTORS
330
92
102
}
330
92
100
AcDbScale
 70
     0
300
8:1
140
8.0
141
1.0
290
     0
  0
SCALE
  5
A2
102
{ACAD_REACTORS
330
92
102
}
330
92
100
AcDbScale
 70
     0
300
10:1
140
10.0
141
1.0
290
     0
  0
SCALE
  5
A3
102
{ACAD_REACTORS
330
92
102
}
330
92
100
AcDbScale
 70
     0
300
100:1
140
100.0
141
1.0
290
     0
  0
SCALE
  5
A4
102
{ACAD_REACTORS
330
92
102
}
330
92
100
AcDbScale
 70
     0
300
1/128" = 1'-0"
140
0.0078125
141
12.0
290
     0
  0
SCALE
  5
A5
102
{ACAD_REACTORS
330
92
102
}
330
92
100
AcDbScale
 70
     0
300
1/64" = 1'-0"
140
0.015625
141
12.0
290
     0
  0
SCALE
  5
A6
102
{ACAD_REACTORS
330
92
102
}
330
92
100
AcDbScale
 70
     0
300
1/32" = 1'-0"
140
0.03125
141
12.0
290
     0
  0
SCALE
  5
A7
102
{ACAD_REACTORS
330
92
102
}
330
92
100
AcDbScale
 70
     0
300
1/16" = 1'-0"
140
0.0625
141
12.0
290
     0
  0
SCALE
  5
A8
102
{ACAD_REACTORS
330
92
102
}
330
92
100
AcDbScale
 70
     0
300
3/32" = 1'-0"
140
0.09375
141
12.0
290
     0
  0
SCALE
  5
A9
102
{ACAD_REACTORS
330
92
102
}
330
92
100
AcDbScale
 70
     0
300
1/8" = 1'-0"
140
0.125
141
12.0
290
     0
  0
SCALE
  5
AA
102
{ACAD_REACTORS
330
92
102
}
330
92
100
AcDbScale
 70
     0
300
3/16" = 1'-0"
140
0.1875
141
12.0
290
     0
  0
SCALE
  5
AB
102
{ACAD_REACTORS
330
92
102
}
330
92
100
AcDbScale
 70
     0
300
1/4" = 1'-0"
140
0.25
141
12.0
290
     0
  0
SCALE
  5
AC
102
{ACAD_REACTORS
330
92
102
}
330
92
100
AcDbScale
 70
     0
300
3/8" = 1'-0"
140
0.375
141
12.0
290
     0
  0
SCALE
  5
AD
102
{ACAD_REACTORS
330
92
102
}
330
92
100
AcDbScale
 70
     0
300
1/2" = 1'-0"
140
0.5
141
12.0
290
     0
  0
SCALE
  5
AE
102
{ACAD_REACTORS
330
92
102
}
330
92
100
AcDbScale
 70
     0
300
3/4" = 1'-0"
140
0.75
141
12.0
290
     0
  0
SCALE
  5
AF
102
{ACAD_REACTORS
330
92
102
}
330
92
100
AcDbScale
 70
     0
300
1" = 1'-0"
140
1.0
141
12.0
290
     0
  0
SCALE
  5
B0
102
{ACAD_REACTORS
330
92
102
}
330
92
100
AcDbScale
 70
     0
300
1-1/2" = 1'-0"
140
1.5
141
12.0
290
     0
  0
SCALE
  5
B1
102
{ACAD_REACTORS
330
92
102
}
330
92
100
AcDbScale
 70
     0
300
3" = 1'-0"
140
3.0
141
12.0
290
     0
  0
SCALE
  5
B2
102
{ACAD_REACTORS
330
92
102
}
330
92
100
AcDbScale
 70
     0
300
6" = 1'-0"
140
6.0
141
12.0
290
     0
  0
SCALE
  5
B3
102
{ACAD_REACTORS
330
92
102
}
330
92
100
AcDbScale
 70
     0
300
1'-0" = 1'-0"
140
12.0
141
12.0
290
     0
  0
ACDBSECTIONVIEWSTYLE
  5
B6C
102
{ACAD_XDICTIONARY
360
1774
102
}
102
{ACAD_REACTORS
330
437
102
}
330
437
100
AcDbModelDocViewStyle
 70
     0
  3
Imperial24
290
     0
100
AcDbSectionViewStyle
 70
     0
 71
     0
 90
       78
 71
     1
340
11
 40
0.24
340
0
340
0
 40
0.24
300
I, O, Q, S, X, Z
 40
0.48
 90
        3
 40
0.18
 90
        1
 71
     2
340
16
 90
       25
340
16
 90
       50
 40
0.24
 40
0.0
 40
0.24
 71
     3
340
11
 40
0.24
 90
        1
 40
0.75
 90
        1
300
%<\AcVar ViewType \f "%tc1">% %<\AcVar ViewSectionStartId>%-%<\AcVar ViewSectionEndId>%\PSCALE %<\AcVar ViewScale \f "%sn">%
 71
     4
300
ANSI31
 40
1.0
 90
        0
290
     0
290
     0
 90
        6
 40
0.0
 40
1.570796326794896
 40
0.2617993877991494
 40
1.308996938995747
 40
-0.2617993877991494
 40
1.832595714594044
  0
ACDBSECTIONVIEWSTYLE
  5
91D
102
{ACAD_XDICTIONARY
360
1770
102
}
102
{ACAD_REACTORS
330
437
102
}
330
437
100
AcDbModelDocViewStyle
 70
     0
  3
Metric50
290
     0
100
AcDbSectionViewStyle
 70
     0
 71
     0
 90
      102
 71
     1
340
11
 40
5.0
340
0
340
0
 40
5.0
300
I, O, Q, S, X, Z
 40
10.0
 90
        0
 40
2.5
 90
        0
 71
     2
340
16
 90
       25
340
16
 90
       50
 40
5.0
 40
2.5
 40
5.0
 71
     3
340
11
 40
5.0
 90
        0
 40
15.0
 90
        1
300
%<\AcVar ViewSectionStartId>%-%<\AcVar ViewSectionEndId>% (%<\AcVar ViewScale \f "%sn">%)
 71
     4
300
ANSI31
 40
1.0
 90
        0
290
     0
290
     0
 90
        6
 40
0.0
 40
1.570796326794896
 40
0.2617993877991494
 40
1.308996938995747
 40
-0.2617993877991494
 40
1.832595714594044
  0
TABLESTYLE
  5
91A
102
{ACAD_XDICTIONARY
360
10B6
102
}
102
{ACAD_REACTORS
330
919
102
}
330
919
100
AcDbTableStyle
  3
Standard
 70
     0
 71
     0
 40
1.5
 41
1.5
280
     0
281
     0
  7
Standard
140
4.5
170
     2
 62
     0
 63
     7
283
     0
274
    -2
284
     1
 64
     0
275
    -2
285
     1
 65
     0
276
    -2
286
     1
 66
     0
277
    -2
287
     1
 67
     0
278
    -2
288
     1
 68
     0
279
    -2
289
     1
 69
     0
  7
Standard
140
6.0
170
     5
 62
     0
 63
     7
283
     0
274
    -2
284
     1
 64
     0
275
    -2
285
     1
 65
     0
276
    -2
286
     1
 66
     0
277
    -2
287
     1
 67
     0
278
    -2
288
     1
 68
     0
279
    -2
289
     1
 69
     0
  7
Standard
140
4.5
170
     5
 62
     0
 63
     7
283
     0
274
    -2
284
     1
 64
     0
275
    -2
285
     1
 65
     0
276
    -2
286
     1
 66
     0
277
    -2
287
     1
 67
     0
278
    -2
288
     1
 68
     0
279
    -2
289
     1
 69
     0
  0
VISUALSTYLE
  5
905
102
{ACAD_XDICTIONARY
360
1749
102
}
102
{ACAD_REACTORS
330
8FF
102
}
330
8FF
100
AcDbVisualStyle
  2

 70
     4
 71
     0
 72
     2
 73
     0
 90
        0
 40
-0.6
 41
-30.0
 62
     5
 63
     7
 74
     1
 91
        4
 64
     7
 65
   257
 75
     1
175
     1
 42
1.0
 92
        0
 66
   257
 43
1.0
 76
     1
 77
     6
 78
     2
 67
     7
 79
     5
170
     0
171
     0
290
     0
174
     0
 93
        1
 44
0.0
173
     0
291
     0
 45
0.0
1001
ACAD
1000
AcDbSavedByObjectVersion
1070
     0
  0
VISUALSTYLE
  5
904
102
{ACAD_XDICTIONARY
360
1747
102
}
102
{ACAD_REACTORS
330
8FF
102
}
330
8FF
100
AcDbVisualStyle
  2

 70
     7
 71
     1
 72
     0
 73
     1
 90
        0
 40
-0.6
 41
-30.0
 62
     5
 63
     7
 74
     0
 91
        4
 64
     7
 65
   257
 75
     1
175
     1
 42
1.0
 92
        8
 66
     7
 43
1.0
 76
     1
 77
     6
 78
     2
 67
     7
 79
     5
170
     0
171
     0
290
     0
174
     0
 93
        1
 44
0.0
173
     0
291
     1
 45
0.0
1001
ACAD
1000
AcDbSavedByObjectVersion
1070
     0
  0
VISUALSTYLE
  5
90B
102
{ACAD_XDICTIONARY
360
1755
102
}
102
{ACAD_REACTORS
330
8FF
102
}
330
8FF
100
AcDbVisualStyle
  2

 70
    12
 71
     2
 72
     2
 73
     0
 90
        0
 40
-0.6
 41
-30.0
 62
     5
 63
     7
 74
     1
 91
        4
 64
     7
 65
   257
 75
     1
175
     1
 42
1.0
 92
        8
 66
     7
 43
1.0
 76
     1
 77
     6
 78
     2
 67
     7
 79
     5
170
     0
171
     0
290
     0
174
     0
 93
        1
 44
50.0
173
     0
291
     1
 45
0.0
1001
ACAD
1000
AcDbSavedByObjectVersion
1070
     0
  0
VISUALSTYLE
  5
90F
102
{ACAD_XDICTIONARY
360
175D
102
}
102
{ACAD_REACTORS
330
8FF
102
}
330
8FF
100
AcDbVisualStyle
  2

 70
    16
 71
     2
 72
     2
 73
     3
 90
        0
 40
-0.6
 41
-30.0
 62
     5
 63
     8
 74
     1
 91
        4
 64
     7
 65
   257
 75
     1
175
     1
 42
1.0
 92
        8
 66
     8
 43
1.0
 76
     1
 77
     6
 78
     2
 67
     7
 79
     5
170
     0
171
     0
290
     0
174
     0
 93
        1
 44
0.0
173
     0
291
     1
 45
0.0
1001
ACAD
1000
AcDbSavedByObjectVersion
1070
     0
  0
VISUALSTYLE
  5
908
102
{ACAD_XDICTIONARY
360
174F
102
}
102
{ACAD_REACTORS
330
8FF
102
}
330
8FF
100
AcDbVisualStyle
  2

 70
     9
 71
     3
 72
     2
 73
     0
 90
        0
 40
-0.6
 41
-30.0
 62
     5
 63
     7
 74
     2
 91
        2
 64
     7
 65
   257
 75
     1
175
     1
 42
179.0
 92
        8
 66
     7
 43
1.0
 76
     1
 77
     6
 78
     2
 67
     7
 79
     3
170
     0
171
     0
290
     0
174
     0
 93
        1
 44
0.0
173
     0
291
     0
 45
0.0
1001
ACAD
1000
AcDbSavedByObjectVersion
1070
     0
  0
VISUALSTYLE
  5
90A
102
{ACAD_XDICTIONARY
360
1753
102
}
102
{ACAD_REACTORS
330
8FF
102
}
330
8FF
100
AcDbVisualStyle
  2

 70
    11
 71
     2
 72
     2
 73
     0
 90
        0
 40
-0.6
 41
-30.0
 62
     5
 63
     7
 74
     1
 91
        4
 64
     7
 65
   257
 75
     1
175
     1
 42
1.0
 92
        8
 66
     7
 43
1.0
 76
     1
 77
     6
 78
     2
 67
     7
 79
     5
170
     0
171
     0
290
     0
174
     0
 93
        1
 44
-50.0
173
     0
291
     1
 45
0.0
1001
ACAD
1000
AcDbSavedByObjectVersion
1070
     0
  0
VISUALSTYLE
  5
917
102
{ACAD_XDICTIONARY
360
176D
102
}
102
{ACAD_REACTORS
330
8FF
102
}
330
8FF
100
AcDbVisualStyle
  2

 70
    22
 71
     2
 72
     2
 73
     0
 90
        0
 40
-0.6
 41
-30.0
 62
     5
 63
     7
 74
     1
 91
        4
 64
     7
 65
   257
 75
     1
175
     1
 42
1.0
 92
        8
 66
     7
 43
1.0
 76
     1
 77
     6
 78
     2
 67
     7
 79
     5
170
     0
171
     0
290
     0
174
     0
 93
        1
 44
0.0
173
     0
291
     1
 45
0.0
1001
ACAD
1000
AcDbSavedByObjectVersion
1070
     0
  0
VISUALSTYLE
  5
90E
102
{ACAD_XDICTIONARY
360
175B
102
}
102
{ACAD_REACTORS
330
8FF
102
}
330
8FF
100
AcDbVisualStyle
  2

 70
    15
 71
     2
 72
     2
 73
     0
 90
        0
 40
-0.6
 41
-30.0
 62
     5
 63
     7
 74
     1
 91
        4
 64
     7
 65
   257
 75
     1
175
     1
 42
1.0
 92
        8
 66
     7
 43
1.0
 76
     1
 77
     6
 78
     2
 67
     7
 79
     5
170
     0
171
     0
290
     0
174
     0
 93
        1
 44
0.0
173
     0
291
     1
 45
0.0
1001
ACAD
1000
AcDbSavedByObjectVersion
1070
     0
  0
VISUALSTYLE
  5
900
102
{ACAD_XDICTIONARY
360
173F
102
}
102
{ACAD_REACTORS
330
8FF
102
}
330
8FF
100
AcDbVisualStyle
  2

 70
     0
 71
     2
 72
     1
 73
     1
 90
        2
 40
-0.6
 41
30.0
 62
     5
 63
     7
 74
     0
 91
        0
 64
     7
 65
   257
 75
     1
175
     1
 42
1.0
 92
        8
 66
     7
 43
1.0
 76
     1
 77
     6
 78
     2
 67
     7
 79
     5
170
     0
171
     0
290
     0
174
     0
 93
       13
 44
0.0
173
     0
291
     1
 45
0.0
1001
ACAD
1000
AcDbSavedByObjectVersion
1070
     0
  0
VISUALSTYLE
  5
901
102
{ACAD_XDICTIONARY
360
1741
102
}
102
{ACAD_REACTORS
330
8FF
102
}
330
8FF
100
AcDbVisualStyle
  2

 70
     1
 71
     2
 72
     1
 73
     1
 90
        2
 40
-0.6
 41
30.0
 62
     5
 63
     7
 74
     1
 91
        0
 64
     7
 65
   257
 75
     1
175
     1
 42
1.0
 92
        0
 66
   257
 43
1.0
 76
     1
 77
     6
 78
     2
 67
     7
 79
     5
170
     0
171
     0
290
     0
174
     0
 93
       13
 44
0.0
173
     0
291
     1
 45
0.0
1001
ACAD
1000
AcDbSavedByObjectVersion
1070
     0
  0
VISUALSTYLE
  5
902
102
{ACAD_XDICTIONARY
360
1743
102
}
102
{ACAD_REACTORS
330
8FF
102
}
330
8FF
100
AcDbVisualStyle
  2

 70
     2
 71
     2
 72
     2
 73
     1
 90
        2
 40
-0.6
 41
30.0
 62
     5
 63
     7
 74
     0
 91
        0
 64
     7
 65
   257
 75
     1
175
     1
 42
1.0
 92
        0
 66
     7
 43
1.0
 76
     1
 77
     6
 78
     2
 67
     7
 79
     5
170
     0
171
     0
290
     0
174
     0
 93
       13
 44
0.0
173
     0
291
     1
 45
0.0
1001
ACAD
1000
AcDbSavedByObjectVersion
1070
     0
  0
VISUALSTYLE
  5
903
102
{ACAD_XDICTIONARY
360
1745
102
}
102
{ACAD_REACTORS
330
8FF
102
}
330
8FF
100
AcDbVisualStyle
  2

 70
     3
 71
     2
 72
     2
 73
     1
 90
        2
 40
-0.6
 41
30.0
 62
     5
 63
     7
 74
     1
 91
        0
 64
     7
 65
   257
 75
     1
175
     1
 42
1.0
 92
        0
 66
   257
 43
1.0
 76
     1
 77
     6
 78
     2
 67
     7
 79
     5
170
     0
171
     0
290
     0
174
     0
 93
       13
 44
0.0
173
     0
291
     1
 45
0.0
1001
ACAD
1000
AcDbSavedByObjectVersion
1070
     0
  0
VISUALSTYLE
  5
907
102
{ACAD_XDICTIONARY
360
174D
102
}
102
{ACAD_REACTORS
330
8FF
102
}
330
8FF
100
AcDbVisualStyle
  2

 70
     6
 71
     1
 72
     2
 73
     2
 90
        0
 40
-0.6
 41
-30.0
 62
     5
 63
     7
 74
     2
 91
        2
 64
     7
 65
   257
 75
     2
175
     1
 42
40.0
 92
        0
 66
   257
 43
1.0
 76
     1
 77
     6
 78
     2
 67
     7
 79
     3
170
     0
171
     0
290
     0
174
     0
 93
        1
 44
0.0
173
     0
291
     0
 45
0.0
1001
ACAD
1000
AcDbSavedByObjectVersion
1070
     0
  0
VISUALSTYLE
  5
915
102
{ACAD_XDICTIONARY
360
1769
102
}
102
{ACAD_REACTORS
330
8FF
102
}
330
8FF
100
AcDbVisualStyle
  2

 70
    20
 71
     2
 72
     2
 73
     0
 90
        0
 40
-0.6
 41
-30.0
 62
     5
 63
     7
 74
     1
 91
        4
 64
     7
 65
   257
 75
     1
175
     1
 42
1.0
 92
       10
 66
     7
 43
1.0
 76
     1
 77
     6
 78
     2
 67
     7
 79
     5
170
     0
171
     0
290
     0
174
     0
 93
        1
 44
0.0
173
     0
291
     1
 45
0.0
1001
ACAD
1000
AcDbSavedByObjectVersion
1070
     0
  0
VISUALSTYLE
  5
90D
102
{ACAD_XDICTIONARY
360
1759
102
}
102
{ACAD_REACTORS
330
8FF
102
}
330
8FF
100
AcDbVisualStyle
  2

 70
    14
 71
     2
 72
     2
 73
     0
 90
        0
 40
-0.6
 41
-30.0
 62
     5
 63
     7
 74
     1
 91
        4
 64
     7
 65
   257
 75
     7
175
     7
 42
1.0
 92
        8
 66
     7
 43
1.0
 76
     1
 77
     6
 78
     2
 67
     7
 79
     5
170
     0
171
     0
290
     0
174
     0
 93
        1
 44
0.0
173
     0
291
     1
 45
0.0
1001
ACAD
1000
AcDbSavedByObjectVersion
1070
     0
  0
VISUALSTYLE
  5
916
102
{ACAD_XDICTIONARY
360
176B
102
}
102
{ACAD_REACTORS
330
8FF
102
}
330
8FF
100
AcDbVisualStyle
  2

 70
    21
 71
     2
 72
     2
 73
     0
 90
        0
 40
-0.6
 41
-30.0
 62
     5
 63
     7
 74
     1
 91
        4
 64
     7
 65
   257
 75
     1
175
     1
 42
1.0
 92
        9
 66
     7
 43
1.0
 76
     1
 77
     6
 78
     2
 67
     7
 79
     5
170
     0
171
     0
290
     0
174
     0
 93
        1
 44
0.0
173
     0
291
     1
 45
0.0
1001
ACAD
1000
AcDbSavedByObjectVersion
1070
     0
  0
VISUALSTYLE
  5
909
102
{ACAD_XDICTIONARY
360
1751
102
}
102
{ACAD_REACTORS
330
8FF
102
}
330
8FF
100
AcDbVisualStyle
  2

 70
     8
 71
     2
 72
     3
 73
     0
 90
        2
 40
-0.6
 41
30.0
 62
     5
 63
     7
 74
     0
 91
        0
 64
     7
 65
   257
 75
     1
175
     1
 42
1.0
 92
        8
 66
   257
 43
1.0
 76
     1
 77
     6
 78
     2
 67
     7
 79
     3
170
     0
171
     0
290
     0
174
     0
 93
       13
 44
0.0
173
     0
291
     0
 45
0.0
1001
ACAD
1000
AcDbSavedByObjectVersion
1070
     0
  0
VISUALSTYLE
  5
914
102
{ACAD_XDICTIONARY
360
1767
102
}
102
{ACAD_REACTORS
330
8FF
102
}
330
8FF
100
AcDbVisualStyle
  2

 70
    27
 71
     2
 72
     2
 73
     1
 90
        2
 40
-0.6
 41
30.0
 62
     5
 63
     7
 74
     0
 91
        4
 64
     7
 65
   257
 75
     1
175
     1
 42
1.0
 92
        8
 66
   257
 43
1.0
 76
     1
 77
     6
 78
     2
 67
     8
 79
     3
170
     0
171
     0
290
     0
174
     0
 93
        5
 44
0.0
173
     0
291
     0
 45
0.0
1001
ACAD
1000
AcDbSavedByObjectVersion
1070
     0
  0
VISUALSTYLE
  5
913
102
{ACAD_XDICTIONARY
360
1765
102
}
102
{ACAD_REACTORS
330
8FF
102
}
330
8FF
100
AcDbVisualStyle
  2

 70
    26
 71
     2
 72
     2
 73
     1
 90
        2
 40
-0.6
 41
30.0
 62
     5
 63
     7
 74
     1
 91
        2
 64
     7
 65
   257
 75
     2
175
     1
 42
1.0
 92
        8
 66
   257
 43
1.0
 76
     1
 77
     6
 78
     2
 67
     7
 79
     3
170
     0
171
     0
290
     0
174
     0
 93
        5
 44
0.0
173
     0
291
     0
 45
0.0
1001
ACAD
1000
AcDbSavedByObjectVersion
1070
     0
  0
VISUALSTYLE
  5
910
102
{ACAD_XDICTIONARY
360
175F
102
}
102
{ACAD_REACTORS
330
8FF
102
}
330
8FF
100
AcDbVisualStyle
  2

 70
    23
 71
     2
 72
     2
 73
     3
 90
        0
 40
-0.6
 41
-30.0
 62
     5
 63
     7
 74
     2
 91
        2
 64
     7
 65
     7
 75
     1
175
     1
 42
40.0
 92
        8
 66
     7
 43
1.0
 76
     1
 77
     6
 78
     2
 67
     7
 79
     3
170
     0
171
     0
290
     0
174
     0
 93
        1
 44
0.0
173
     0
291
     0
 45
0.0
1001
ACAD
1000
AcDbSavedByObjectVersion
1070
     0
  0
VISUALSTYLE
  5
911
102
{ACAD_XDICTIONARY
360
1761
102
}
102
{ACAD_REACTORS
330
8FF
102
}
330
8FF
100
AcDbVisualStyle
  2

 70
    24
 71
     1
 72
     2
 73
     2
 90
        0
 40
-0.6
 41
-30.0
 62
     5
 63
     7
 74
     2
 91
        2
 64
     7
 65
     7
 75
     1
175
     1
 42
40.0
 92
       11
 66
     7
 43
1.0
 76
     1
 77
     6
 78
     2
 67
     7
 79
     6
170
     0
171
     0
290
     0
174
     0
 93
        1
 44
0.0
173
     0
291
     0
 45
0.0
1001
ACAD
1000
AcDbSavedByObjectVersion
1070
     0
  0
VISUALSTYLE
  5
90C
102
{ACAD_XDICTIONARY
360
1757
102
}
102
{ACAD_REACTORS
330
8FF
102
}
330
8FF
100
AcDbVisualStyle
  2

 70
    13
 71
     2
 72
     2
 73
     0
 90
        0
 40
-0.6
 41
-30.0
 62
     5
 63
     7
 74
     1
 91
        4
 64
     7
 65
   257
 75
     1
175
     1
 42
1.0
 92
       12
 66
     7
 43
1.0
 76
     1
 77
     6
 78
     2
 67
     7
 79
     5
170
     0
171
     0
290
     0
174
     0
 93
        1
 44
0.0
173
     0
291
     1
 45
0.0
1001
ACAD
1000
AcDbSavedByObjectVersion
1070
     0
  0
VISUALSTYLE
  5
906
102
{ACAD_XDICTIONARY
360
174B
102
}
102
{ACAD_REACTORS
330
8FF
102
}
330
8FF
100
AcDbVisualStyle
  2

 70
     5
 71
     0
 72
     2
 73
     0
 90
        0
 40
-0.6
 41
-30.0
 62
     5
 63
     7
 74
     1
 91
        4
 64
     7
 65
   257
 75
     1
175
     1
 42
1.0
 92
        0
 66
   257
 43
1.0
 76
     1
 77
     6
 78
     2
 67
     7
 79
     3
170
     0
171
     0
290
     0
174
     0
 93
        1
 44
0.0
173
     0
291
     0
 45
0.0
1001
ACAD
1000
AcDbSavedByObjectVersion
1070
     0
  0
VISUALSTYLE
  5
912
102
{ACAD_XDICTIONARY
360
1763
102
}
102
{ACAD_REACTORS
330
8FF
102
}
330
8FF
100
AcDbVisualStyle
  2

 70
    25
 71
     2
 72
     2
 73
     1
 90
        1
 40
0.5
 41
-30.0
 62
     5
 63
     7
 74
     1
 91
        0
 64
     7
 65
   257
 75
     1
175
     1
 42
1.0
 92
        8
 66
     7
 43
1.0
 76
     1
 77
     6
 78
     2
 67
     7
 79
     3
170
     0
171
     0
290
     0
174
     0
 93
       13
 44
0.0
173
     0
291
     0
 45
0.0
1001
ACAD
1000
AcDbSavedByObjectVersion
1070
     0
  0
DICTIONARYVAR
  5
93B
102
{ACAD_REACTORS
330
22B
102
}
330
22B
100
DictionaryVariables
280
     0
  1
1:1
  0
DICTIONARYVAR
  5
938
102
{ACAD_REACTORS
330
22B
102
}
330
22B
100
DictionaryVariables
280
     0
  1
STANDARD
  0
DICTIONARYVAR
  5
937
102
{ACAD_REACTORS
330
22B
102
}
330
22B
100
DictionaryVariables
280
     0
  1
STANDARD
  0
DICTIONARYVAR
  5
939
102
{ACAD_REACTORS
330
22B
102
}
330
22B
100
DictionaryVariables
280
     0
  1
Metric50
  0
DICTIONARYVAR
  5
93A
102
{ACAD_REACTORS
330
22B
102
}
330
22B
100
DictionaryVariables
280
     0
  1
Metric50
  0
DICTIONARYVAR
  5
231
102
{ACAD_REACTORS
330
22B
102
}
330
22B
100
DictionaryVariables
280
     0
  1
2
  0
DICTIONARYVAR
  5
232
102
{ACAD_REACTORS
330
22B
102
}
330
22B
100
DictionaryVariables
280
     0
  1
1
  0
DICTIONARYVAR
  5
93D
102
{ACAD_REACTORS
330
22B
102
}
330
22B
100
DictionaryVariables
280
     0
  1
0
  0
DICTIONARYVAR
  5
93C
102
{ACAD_REACTORS
330
22B
102
}
330
22B
100
DictionaryVariables
280
     0
  1
127
  0
DICTIONARYVAR
  5
1735
102
{ACAD_REACTORS
330
22B
102
}
330
22B
100
DictionaryVariables
280
     0
  1
2
  0
DICTIONARY
  5
1776
330
B6D
100
AcDbDictionary
280
     1
281
     1
  3
ACAD_XREC_ROUNDTRIP
360
1777
  0
DICTIONARY
  5
1772
330
91E
100
AcDbDictionary
280
     1
281
     1
  3
ACAD_XREC_ROUNDTRIP
360
1773
  0
DICTIONARY
  5
1739
330
1E
100
AcDbDictionary
280
     1
281
     1
  3
ACAD_XREC_ROUNDTRIP
360
173A
  0
DICTIONARY
  5
173D
330
26
100
AcDbDictionary
280
     1
281
     1
  3
ACAD_XREC_ROUNDTRIP
360
173E
  0
DICTIONARY
  5
173B
330
22
100
AcDbDictionary
280
     1
281
     1
  3
ACAD_XREC_ROUNDTRIP
360
173C
  0
DICTIONARY
  5
8F0
330
8EF
100
AcDbDictionary
280
     1
281
     1
  3
ACAD_XREC_ROUNDTRIP
360
10C1
  3
BUMPTILE
360
8F2
  3
DIFFUSETILE
360
8F1
  3
OPACITYTILE
360
8F5
  3
REFLECTIONTILE
360
8F4
  3
REFRACTIONTILE
360
8F6
  3
SPECULARTILE
360
8F3
  0
DICTIONARY
  5
8E8
330
8E7
100
AcDbDictionary
280
     1
281
     1
  3
ACAD_XREC_ROUNDTRIP
360
10C0
  3
BUMPTILE
360
8EA
  3
DIFFUSETILE
360
8E9
  3
OPACITYTILE
360
8ED
  3
REFLECTIONTILE
360
8EC
  3
REFRACTIONTILE
360
8EE
  3
SPECULARTILE
360
8EB
  0
DICTIONARY
  5
8F8
330
8F7
100
AcDbDictionary
280
     1
281
     1
  3
ACAD_XREC_ROUNDTRIP
360
10C2
  3
BUMPTILE
360
8FA
  3
DIFFUSETILE
360
8F9
  3
OPACITYTILE
360
8FD
  3
REFLECTIONTILE
360
8FC
  3
REFRACTIONTILE
360
8FE
  3
SPECULARTILE
360
8FB
  0
DICTIONARY
  5
1774
330
B6C
100
AcDbDictionary
280
     1
281
     1
  3
ACAD_XREC_ROUNDTRIP
360
1775
  0
DICTIONARY
  5
1770
330
91D
100
AcDbDictionary
280
     1
281
     1
  3
ACAD_XREC_ROUNDTRIP
360
1771
  0
DICTIONARY
  5
10B6
330
91A
100
AcDbDictionary
280
     1
281
     1
  3
ACAD_ROUNDTRIP_2008_TABLESTYLE_CELLSTYLEMAP
360
1736
  3
ACAD_XREC_ROUNDTRIP
360
176F
  0
DICTIONARY
  5
1749
330
905
100
AcDbDictionary
280
     1
281
     1
  3
ACAD_XREC_ROUNDTRIP
360
174A
  0
DICTIONARY
  5
1747
330
904
100
AcDbDictionary
280
     1
281
     1
  3
ACAD_XREC_ROUNDTRIP
360
1748
  0
DICTIONARY
  5
1755
330
90B
100
AcDbDictionary
280
     1
281
     1
  3
ACAD_XREC_ROUNDTRIP
360
1756
  0
DICTIONARY
  5
175D
330
90F
100
AcDbDictionary
280
     1
281
     1
  3
ACAD_XREC_ROUNDTRIP
360
175E
  0
DICTIONARY
  5
174F
330
908
100
AcDbDictionary
280
     1
281
     1
  3
ACAD_XREC_ROUNDTRIP
360
1750
  0
DICTIONARY
  5
1753
330
90A
100
AcDbDictionary
280
     1
281
     1
  3
ACAD_XREC_ROUNDTRIP
360
1754
  0
DICTIONARY
  5
176D
330
917
100
AcDbDictionary
280
     1
281
     1
  3
ACAD_XREC_ROUNDTRIP
360
176E
  0
DICTIONARY
  5
175B
330
90E
100
AcDbDictionary
280
     1
281
     1
  3
ACAD_XREC_ROUNDTRIP
360
175C
  0
DICTIONARY
  5
173F
330
900
100
AcDbDictionary
280
     1
281
     1
  3
ACAD_XREC_ROUNDTRIP
360
1740
  0
DICTIONARY
  5
1741
330
901
100
AcDbDictionary
280
     1
281
     1
  3
ACAD_XREC_ROUNDTRIP
360
1742
  0
DICTIONARY
  5
1743
330
902
100
AcDbDictionary
280
     1
281
     1
  3
ACAD_XREC_ROUNDTRIP
360
1744
  0
DICTIONARY
  5
1745
330
903
100
AcDbDictionary
280
     1
281
     1
  3
ACAD_XREC_ROUNDTRIP
360
1746
  0
DICTIONARY
  5
174D
330
907
100
AcDbDictionary
280
     1
281
     1
  3
ACAD_XREC_ROUNDTRIP
360
174E
  0
DICTIONARY
  5
1769
330
915
100
AcDbDictionary
280
     1
281
     1
  3
ACAD_XREC_ROUNDTRIP
360
176A
  0
DICTIONARY
  5
1759
330
90D
100
AcDbDictionary
280
     1
281
     1
  3
ACAD_XREC_ROUNDTRIP
360
175A
  0
DICTIONARY
  5
176B
330
916
100
AcDbDictionary
280
     1
281
     1
  3
ACAD_XREC_ROUNDTRIP
360
176C
  0
DICTIONARY
  5
1751
330
909
100
AcDbDictionary
280
     1
281
     1
  3
ACAD_XREC_ROUNDTRIP
360
1752
  0
DICTIONARY
  5
1767
330
914
100
AcDbDictionary
280
     1
281
     1
  3
ACAD_XREC_ROUNDTRIP
360
1768
  0
DICTIONARY
  5
1765
330
913
100
AcDbDictionary
280
     1
281
     1
  3
ACAD_XREC_ROUNDTRIP
360
1766
  0
DICTIONARY
  5
175F
330
910
100
AcDbDictionary
280
     1
281
     1
  3
ACAD_XREC_ROUNDTRIP
360
1760
  0
DICTIONARY
  5
1761
330
911
100
AcDbDictionary
280
     1
281
     1
  3
ACAD_XREC_ROUNDTRIP
360
1762
  0
DICTIONARY
  5
1757
330
90C
100
AcDbDictionary
280
     1
281
     1
  3
ACAD_XREC_ROUNDTRIP
360
1758
  0
DICTIONARY
  5
174B
330
906
100
AcDbDictionary
280
     1
281
     1
  3
ACAD_XREC_ROUNDTRIP
360
174C
  0
DICTIONARY
  5
1763
330
912
100
AcDbDictionary
280
     1
281
     1
  3
ACAD_XREC_ROUNDTRIP
360
1764
  0
XRECORD
  5
1777
102
{ACAD_REACTORS
330
1776
102
}
330
1776
100
AcDbXrecord
280
     1
102
DISPLAYNAME
  1
Imperial24
102
FLAGS
 90
        0
  0
XRECORD
  5
1773
102
{ACAD_REACTORS
330
1772
102
}
330
1772
100
AcDbXrecord
280
     1
102
DISPLAYNAME
  1
Metric50
102
FLAGS
 90
        0
  0
XRECORD
  5
173A
102
{ACAD_REACTORS
330
1739
102
}
330
1739
100
AcDbXrecord
280
     1
102
SHADEPLOT
 70
     0
102
SHADEPLOTRESLEVEL
 70
     2
102
SHADEPLOTCUSTOMDPI
 70
   300
  0
XRECORD
  5
173E
102
{ACAD_REACTORS
330
173D
102
}
330
173D
100
AcDbXrecord
280
     1
102
SHADEPLOT
 70
     0
102
SHADEPLOTRESLEVEL
 70
     2
102
SHADEPLOTCUSTOMDPI
 70
   300
  0
XRECORD
  5
173C
102
{ACAD_REACTORS
330
173B
102
}
330
173B
100
AcDbXrecord
280
     1
102
SHADEPLOT
 70
     0
102
SHADEPLOTRESLEVEL
 70
     2
102
SHADEPLOTCUSTOMDPI
 70
   300
  0
XRECORD
  5
10C1
102
{ACAD_REACTORS
330
8F0
102
}
330
8F0
100
AcDbXrecord
280
     1
102
MATERIAL
148
0.0
149
0.0
149
0.0
 93
        0
 94
      127
282
     0
 72
     0
 77
     0
171
     0
175
     0
179
     0
273
     0
  0
XRECORD
  5
8F2
102
{ACAD_REACTORS
330
8F0
102
}
330
8F0
100
AcDbXrecord
280
     1
270
     1
271
     1
  0
XRECORD
  5
8F1
102
{ACAD_REACTORS
330
8F0
102
}
330
8F0
100
AcDbXrecord
280
     1
270
     1
271
     1
  0
XRECORD
  5
8F5
102
{ACAD_REACTORS
330
8F0
102
}
330
8F0
100
AcDbXrecord
280
     1
270
     1
271
     1
  0
XRECORD
  5
8F4
102
{ACAD_REACTORS
330
8F0
102
}
330
8F0
100
AcDbXrecord
280
     1
270
     1
271
     1
  0
XRECORD
  5
8F6
102
{ACAD_REACTORS
330
8F0
102
}
330
8F0
100
AcDbXrecord
280
     1
270
     1
271
     1
  0
XRECORD
  5
8F3
102
{ACAD_REACTORS
330
8F0
102
}
330
8F0
100
AcDbXrecord
280
     1
270
     1
271
     1
  0
XRECORD
  5
10C0
102
{ACAD_REACTORS
330
8E8
102
}
330
8E8
100
AcDbXrecord
280
     1
102
MATERIAL
148
0.0
149
0.0
149
0.0
 93
        0
 94
      127
282
     0
 72
     0
 77
     0
171
     0
175
     0
179
     0
273
     0
  0
XRECORD
  5
8EA
102
{ACAD_REACTORS
330
8E8
102
}
330
8E8
100
AcDbXrecord
280
     1
270
     1
271
     1
  0
XRECORD
  5
8E9
102
{ACAD_REACTORS
330
8E8
102
}
330
8E8
100
AcDbXrecord
280
     1
270
     1
271
     1
  0
XRECORD
  5
8ED
102
{ACAD_REACTORS
330
8E8
102
}
330
8E8
100
AcDbXrecord
280
     1
270
     1
271
     1
  0
XRECORD
  5
8EC
102
{ACAD_REACTORS
330
8E8
102
}
330
8E8
100
AcDbXrecord
280
     1
270
     1
271
     1
  0
XRECORD
  5
8EE
102
{ACAD_REACTORS
330
8E8
102
}
330
8E8
100
AcDbXrecord
280
     1
270
     1
271
     1
  0
XRECORD
  5
8EB
102
{ACAD_REACTORS
330
8E8
102
}
330
8E8
100
AcDbXrecord
280
     1
270
     1
271
     1
  0
XRECORD
  5
10C2
102
{ACAD_REACTORS
330
8F8
102
}
330
8F8
100
AcDbXrecord
280
     1
102
MATERIAL
148
0.0
149
0.0
149
0.0
 93
        0
 94
      127
282
     0
 72
     0
 77
     0
171
     0
175
     0
179
     0
273
     0
  0
XRECORD
  5
8FA
102
{ACAD_REACTORS
330
8F8
102
}
330
8F8
100
AcDbXrecord
280
     1
270
     1
271
     1
  0
XRECORD
  5
8F9
102
{ACAD_REACTORS
330
8F8
102
}
330
8F8
100
AcDbXrecord
280
     1
270
     1
271
     1
  0
XRECORD
  5
8FD
102
{ACAD_REACTORS
330
8F8
102
}
330
8F8
100
AcDbXrecord
280
     1
270
     1
271
     1
  0
XRECORD
  5
8FC
102
{ACAD_REACTORS
330
8F8
102
}
330
8F8
100
AcDbXrecord
280
     1
270
     1
271
     1
  0
XRECORD
  5
8FE
102
{ACAD_REACTORS
330
8F8
102
}
330
8F8
100
AcDbXrecord
280
     1
270
     1
271
     1
  0
XRECORD
  5
8FB
102
{ACAD_REACTORS
330
8F8
102
}
330
8F8
100
AcDbXrecord
280
     1
270
     1
271
     1
  0
XRECORD
  5
1775
102
{ACAD_REACTORS
330
1774
102
}
330
1774
100
AcDbXrecord
280
     1
102
DISPLAYNAME
  1
Imperial24
102
FLAGS
 90
        0
  0
XRECORD
  5
1771
102
{ACAD_REACTORS
330
1770
102
}
330
1770
100
AcDbXrecord
280
     1
102
DISPLAYNAME
  1
Metric50
102
FLAGS
 90
        0
  0
CELLSTYLEMAP
  5
1736
102
{ACAD_REACTORS
330
10B6
102
}
330
10B6
100
AcDbCellStyleMap
 90
        3
300
CELLSTYLE
  1
TABLEFORMAT_BEGIN
 90
        5
170
     1
 91
        0
 92
    32768
 62
   257
 93
        1
300
CONTENTFORMAT
  1
CONTENTFORMAT_BEGIN
 90
        0
 91
        0
 92
      512
 93
        0
300

 40
0.0
140
1.0
 94
        5
 62
     0
340
11
144
6.0
309
CONTENTFORMAT_END
171
     1
301
MARGIN
  1
CELLMARGIN_BEGIN
 40
1.5
 40
1.5
 40
1.5
 40
1.5
 40
0.18
 40
0.18
309
CELLMARGIN_END
 94
        6
 95
        1
302
GRIDFORMAT
  1
GRIDFORMAT_BEGIN
 90
        0
 91
        1
 62
     0
 92
       -2
340
0
 93
        0
 40
1.125
309
GRIDFORMAT_END
 95
        2
302
GRIDFORMAT
  1
GRIDFORMAT_BEGIN
 90
        0
 91
        1
 62
     0
 92
       -2
340
0
 93
        0
 40
1.125
309
GRIDFORMAT_END
 95
        4
302
GRIDFORMAT
  1
GRIDFORMAT_BEGIN
 90
        0
 91
        1
 62
     0
 92
       -2
340
0
 93
        0
 40
1.125
309
GRIDFORMAT_END
 95
        8
302
GRIDFORMAT
  1
GRIDFORMAT_BEGIN
 90
        0
 91
        1
 62
     0
 92
       -2
340
0
 93
        0
 40
1.125
309
GRIDFORMAT_END
 95
       16
302
GRIDFORMAT
  1
GRIDFORMAT_BEGIN
 90
        0
 91
        1
 62
     0
 92
       -2
340
0
 93
        0
 40
1.125
309
GRIDFORMAT_END
 95
       32
302
GRIDFORMAT
  1
GRIDFORMAT_BEGIN
 90
        0
 91
        1
 62
     0
 92
       -2
340
0
 93
        0
 40
1.125
309
GRIDFORMAT_END
309
TABLEFORMAT_END
  1
CELLSTYLE_BEGIN
 90
        1
 91
        1
300
_TITLE
309
CELLSTYLE_END
300
CELLSTYLE
  1
TABLEFORMAT_BEGIN
 90
        5
170
     1
 91
        0
 92
        0
 62
   257
 93
        1
300
CONTENTFORMAT
  1
CONTENTFORMAT_BEGIN
 90
        0
 91
        0
 92
      512
 93
        0
300

 40
0.0
140
1.0
 94
        5
 62
     0
340
11
144
4.5
309
CONTENTFORMAT_END
171
     1
301
MARGIN
  1
CELLMARGIN_BEGIN
 40
1.5
 40
1.5
 40
1.5
 40
1.5
 40
0.18
 40
0.18
309
CELLMARGIN_END
 94
        6
 95
        1
302
GRIDFORMAT
  1
GRIDFORMAT_BEGIN
 90
        0
 91
        1
 62
     0
 92
       -2
340
0
 93
        0
 40
1.125
309
GRIDFORMAT_END
 95
        2
302
GRIDFORMAT
  1
GRIDFORMAT_BEGIN
 90
        0
 91
        1
 62
     0
 92
       -2
340
0
 93
        0
 40
1.125
309
GRIDFORMAT_END
 95
        4
302
GRIDFORMAT
  1
GRIDFORMAT_BEGIN
 90
        0
 91
        1
 62
     0
 92
       -2
340
0
 93
        0
 40
1.125
309
GRIDFORMAT_END
 95
        8
302
GRIDFORMAT
  1
GRIDFORMAT_BEGIN
 90
        0
 91
        1
 62
     0
 92
       -2
340
0
 93
        0
 40
1.125
309
GRIDFORMAT_END
 95
       16
302
GRIDFORMAT
  1
GRIDFORMAT_BEGIN
 90
        0
 91
        1
 62
     0
 92
       -2
340
0
 93
        0
 40
1.125
309
GRIDFORMAT_END
 95
       32
302
GRIDFORMAT
  1
GRIDFORMAT_BEGIN
 90
        0
 91
        1
 62
     0
 92
       -2
340
0
 93
        0
 40
1.125
309
GRIDFORMAT_END
309
TABLEFORMAT_END
  1
CELLSTYLE_BEGIN
 90
        2
 91
        1
300
_HEADER
309
CELLSTYLE_END
300
CELLSTYLE
  1
TABLEFORMAT_BEGIN
 90
        5
170
     1
 91
        0
 92
        0
 62
   257
 93
        1
300
CONTENTFORMAT
  1
CONTENTFORMAT_BEGIN
 90
        0
 91
        0
 92
      512
 93
        0
300

 40
0.0
140
1.0
 94
        2
 62
     0
340
11
144
4.5
309
CONTENTFORMAT_END
171
     1
301
MARGIN
  1
CELLMARGIN_BEGIN
 40
1.5
 40
1.5
 40
1.5
 40
1.5
 40
0.18
 40
0.18
309
CELLMARGIN_END
 94
        6
 95
        1
302
GRIDFORMAT
  1
GRIDFORMAT_BEGIN
 90
        0
 91
        1
 62
     0
 92
       -2
340
0
 93
        0
 40
1.125
309
GRIDFORMAT_END
 95
        2
302
GRIDFORMAT
  1
GRIDFORMAT_BEGIN
 90
        0
 91
        1
 62
     0
 92
       -2
340
0
 93
        0
 40
1.125
309
GRIDFORMAT_END
 95
        4
302
GRIDFORMAT
  1
GRIDFORMAT_BEGIN
 90
        0
 91
        1
 62
     0
 92
       -2
340
0
 93
        0
 40
1.125
309
GRIDFORMAT_END
 95
        8
302
GRIDFORMAT
  1
GRIDFORMAT_BEGIN
 90
        0
 91
        1
 62
     0
 92
       -2
340
0
 93
        0
 40
1.125
309
GRIDFORMAT_END
 95
       16
302
GRIDFORMAT
  1
GRIDFORMAT_BEGIN
 90
        0
 91
        1
 62
     0
 92
       -2
340
0
 93
        0
 40
1.125
309
GRIDFORMAT_END
 95
       32
302
GRIDFORMAT
  1
GRIDFORMAT_BEGIN
 90
        0
 91
        1
 62
     0
 92
       -2
340
0
 93
        0
 40
1.125
309
GRIDFORMAT_END
309
TABLEFORMAT_END
  1
CELLSTYLE_BEGIN
 90
        3
 91
        2
300
_DATA
309
CELLSTYLE_END
  0
XRECORD
  5
176F
102
{ACAD_REACTORS
330
10B6
102
}
330
10B6
100
AcDbXrecord
280
     1
102
ACAD_ROUNDTRIP_PRE2007_TABLESTYLE
 90
      512
 91
        0
  1

 92
      512
 93
        0
  2

 94
      512
 95
        0
  3

  0
XRECORD
  5
174A
102
{ACAD_REACTORS
330
1749
102
}
330
1749
100
AcDbXrecord
280
     1
102
RTVSPost2010Prop28
280
     1
102
RTVSPost2010PropOp28
 70
     1
102
RTVSPost2010Prop29
280
     1
102
RTVSPost2010PropOp29
 70
     1
102
RTVSPost2010Prop30
280
     0
102
RTVSPost2010PropOp30
 70
     1
102
RTVSPost2010Prop31
280
     0
102
RTVSPost2010PropOp31
 70
     1
102
RTVSPost2010Prop32
280
     0
102
RTVSPost2010PropOp32
 70
     1
102
RTVSPost2010Prop33
280
     0
102
RTVSPost2010PropOp33
 70
     1
102
RTVSPost2010Prop34
280
     0
102
RTVSPost2010PropOp34
 70
     1
102
RTVSPost2010Prop35
280
     0
102
RTVSPost2010PropOp35
 70
     1
102
RTVSPost2010Prop36
280
     0
102
RTVSPost2010PropOp36
 70
     1
102
RTVSPost2010Prop37
 90
       50
102
RTVSPost2010PropOp37
 70
     1
102
RTVSPost2010Prop38
140
0.0
102
RTVSPost2010PropOp38
 70
     1
102
RTVSPost2010Prop39
140
1.0
102
RTVSPost2010PropOp39
 70
     1
102
RTVSPost2010Prop40
 90
        0
102
RTVSPost2010PropOp40
 70
     1
102
RTVSPost2010Prop41ColorIndex
 90
       18
102
RTVSPost2010Prop41ColorRGB
 90
        0
102
RTVSPost2010PropOp41
 70
     1
102
RTVSPost2010Prop42
 90
       50
102
RTVSPost2010PropOp42
 70
     1
102
RTVSPost2010Prop43
 90
        3
102
RTVSPost2010PropOp43
 70
     1
102
RTVSPost2010Prop44ColorIndex
 90
        5
102
RTVSPost2010Prop44ColorRGB
 90
      255
102
RTVSPost2010PropOp44
 70
     1
102
RTVSPost2010Prop45
280
     0
102
RTVSPost2010PropOp45
 70
     1
102
RTVSPost2010Prop46
 90
       50
102
RTVSPost2010PropOp46
 70
     1
102
RTVSPost2010Prop47
 90
       50
102
RTVSPost2010PropOp47
 70
     1
102
RTVSPost2010Prop48
 90
       50
102
RTVSPost2010PropOp48
 70
     1
102
RTVSPost2010Prop49
280
     0
102
RTVSPost2010PropOp49
 70
     1
102
RTVSPost2010Prop50
 90
       50
102
RTVSPost2010PropOp50
 70
     1
102
RTVSPost2010Prop51ColorIndex
 90
      256
102
RTVSPost2010Prop51ColorRGB
 90
-16777216
102
RTVSPost2010PropOp51
 70
     0
102
RTVSPost2010Prop52
140
1.0
102
RTVSPost2010PropOp52
 70
     0
102
RTVSPost2010Prop53
 90
        2
102
RTVSPost2010PropOp53
 70
     1
102
RTVSPost2010Prop54
  1
strokes_ogs.tif
102
RTVSPost2010PropOp54
 70
     1
102
RTVSPost2010Prop55
280
     0
102
RTVSPost2010PropOp55
 70
     1
102
RTVSPost2010Prop56
140
1.0
102
RTVSPost2010PropOp56
 70
     1
102
RTVSPost2010Prop57
140
1.0
102
RTVSPost2010PropOp57
 70
     1
102
RTVSPropertyOp0
 70
     1
102
RTVSPropertyOp1
 70
     1
102
RTVSPropertyOp2
 70
     1
102
RTVSPropertyOp3
 70
     1
102
RTVSPropertyOp4
 70
     1
102
RTVSPropertyOp5
 70
     1
102
RTVSPropertyOp6
 70
     1
102
RTVSPropertyOp7
 70
     1
102
RTVSPropertyOp8
 70
     1
102
RTVSPropertyOp9
 70
     1
102
RTVSPropertyOp10
 70
     1
102
RTVSPropertyOp11
 70
     1
102
RTVSPropertyOp12
 70
     1
102
RTVSPropertyOp13
 70
     1
102
RTVSPropertyOp14
 70
     1
102
RTVSPropertyOp15
 70
     1
102
RTVSPropertyOp16
 70
     1
102
RTVSPropertyOp17
 70
     1
102
RTVSPropertyOp18
 70
     1
102
RTVSPropertyOp19
 70
     1
102
RTVSPropertyOp20
 70
     1
102
RTVSPropertyOp21
 70
     1
102
RTVSPropertyOp22
 70
     1
102
RTVSPropertyOp23
 70
     1
102
RTVSPropertyOp24
 70
     1
102
RTVSPropertyOp25
 70
     1
102
RTVSPropertyOp26
 70
     1
102
RTVSPropertyOp27
 70
     1
102
RTVSPropertyOp28
 70
     1
102
RTVSPropertyOp29
 70
     1
102
RTVSPropertyOp30
 70
     1
102
RTVSPropertyOp31
 70
     1
102
RTVSPropertyOp32
 70
     1
102
RTVSPropertyOp33
 70
     1
102
RTVSPropertyOp34
 70
     1
102
RTVSPropertyOp35
 70
     1
102
RTVSPropertyOp36
 70
     1
102
RTVSPropertyOp37
 70
     1
102
RTVSPropertyOp38
 70
     1
102
RTVSPropertyOp39
 70
     1
102
RTVSPropertyOp40
 70
     1
102
RTVSPropertyOp41
 70
     1
102
RTVSPropertyOp42
 70
     1
102
RTVSPropertyOp43
 70
     1
102
RTVSPropertyOp44
 70
     1
102
RTVSPropertyOp45
 70
     1
102
RTVSPropertyOp46
 70
     1
102
RTVSPropertyOp47
 70
     1
102
RTVSPropertyOp48
 70
     1
102
RTVSPropertyOp49
 70
     1
102
RTVSPropertyOp50
 70
     1
102
RTVSPropertyOp51
 70
     0
102
RTVSPropertyOp52
 70
     0
102
RTVSPropertyOp53
 70
     1
102
RTVSPropertyOp54
 70
     1
102
RTVSPropertyOp55
 70
     1
102
RTVSPropertyOp56
 70
     1
102
RTVSPropertyOp57
 70
     1
102
RTVSPropertyOp58
 70
     1
102
RTVSPropertyOp59
 70
     1
102
RTVSPropertyOp60
 70
     1
102
RTVSPropertyOp61
 70
     1
102
RTVSPropertyOp62
 70
     1
  0
XRECORD
  5
1748
102
{ACAD_REACTORS
330
1747
102
}
330
1747
100
AcDbXrecord
280
     1
102
RTVSPost2010Prop28
280
     0
102
RTVSPost2010PropOp28
 70
     1
102
RTVSPost2010Prop29
280
     1
102
RTVSPost2010PropOp29
 70
     1
102
RTVSPost2010Prop30
280
     1
102
RTVSPost2010PropOp30
 70
     1
102
RTVSPost2010Prop31
280
     0
102
RTVSPost2010PropOp31
 70
     1
102
RTVSPost2010Prop32
280
     0
102
RTVSPost2010PropOp32
 70
     1
102
RTVSPost2010Prop33
280
     0
102
RTVSPost2010PropOp33
 70
     1
102
RTVSPost2010Prop34
280
     0
102
RTVSPost2010PropOp34
 70
     1
102
RTVSPost2010Prop35
280
     0
102
RTVSPost2010PropOp35
 70
     1
102
RTVSPost2010Prop36
280
     0
102
RTVSPost2010PropOp36
 70
     1
102
RTVSPost2010Prop37
 90
       50
102
RTVSPost2010PropOp37
 70
     1
102
RTVSPost2010Prop38
140
0.0
102
RTVSPost2010PropOp38
 70
     1
102
RTVSPost2010Prop39
140
1.0
102
RTVSPost2010PropOp39
 70
     1
102
RTVSPost2010Prop40
 90
        0
102
RTVSPost2010PropOp40
 70
     1
102
RTVSPost2010Prop41ColorIndex
 90
       18
102
RTVSPost2010Prop41ColorRGB
 90
        0
102
RTVSPost2010PropOp41
 70
     1
102
RTVSPost2010Prop42
 90
       50
102
RTVSPost2010PropOp42
 70
     1
102
RTVSPost2010Prop43
 90
        3
102
RTVSPost2010PropOp43
 70
     1
102
RTVSPost2010Prop44ColorIndex
 90
        5
102
RTVSPost2010Prop44ColorRGB
 90
      255
102
RTVSPost2010PropOp44
 70
     1
102
RTVSPost2010Prop45
280
     0
102
RTVSPost2010PropOp45
 70
     1
102
RTVSPost2010Prop46
 90
       50
102
RTVSPost2010PropOp46
 70
     1
102
RTVSPost2010Prop47
 90
       50
102
RTVSPost2010PropOp47
 70
     1
102
RTVSPost2010Prop48
 90
       50
102
RTVSPost2010PropOp48
 70
     1
102
RTVSPost2010Prop49
280
     0
102
RTVSPost2010PropOp49
 70
     1
102
RTVSPost2010Prop50
 90
       50
102
RTVSPost2010PropOp50
 70
     1
102
RTVSPost2010Prop51ColorIndex
 90
      256
102
RTVSPost2010Prop51ColorRGB
 90
-16777216
102
RTVSPost2010PropOp51
 70
     0
102
RTVSPost2010Prop52
140
1.0
102
RTVSPost2010PropOp52
 70
     0
102
RTVSPost2010Prop53
 90
        2
102
RTVSPost2010PropOp53
 70
     1
102
RTVSPost2010Prop54
  1
strokes_ogs.tif
102
RTVSPost2010PropOp54
 70
     1
102
RTVSPost2010Prop55
280
     0
102
RTVSPost2010PropOp55
 70
     1
102
RTVSPost2010Prop56
140
1.0
102
RTVSPost2010PropOp56
 70
     1
102
RTVSPost2010Prop57
140
1.0
102
RTVSPost2010PropOp57
 70
     1
102
RTVSPropertyOp0
 70
     1
102
RTVSPropertyOp1
 70
     1
102
RTVSPropertyOp2
 70
     1
102
RTVSPropertyOp3
 70
     1
102
RTVSPropertyOp4
 70
     1
102
RTVSPropertyOp5
 70
     1
102
RTVSPropertyOp6
 70
     1
102
RTVSPropertyOp7
 70
     1
102
RTVSPropertyOp8
 70
     1
102
RTVSPropertyOp9
 70
     1
102
RTVSPropertyOp10
 70
     1
102
RTVSPropertyOp11
 70
     1
102
RTVSPropertyOp12
 70
     1
102
RTVSPropertyOp13
 70
     1
102
RTVSPropertyOp14
 70
     1
102
RTVSPropertyOp15
 70
     1
102
RTVSPropertyOp16
 70
     1
102
RTVSPropertyOp17
 70
     1
102
RTVSPropertyOp18
 70
     1
102
RTVSPropertyOp19
 70
     1
102
RTVSPropertyOp20
 70
     1
102
RTVSPropertyOp21
 70
     1
102
RTVSPropertyOp22
 70
     1
102
RTVSPropertyOp23
 70
     1
102
RTVSPropertyOp24
 70
     1
102
RTVSPropertyOp25
 70
     1
102
RTVSPropertyOp26
 70
     1
102
RTVSPropertyOp27
 70
     1
102
RTVSPropertyOp28
 70
     1
102
RTVSPropertyOp29
 70
     1
102
RTVSPropertyOp30
 70
     1
102
RTVSPropertyOp31
 70
     1
102
RTVSPropertyOp32
 70
     1
102
RTVSPropertyOp33
 70
     1
102
RTVSPropertyOp34
 70
     1
102
RTVSPropertyOp35
 70
     1
102
RTVSPropertyOp36
 70
     1
102
RTVSPropertyOp37
 70
     1
102
RTVSPropertyOp38
 70
     1
102
RTVSPropertyOp39
 70
     1
102
RTVSPropertyOp40
 70
     1
102
RTVSPropertyOp41
 70
     1
102
RTVSPropertyOp42
 70
     1
102
RTVSPropertyOp43
 70
     1
102
RTVSPropertyOp44
 70
     1
102
RTVSPropertyOp45
 70
     1
102
RTVSPropertyOp46
 70
     1
102
RTVSPropertyOp47
 70
     1
102
RTVSPropertyOp48
 70
     1
102
RTVSPropertyOp49
 70
     1
102
RTVSPropertyOp50
 70
     1
102
RTVSPropertyOp51
 70
     0
102
RTVSPropertyOp52
 70
     0
102
RTVSPropertyOp53
 70
     1
102
RTVSPropertyOp54
 70
     1
102
RTVSPropertyOp55
 70
     1
102
RTVSPropertyOp56
 70
     1
102
RTVSPropertyOp57
 70
     1
102
RTVSPropertyOp58
 70
     1
102
RTVSPropertyOp59
 70
     1
102
RTVSPropertyOp60
 70
     1
102
RTVSPropertyOp61
 70
     1
102
RTVSPropertyOp62
 70
     1
  0
XRECORD
  5
1756
102
{ACAD_REACTORS
330
1755
102
}
330
1755
100
AcDbXrecord
280
     1
102
RTVSPost2010Prop28
280
     0
102
RTVSPost2010PropOp28
 70
     1
102
RTVSPost2010Prop29
280
     1
102
RTVSPost2010PropOp29
 70
     1
102
RTVSPost2010Prop30
280
     1
102
RTVSPost2010PropOp30
 70
     1
102
RTVSPost2010Prop31
280
     0
102
RTVSPost2010PropOp31
 70
     1
102
RTVSPost2010Prop32
280
     0
102
RTVSPost2010PropOp32
 70
     1
102
RTVSPost2010Prop33
280
     0
102
RTVSPost2010PropOp33
 70
     1
102
RTVSPost2010Prop34
280
     0
102
RTVSPost2010PropOp34
 70
     1
102
RTVSPost2010Prop35
280
     0
102
RTVSPost2010PropOp35
 70
     1
102
RTVSPost2010Prop36
280
     0
102
RTVSPost2010PropOp36
 70
     1
102
RTVSPost2010Prop37
 90
       50
102
RTVSPost2010PropOp37
 70
     1
102
RTVSPost2010Prop38
140
0.0
102
RTVSPost2010PropOp38
 70
     1
102
RTVSPost2010Prop39
140
1.0
102
RTVSPost2010PropOp39
 70
     1
102
RTVSPost2010Prop40
 90
        0
102
RTVSPost2010PropOp40
 70
     1
102
RTVSPost2010Prop41ColorIndex
 90
       18
102
RTVSPost2010Prop41ColorRGB
 90
        0
102
RTVSPost2010PropOp41
 70
     1
102
RTVSPost2010Prop42
 90
       50
102
RTVSPost2010PropOp42
 70
     1
102
RTVSPost2010Prop43
 90
        3
102
RTVSPost2010PropOp43
 70
     1
102
RTVSPost2010Prop44ColorIndex
 90
        5
102
RTVSPost2010Prop44ColorRGB
 90
      255
102
RTVSPost2010PropOp44
 70
     1
102
RTVSPost2010Prop45
280
     0
102
RTVSPost2010PropOp45
 70
     1
102
RTVSPost2010Prop46
 90
       50
102
RTVSPost2010PropOp46
 70
     1
102
RTVSPost2010Prop47
 90
       50
102
RTVSPost2010PropOp47
 70
     1
102
RTVSPost2010Prop48
 90
       50
102
RTVSPost2010PropOp48
 70
     1
102
RTVSPost2010Prop49
280
     0
102
RTVSPost2010PropOp49
 70
     1
102
RTVSPost2010Prop50
 90
       50
102
RTVSPost2010PropOp50
 70
     1
102
RTVSPost2010Prop51ColorIndex
 90
      256
102
RTVSPost2010Prop51ColorRGB
 90
-16777216
102
RTVSPost2010PropOp51
 70
     0
102
RTVSPost2010Prop52
140
1.0
102
RTVSPost2010PropOp52
 70
     0
102
RTVSPost2010Prop53
 90
        2
102
RTVSPost2010PropOp53
 70
     1
102
RTVSPost2010Prop54
  1
strokes_ogs.tif
102
RTVSPost2010PropOp54
 70
     1
102
RTVSPost2010Prop55
280
     0
102
RTVSPost2010PropOp55
 70
     1
102
RTVSPost2010Prop56
140
1.0
102
RTVSPost2010PropOp56
 70
     1
102
RTVSPost2010Prop57
140
1.0
102
RTVSPost2010PropOp57
 70
     1
102
RTVSPropertyOp0
 70
     1
102
RTVSPropertyOp1
 70
     1
102
RTVSPropertyOp2
 70
     1
102
RTVSPropertyOp3
 70
     1
102
RTVSPropertyOp4
 70
     1
102
RTVSPropertyOp5
 70
     1
102
RTVSPropertyOp6
 70
     1
102
RTVSPropertyOp7
 70
     1
102
RTVSPropertyOp8
 70
     1
102
RTVSPropertyOp9
 70
     1
102
RTVSPropertyOp10
 70
     1
102
RTVSPropertyOp11
 70
     1
102
RTVSPropertyOp12
 70
     1
102
RTVSPropertyOp13
 70
     1
102
RTVSPropertyOp14
 70
     1
102
RTVSPropertyOp15
 70
     1
102
RTVSPropertyOp16
 70
     1
102
RTVSPropertyOp17
 70
     1
102
RTVSPropertyOp18
 70
     1
102
RTVSPropertyOp19
 70
     1
102
RTVSPropertyOp20
 70
     1
102
RTVSPropertyOp21
 70
     1
102
RTVSPropertyOp22
 70
     1
102
RTVSPropertyOp23
 70
     1
102
RTVSPropertyOp24
 70
     1
102
RTVSPropertyOp25
 70
     1
102
RTVSPropertyOp26
 70
     1
102
RTVSPropertyOp27
 70
     1
102
RTVSPropertyOp28
 70
     1
102
RTVSPropertyOp29
 70
     1
102
RTVSPropertyOp30
 70
     1
102
RTVSPropertyOp31
 70
     1
102
RTVSPropertyOp32
 70
     1
102
RTVSPropertyOp33
 70
     1
102
RTVSPropertyOp34
 70
     1
102
RTVSPropertyOp35
 70
     1
102
RTVSPropertyOp36
 70
     1
102
RTVSPropertyOp37
 70
     1
102
RTVSPropertyOp38
 70
     1
102
RTVSPropertyOp39
 70
     1
102
RTVSPropertyOp40
 70
     1
102
RTVSPropertyOp41
 70
     1
102
RTVSPropertyOp42
 70
     1
102
RTVSPropertyOp43
 70
     1
102
RTVSPropertyOp44
 70
     1
102
RTVSPropertyOp45
 70
     1
102
RTVSPropertyOp46
 70
     1
102
RTVSPropertyOp47
 70
     1
102
RTVSPropertyOp48
 70
     1
102
RTVSPropertyOp49
 70
     1
102
RTVSPropertyOp50
 70
     1
102
RTVSPropertyOp51
 70
     0
102
RTVSPropertyOp52
 70
     0
102
RTVSPropertyOp53
 70
     1
102
RTVSPropertyOp54
 70
     1
102
RTVSPropertyOp55
 70
     1
102
RTVSPropertyOp56
 70
     1
102
RTVSPropertyOp57
 70
     1
102
RTVSPropertyOp58
 70
     1
102
RTVSPropertyOp59
 70
     1
102
RTVSPropertyOp60
 70
     1
102
RTVSPropertyOp61
 70
     1
102
RTVSPropertyOp62
 70
     1
  0
XRECORD
  5
175E
102
{ACAD_REACTORS
330
175D
102
}
330
175D
100
AcDbXrecord
280
     1
102
RTVSPost2010Prop28
280
     0
102
RTVSPost2010PropOp28
 70
     1
102
RTVSPost2010Prop29
280
     1
102
RTVSPost2010PropOp29
 70
     1
102
RTVSPost2010Prop30
280
     1
102
RTVSPost2010PropOp30
 70
     1
102
RTVSPost2010Prop31
280
     0
102
RTVSPost2010PropOp31
 70
     1
102
RTVSPost2010Prop32
280
     0
102
RTVSPost2010PropOp32
 70
     1
102
RTVSPost2010Prop33
280
     0
102
RTVSPost2010PropOp33
 70
     1
102
RTVSPost2010Prop34
280
     0
102
RTVSPost2010PropOp34
 70
     1
102
RTVSPost2010Prop35
280
     0
102
RTVSPost2010PropOp35
 70
     1
102
RTVSPost2010Prop36
280
     0
102
RTVSPost2010PropOp36
 70
     1
102
RTVSPost2010Prop37
 90
       50
102
RTVSPost2010PropOp37
 70
     1
102
RTVSPost2010Prop38
140
0.0
102
RTVSPost2010PropOp38
 70
     1
102
RTVSPost2010Prop39
140
1.0
102
RTVSPost2010PropOp39
 70
     1
102
RTVSPost2010Prop40
 90
        0
102
RTVSPost2010PropOp40
 70
     1
102
RTVSPost2010Prop41ColorIndex
 90
       18
102
RTVSPost2010Prop41ColorRGB
 90
        0
102
RTVSPost2010PropOp41
 70
     1
102
RTVSPost2010Prop42
 90
       50
102
RTVSPost2010PropOp42
 70
     1
102
RTVSPost2010Prop43
 90
        3
102
RTVSPost2010PropOp43
 70
     1
102
RTVSPost2010Prop44ColorIndex
 90
        5
102
RTVSPost2010Prop44ColorRGB
 90
      255
102
RTVSPost2010PropOp44
 70
     1
102
RTVSPost2010Prop45
280
     0
102
RTVSPost2010PropOp45
 70
     1
102
RTVSPost2010Prop46
 90
       50
102
RTVSPost2010PropOp46
 70
     1
102
RTVSPost2010Prop47
 90
       50
102
RTVSPost2010PropOp47
 70
     1
102
RTVSPost2010Prop48
 90
       50
102
RTVSPost2010PropOp48
 70
     1
102
RTVSPost2010Prop49
280
     0
102
RTVSPost2010PropOp49
 70
     1
102
RTVSPost2010Prop50
 90
       50
102
RTVSPost2010PropOp50
 70
     1
102
RTVSPost2010Prop51ColorIndex
 90
      256
102
RTVSPost2010Prop51ColorRGB
 90
-16777216
102
RTVSPost2010PropOp51
 70
     0
102
RTVSPost2010Prop52
140
1.0
102
RTVSPost2010PropOp52
 70
     0
102
RTVSPost2010Prop53
 90
        2
102
RTVSPost2010PropOp53
 70
     1
102
RTVSPost2010Prop54
  1
strokes_ogs.tif
102
RTVSPost2010PropOp54
 70
     1
102
RTVSPost2010Prop55
280
     0
102
RTVSPost2010PropOp55
 70
     1
102
RTVSPost2010Prop56
140
1.0
102
RTVSPost2010PropOp56
 70
     1
102
RTVSPost2010Prop57
140
1.0
102
RTVSPost2010PropOp57
 70
     1
102
RTVSPropertyOp0
 70
     1
102
RTVSPropertyOp1
 70
     1
102
RTVSPropertyOp2
 70
     1
102
RTVSPropertyOp3
 70
     1
102
RTVSPropertyOp4
 70
     1
102
RTVSPropertyOp5
 70
     1
102
RTVSPropertyOp6
 70
     1
102
RTVSPropertyOp7
 70
     1
102
RTVSPropertyOp8
 70
     1
102
RTVSPropertyOp9
 70
     1
102
RTVSPropertyOp10
 70
     1
102
RTVSPropertyOp11
 70
     1
102
RTVSPropertyOp12
 70
     1
102
RTVSPropertyOp13
 70
     1
102
RTVSPropertyOp14
 70
     1
102
RTVSPropertyOp15
 70
     1
102
RTVSPropertyOp16
 70
     1
102
RTVSPropertyOp17
 70
     1
102
RTVSPropertyOp18
 70
     1
102
RTVSPropertyOp19
 70
     1
102
RTVSPropertyOp20
 70
     1
102
RTVSPropertyOp21
 70
     1
102
RTVSPropertyOp22
 70
     1
102
RTVSPropertyOp23
 70
     1
102
RTVSPropertyOp24
 70
     1
102
RTVSPropertyOp25
 70
     1
102
RTVSPropertyOp26
 70
     1
102
RTVSPropertyOp27
 70
     1
102
RTVSPropertyOp28
 70
     1
102
RTVSPropertyOp29
 70
     1
102
RTVSPropertyOp30
 70
     1
102
RTVSPropertyOp31
 70
     1
102
RTVSPropertyOp32
 70
     1
102
RTVSPropertyOp33
 70
     1
102
RTVSPropertyOp34
 70
     1
102
RTVSPropertyOp35
 70
     1
102
RTVSPropertyOp36
 70
     1
102
RTVSPropertyOp37
 70
     1
102
RTVSPropertyOp38
 70
     1
102
RTVSPropertyOp39
 70
     1
102
RTVSPropertyOp40
 70
     1
102
RTVSPropertyOp41
 70
     1
102
RTVSPropertyOp42
 70
     1
102
RTVSPropertyOp43
 70
     1
102
RTVSPropertyOp44
 70
     1
102
RTVSPropertyOp45
 70
     1
102
RTVSPropertyOp46
 70
     1
102
RTVSPropertyOp47
 70
     1
102
RTVSPropertyOp48
 70
     1
102
RTVSPropertyOp49
 70
     1
102
RTVSPropertyOp50
 70
     1
102
RTVSPropertyOp51
 70
     0
102
RTVSPropertyOp52
 70
     0
102
RTVSPropertyOp53
 70
     1
102
RTVSPropertyOp54
 70
     1
102
RTVSPropertyOp55
 70
     1
102
RTVSPropertyOp56
 70
     1
102
RTVSPropertyOp57
 70
     1
102
RTVSPropertyOp58
 70
     1
102
RTVSPropertyOp59
 70
     1
102
RTVSPropertyOp60
 70
     1
102
RTVSPropertyOp61
 70
     1
102
RTVSPropertyOp62
 70
     1
  0
XRECORD
  5
1750
102
{ACAD_REACTORS
330
174F
102
}
330
174F
100
AcDbXrecord
280
     1
102
RTVSPost2010Prop28
280
     0
102
RTVSPost2010PropOp28
 70
     1
102
RTVSPost2010Prop29
280
     1
102
RTVSPost2010PropOp29
 70
     1
102
RTVSPost2010Prop30
280
     1
102
RTVSPost2010PropOp30
 70
     1
102
RTVSPost2010Prop31
280
     0
102
RTVSPost2010PropOp31
 70
     1
102
RTVSPost2010Prop32
280
     0
102
RTVSPost2010PropOp32
 70
     1
102
RTVSPost2010Prop33
280
     0
102
RTVSPost2010PropOp33
 70
     1
102
RTVSPost2010Prop34
280
     0
102
RTVSPost2010PropOp34
 70
     1
102
RTVSPost2010Prop35
280
     0
102
RTVSPost2010PropOp35
 70
     1
102
RTVSPost2010Prop36
280
     0
102
RTVSPost2010PropOp36
 70
     1
102
RTVSPost2010Prop37
 90
       50
102
RTVSPost2010PropOp37
 70
     1
102
RTVSPost2010Prop38
140
0.0
102
RTVSPost2010PropOp38
 70
     1
102
RTVSPost2010Prop39
140
1.0
102
RTVSPost2010PropOp39
 70
     1
102
RTVSPost2010Prop40
 90
        0
102
RTVSPost2010PropOp40
 70
     1
102
RTVSPost2010Prop41ColorIndex
 90
       18
102
RTVSPost2010Prop41ColorRGB
 90
        0
102
RTVSPost2010PropOp41
 70
     1
102
RTVSPost2010Prop42
 90
       50
102
RTVSPost2010PropOp42
 70
     1
102
RTVSPost2010Prop43
 90
        3
102
RTVSPost2010PropOp43
 70
     1
102
RTVSPost2010Prop44ColorIndex
 90
        5
102
RTVSPost2010Prop44ColorRGB
 90
      255
102
RTVSPost2010PropOp44
 70
     1
102
RTVSPost2010Prop45
280
     0
102
RTVSPost2010PropOp45
 70
     1
102
RTVSPost2010Prop46
 90
       50
102
RTVSPost2010PropOp46
 70
     1
102
RTVSPost2010Prop47
 90
       50
102
RTVSPost2010PropOp47
 70
     1
102
RTVSPost2010Prop48
 90
       50
102
RTVSPost2010PropOp48
 70
     1
102
RTVSPost2010Prop49
280
     0
102
RTVSPost2010PropOp49
 70
     1
102
RTVSPost2010Prop50
 90
       50
102
RTVSPost2010PropOp50
 70
     1
102
RTVSPost2010Prop51ColorIndex
 90
      256
102
RTVSPost2010Prop51ColorRGB
 90
-16777216
102
RTVSPost2010PropOp51
 70
     0
102
RTVSPost2010Prop52
140
1.0
102
RTVSPost2010PropOp52
 70
     0
102
RTVSPost2010Prop53
 90
        2
102
RTVSPost2010PropOp53
 70
     1
102
RTVSPost2010Prop54
  1
strokes_ogs.tif
102
RTVSPost2010PropOp54
 70
     1
102
RTVSPost2010Prop55
280
     0
102
RTVSPost2010PropOp55
 70
     1
102
RTVSPost2010Prop56
140
1.0
102
RTVSPost2010PropOp56
 70
     1
102
RTVSPost2010Prop57
140
1.0
102
RTVSPost2010PropOp57
 70
     1
102
RTVSPropertyOp0
 70
     1
102
RTVSPropertyOp1
 70
     1
102
RTVSPropertyOp2
 70
     1
102
RTVSPropertyOp3
 70
     1
102
RTVSPropertyOp4
 70
     1
102
RTVSPropertyOp5
 70
     1
102
RTVSPropertyOp6
 70
     1
102
RTVSPropertyOp7
 70
     1
102
RTVSPropertyOp8
 70
     1
102
RTVSPropertyOp9
 70
     1
102
RTVSPropertyOp10
 70
     1
102
RTVSPropertyOp11
 70
     1
102
RTVSPropertyOp12
 70
     1
102
RTVSPropertyOp13
 70
     1
102
RTVSPropertyOp14
 70
     1
102
RTVSPropertyOp15
 70
     1
102
RTVSPropertyOp16
 70
     1
102
RTVSPropertyOp17
 70
     1
102
RTVSPropertyOp18
 70
     1
102
RTVSPropertyOp19
 70
     1
102
RTVSPropertyOp20
 70
     1
102
RTVSPropertyOp21
 70
     1
102
RTVSPropertyOp22
 70
     1
102
RTVSPropertyOp23
 70
     1
102
RTVSPropertyOp24
 70
     1
102
RTVSPropertyOp25
 70
     1
102
RTVSPropertyOp26
 70
     1
102
RTVSPropertyOp27
 70
     1
102
RTVSPropertyOp28
 70
     1
102
RTVSPropertyOp29
 70
     1
102
RTVSPropertyOp30
 70
     1
102
RTVSPropertyOp31
 70
     1
102
RTVSPropertyOp32
 70
     1
102
RTVSPropertyOp33
 70
     1
102
RTVSPropertyOp34
 70
     1
102
RTVSPropertyOp35
 70
     1
102
RTVSPropertyOp36
 70
     1
102
RTVSPropertyOp37
 70
     1
102
RTVSPropertyOp38
 70
     1
102
RTVSPropertyOp39
 70
     1
102
RTVSPropertyOp40
 70
     1
102
RTVSPropertyOp41
 70
     1
102
RTVSPropertyOp42
 70
     1
102
RTVSPropertyOp43
 70
     1
102
RTVSPropertyOp44
 70
     1
102
RTVSPropertyOp45
 70
     1
102
RTVSPropertyOp46
 70
     1
102
RTVSPropertyOp47
 70
     1
102
RTVSPropertyOp48
 70
     1
102
RTVSPropertyOp49
 70
     1
102
RTVSPropertyOp50
 70
     1
102
RTVSPropertyOp51
 70
     0
102
RTVSPropertyOp52
 70
     0
102
RTVSPropertyOp53
 70
     1
102
RTVSPropertyOp54
 70
     1
102
RTVSPropertyOp55
 70
     1
102
RTVSPropertyOp56
 70
     1
102
RTVSPropertyOp57
 70
     1
102
RTVSPropertyOp58
 70
     1
102
RTVSPropertyOp59
 70
     1
102
RTVSPropertyOp60
 70
     1
102
RTVSPropertyOp61
 70
     1
102
RTVSPropertyOp62
 70
     1
  0
XRECORD
  5
1754
102
{ACAD_REACTORS
330
1753
102
}
330
1753
100
AcDbXrecord
280
     1
102
RTVSPost2010Prop28
280
     0
102
RTVSPost2010PropOp28
 70
     1
102
RTVSPost2010Prop29
280
     1
102
RTVSPost2010PropOp29
 70
     1
102
RTVSPost2010Prop30
280
     1
102
RTVSPost2010PropOp30
 70
     1
102
RTVSPost2010Prop31
280
     0
102
RTVSPost2010PropOp31
 70
     1
102
RTVSPost2010Prop32
280
     0
102
RTVSPost2010PropOp32
 70
     1
102
RTVSPost2010Prop33
280
     0
102
RTVSPost2010PropOp33
 70
     1
102
RTVSPost2010Prop34
280
     0
102
RTVSPost2010PropOp34
 70
     1
102
RTVSPost2010Prop35
280
     0
102
RTVSPost2010PropOp35
 70
     1
102
RTVSPost2010Prop36
280
     0
102
RTVSPost2010PropOp36
 70
     1
102
RTVSPost2010Prop37
 90
       50
102
RTVSPost2010PropOp37
 70
     1
102
RTVSPost2010Prop38
140
0.0
102
RTVSPost2010PropOp38
 70
     1
102
RTVSPost2010Prop39
140
1.0
102
RTVSPost2010PropOp39
 70
     1
102
RTVSPost2010Prop40
 90
        0
102
RTVSPost2010PropOp40
 70
     1
102
RTVSPost2010Prop41ColorIndex
 90
       18
102
RTVSPost2010Prop41ColorRGB
 90
        0
102
RTVSPost2010PropOp41
 70
     1
102
RTVSPost2010Prop42
 90
       50
102
RTVSPost2010PropOp42
 70
     1
102
RTVSPost2010Prop43
 90
        3
102
RTVSPost2010PropOp43
 70
     1
102
RTVSPost2010Prop44ColorIndex
 90
        5
102
RTVSPost2010Prop44ColorRGB
 90
      255
102
RTVSPost2010PropOp44
 70
     1
102
RTVSPost2010Prop45
280
     0
102
RTVSPost2010PropOp45
 70
     1
102
RTVSPost2010Prop46
 90
       50
102
RTVSPost2010PropOp46
 70
     1
102
RTVSPost2010Prop47
 90
       50
102
RTVSPost2010PropOp47
 70
     1
102
RTVSPost2010Prop48
 90
       50
102
RTVSPost2010PropOp48
 70
     1
102
RTVSPost2010Prop49
280
     0
102
RTVSPost2010PropOp49
 70
     1
102
RTVSPost2010Prop50
 90
       50
102
RTVSPost2010PropOp50
 70
     1
102
RTVSPost2010Prop51ColorIndex
 90
      256
102
RTVSPost2010Prop51ColorRGB
 90
-16777216
102
RTVSPost2010PropOp51
 70
     0
102
RTVSPost2010Prop52
140
1.0
102
RTVSPost2010PropOp52
 70
     0
102
RTVSPost2010Prop53
 90
        2
102
RTVSPost2010PropOp53
 70
     1
102
RTVSPost2010Prop54
  1
strokes_ogs.tif
102
RTVSPost2010PropOp54
 70
     1
102
RTVSPost2010Prop55
280
     0
102
RTVSPost2010PropOp55
 70
     1
102
RTVSPost2010Prop56
140
1.0
102
RTVSPost2010PropOp56
 70
     1
102
RTVSPost2010Prop57
140
1.0
102
RTVSPost2010PropOp57
 70
     1
102
RTVSPropertyOp0
 70
     1
102
RTVSPropertyOp1
 70
     1
102
RTVSPropertyOp2
 70
     1
102
RTVSPropertyOp3
 70
     1
102
RTVSPropertyOp4
 70
     1
102
RTVSPropertyOp5
 70
     1
102
RTVSPropertyOp6
 70
     1
102
RTVSPropertyOp7
 70
     1
102
RTVSPropertyOp8
 70
     1
102
RTVSPropertyOp9
 70
     1
102
RTVSPropertyOp10
 70
     1
102
RTVSPropertyOp11
 70
     1
102
RTVSPropertyOp12
 70
     1
102
RTVSPropertyOp13
 70
     1
102
RTVSPropertyOp14
 70
     1
102
RTVSPropertyOp15
 70
     1
102
RTVSPropertyOp16
 70
     1
102
RTVSPropertyOp17
 70
     1
102
RTVSPropertyOp18
 70
     1
102
RTVSPropertyOp19
 70
     1
102
RTVSPropertyOp20
 70
     1
102
RTVSPropertyOp21
 70
     1
102
RTVSPropertyOp22
 70
     1
102
RTVSPropertyOp23
 70
     1
102
RTVSPropertyOp24
 70
     1
102
RTVSPropertyOp25
 70
     1
102
RTVSPropertyOp26
 70
     1
102
RTVSPropertyOp27
 70
     1
102
RTVSPropertyOp28
 70
     1
102
RTVSPropertyOp29
 70
     1
102
RTVSPropertyOp30
 70
     1
102
RTVSPropertyOp31
 70
     1
102
RTVSPropertyOp32
 70
     1
102
RTVSPropertyOp33
 70
     1
102
RTVSPropertyOp34
 70
     1
102
RTVSPropertyOp35
 70
     1
102
RTVSPropertyOp36
 70
     1
102
RTVSPropertyOp37
 70
     1
102
RTVSPropertyOp38
 70
     1
102
RTVSPropertyOp39
 70
     1
102
RTVSPropertyOp40
 70
     1
102
RTVSPropertyOp41
 70
     1
102
RTVSPropertyOp42
 70
     1
102
RTVSPropertyOp43
 70
     1
102
RTVSPropertyOp44
 70
     1
102
RTVSPropertyOp45
 70
     1
102
RTVSPropertyOp46
 70
     1
102
RTVSPropertyOp47
 70
     1
102
RTVSPropertyOp48
 70
     1
102
RTVSPropertyOp49
 70
     1
102
RTVSPropertyOp50
 70
     1
102
RTVSPropertyOp51
 70
     0
102
RTVSPropertyOp52
 70
     0
102
RTVSPropertyOp53
 70
     1
102
RTVSPropertyOp54
 70
     1
102
RTVSPropertyOp55
 70
     1
102
RTVSPropertyOp56
 70
     1
102
RTVSPropertyOp57
 70
     1
102
RTVSPropertyOp58
 70
     1
102
RTVSPropertyOp59
 70
     1
102
RTVSPropertyOp60
 70
     1
102
RTVSPropertyOp61
 70
     1
102
RTVSPropertyOp62
 70
     1
  0
XRECORD
  5
176E
102
{ACAD_REACTORS
330
176D
102
}
330
176D
100
AcDbXrecord
280
     1
102
RTVSPost2010Prop28
280
     0
102
RTVSPost2010PropOp28
 70
     1
102
RTVSPost2010Prop29
280
     1
102
RTVSPost2010PropOp29
 70
     1
102
RTVSPost2010Prop30
280
     1
102
RTVSPost2010PropOp30
 70
     1
102
RTVSPost2010Prop31
280
     0
102
RTVSPost2010PropOp31
 70
     1
102
RTVSPost2010Prop32
280
     0
102
RTVSPost2010PropOp32
 70
     1
102
RTVSPost2010Prop33
280
     0
102
RTVSPost2010PropOp33
 70
     1
102
RTVSPost2010Prop34
280
     0
102
RTVSPost2010PropOp34
 70
     1
102
RTVSPost2010Prop35
280
     0
102
RTVSPost2010PropOp35
 70
     1
102
RTVSPost2010Prop36
280
     0
102
RTVSPost2010PropOp36
 70
     1
102
RTVSPost2010Prop37
 90
       50
102
RTVSPost2010PropOp37
 70
     0
102
RTVSPost2010Prop38
140
0.0
102
RTVSPost2010PropOp38
 70
     0
102
RTVSPost2010Prop39
140
1.0
102
RTVSPost2010PropOp39
 70
     0
102
RTVSPost2010Prop40
 90
        0
102
RTVSPost2010PropOp40
 70
     0
102
RTVSPost2010Prop41ColorIndex
 90
       18
102
RTVSPost2010Prop41ColorRGB
 90
        0
102
RTVSPost2010PropOp41
 70
     0
102
RTVSPost2010Prop42
 90
       50
102
RTVSPost2010PropOp42
 70
     0
102
RTVSPost2010Prop43
 90
        3
102
RTVSPost2010PropOp43
 70
     0
102
RTVSPost2010Prop44ColorIndex
 90
        5
102
RTVSPost2010Prop44ColorRGB
 90
      255
102
RTVSPost2010PropOp44
 70
     0
102
RTVSPost2010Prop45
280
     0
102
RTVSPost2010PropOp45
 70
     1
102
RTVSPost2010Prop46
 90
       50
102
RTVSPost2010PropOp46
 70
     0
102
RTVSPost2010Prop47
 90
       50
102
RTVSPost2010PropOp47
 70
     0
102
RTVSPost2010Prop48
 90
       50
102
RTVSPost2010PropOp48
 70
     0
102
RTVSPost2010Prop49
280
     0
102
RTVSPost2010PropOp49
 70
     1
102
RTVSPost2010Prop50
 90
       50
102
RTVSPost2010PropOp50
 70
     0
102
RTVSPost2010Prop51ColorIndex
 90
      256
102
RTVSPost2010Prop51ColorRGB
 90
-16777216
102
RTVSPost2010PropOp51
 70
     0
102
RTVSPost2010Prop52
140
1.0
102
RTVSPost2010PropOp52
 70
     0
102
RTVSPost2010Prop53
 90
        2
102
RTVSPost2010PropOp53
 70
     0
102
RTVSPost2010Prop54
  1
strokes_ogs.tif
102
RTVSPost2010PropOp54
 70
     0
102
RTVSPost2010Prop55
280
     0
102
RTVSPost2010PropOp55
 70
     1
102
RTVSPost2010Prop56
140
1.0
102
RTVSPost2010PropOp56
 70
     0
102
RTVSPost2010Prop57
140
1.0
102
RTVSPost2010PropOp57
 70
     0
102
RTVSPropertyOp0
 70
     0
102
RTVSPropertyOp1
 70
     0
102
RTVSPropertyOp2
 70
     0
102
RTVSPropertyOp3
 70
     0
102
RTVSPropertyOp4
 70
     0
102
RTVSPropertyOp5
 70
     0
102
RTVSPropertyOp6
 70
     0
102
RTVSPropertyOp7
 70
     0
102
RTVSPropertyOp8
 70
     0
102
RTVSPropertyOp9
 70
     0
102
RTVSPropertyOp10
 70
     0
102
RTVSPropertyOp11
 70
     0
102
RTVSPropertyOp12
 70
     0
102
RTVSPropertyOp13
 70
     0
102
RTVSPropertyOp14
 70
     2
102
RTVSPropertyOp15
 70
     0
102
RTVSPropertyOp16
 70
     0
102
RTVSPropertyOp17
 70
     0
102
RTVSPropertyOp18
 70
     0
102
RTVSPropertyOp19
 70
     0
102
RTVSPropertyOp20
 70
     0
102
RTVSPropertyOp21
 70
     0
102
RTVSPropertyOp22
 70
     0
102
RTVSPropertyOp23
 70
     0
102
RTVSPropertyOp24
 70
     0
102
RTVSPropertyOp25
 70
     0
102
RTVSPropertyOp26
 70
     0
102
RTVSPropertyOp27
 70
     0
102
RTVSPropertyOp28
 70
     1
102
RTVSPropertyOp29
 70
     1
102
RTVSPropertyOp30
 70
     1
102
RTVSPropertyOp31
 70
     1
102
RTVSPropertyOp32
 70
     1
102
RTVSPropertyOp33
 70
     1
102
RTVSPropertyOp34
 70
     1
102
RTVSPropertyOp35
 70
     1
102
RTVSPropertyOp36
 70
     1
102
RTVSPropertyOp37
 70
     0
102
RTVSPropertyOp38
 70
     0
102
RTVSPropertyOp39
 70
     0
102
RTVSPropertyOp40
 70
     0
102
RTVSPropertyOp41
 70
     0
102
RTVSPropertyOp42
 70
     0
102
RTVSPropertyOp43
 70
     0
102
RTVSPropertyOp44
 70
     0
102
RTVSPropertyOp45
 70
     1
102
RTVSPropertyOp46
 70
     0
102
RTVSPropertyOp47
 70
     0
102
RTVSPropertyOp48
 70
     0
102
RTVSPropertyOp49
 70
     1
102
RTVSPropertyOp50
 70
     0
102
RTVSPropertyOp51
 70
     0
102
RTVSPropertyOp52
 70
     0
102
RTVSPropertyOp53
 70
     0
102
RTVSPropertyOp54
 70
     0
102
RTVSPropertyOp55
 70
     1
102
RTVSPropertyOp56
 70
     0
102
RTVSPropertyOp57
 70
     0
102
RTVSPropertyOp58
 70
     0
102
RTVSPropertyOp59
 70
     0
102
RTVSPropertyOp60
 70
     0
102
RTVSPropertyOp61
 70
     0
102
RTVSPropertyOp62
 70
     0
  0
XRECORD
  5
175C
102
{ACAD_REACTORS
330
175B
102
}
330
175B
100
AcDbXrecord
280
     1
102
RTVSPost2010Prop28
280
     0
102
RTVSPost2010PropOp28
 70
     1
102
RTVSPost2010Prop29
280
     1
102
RTVSPost2010PropOp29
 70
     1
102
RTVSPost2010Prop30
280
     1
102
RTVSPost2010PropOp30
 70
     1
102
RTVSPost2010Prop31
280
     0
102
RTVSPost2010PropOp31
 70
     1
102
RTVSPost2010Prop32
280
     0
102
RTVSPost2010PropOp32
 70
     1
102
RTVSPost2010Prop33
280
     0
102
RTVSPost2010PropOp33
 70
     1
102
RTVSPost2010Prop34
280
     0
102
RTVSPost2010PropOp34
 70
     1
102
RTVSPost2010Prop35
280
     0
102
RTVSPost2010PropOp35
 70
     1
102
RTVSPost2010Prop36
280
     0
102
RTVSPost2010PropOp36
 70
     1
102
RTVSPost2010Prop37
 90
       50
102
RTVSPost2010PropOp37
 70
     1
102
RTVSPost2010Prop38
140
0.0
102
RTVSPost2010PropOp38
 70
     1
102
RTVSPost2010Prop39
140
1.0
102
RTVSPost2010PropOp39
 70
     1
102
RTVSPost2010Prop40
 90
        0
102
RTVSPost2010PropOp40
 70
     1
102
RTVSPost2010Prop41ColorIndex
 90
       18
102
RTVSPost2010Prop41ColorRGB
 90
        0
102
RTVSPost2010PropOp41
 70
     1
102
RTVSPost2010Prop42
 90
       50
102
RTVSPost2010PropOp42
 70
     1
102
RTVSPost2010Prop43
 90
        3
102
RTVSPost2010PropOp43
 70
     1
102
RTVSPost2010Prop44ColorIndex
 90
        5
102
RTVSPost2010Prop44ColorRGB
 90
      255
102
RTVSPost2010PropOp44
 70
     1
102
RTVSPost2010Prop45
280
     0
102
RTVSPost2010PropOp45
 70
     1
102
RTVSPost2010Prop46
 90
       50
102
RTVSPost2010PropOp46
 70
     1
102
RTVSPost2010Prop47
 90
       50
102
RTVSPost2010PropOp47
 70
     1
102
RTVSPost2010Prop48
 90
       50
102
RTVSPost2010PropOp48
 70
     1
102
RTVSPost2010Prop49
280
     0
102
RTVSPost2010PropOp49
 70
     1
102
RTVSPost2010Prop50
 90
       50
102
RTVSPost2010PropOp50
 70
     1
102
RTVSPost2010Prop51ColorIndex
 90
      256
102
RTVSPost2010Prop51ColorRGB
 90
-16777216
102
RTVSPost2010PropOp51
 70
     0
102
RTVSPost2010Prop52
140
1.0
102
RTVSPost2010PropOp52
 70
     0
102
RTVSPost2010Prop53
 90
        2
102
RTVSPost2010PropOp53
 70
     1
102
RTVSPost2010Prop54
  1
strokes_ogs.tif
102
RTVSPost2010PropOp54
 70
     1
102
RTVSPost2010Prop55
280
     0
102
RTVSPost2010PropOp55
 70
     1
102
RTVSPost2010Prop56
140
1.0
102
RTVSPost2010PropOp56
 70
     1
102
RTVSPost2010Prop57
140
1.0
102
RTVSPost2010PropOp57
 70
     1
102
RTVSPropertyOp0
 70
     1
102
RTVSPropertyOp1
 70
     1
102
RTVSPropertyOp2
 70
     1
102
RTVSPropertyOp3
 70
     1
102
RTVSPropertyOp4
 70
     1
102
RTVSPropertyOp5
 70
     1
102
RTVSPropertyOp6
 70
     1
102
RTVSPropertyOp7
 70
     1
102
RTVSPropertyOp8
 70
     1
102
RTVSPropertyOp9
 70
     1
102
RTVSPropertyOp10
 70
     1
102
RTVSPropertyOp11
 70
     1
102
RTVSPropertyOp12
 70
     1
102
RTVSPropertyOp13
 70
     1
102
RTVSPropertyOp14
 70
     1
102
RTVSPropertyOp15
 70
     1
102
RTVSPropertyOp16
 70
     1
102
RTVSPropertyOp17
 70
     1
102
RTVSPropertyOp18
 70
     1
102
RTVSPropertyOp19
 70
     1
102
RTVSPropertyOp20
 70
     1
102
RTVSPropertyOp21
 70
     1
102
RTVSPropertyOp22
 70
     1
102
RTVSPropertyOp23
 70
     1
102
RTVSPropertyOp24
 70
     1
102
RTVSPropertyOp25
 70
     1
102
RTVSPropertyOp26
 70
     1
102
RTVSPropertyOp27
 70
     1
102
RTVSPropertyOp28
 70
     1
102
RTVSPropertyOp29
 70
     1
102
RTVSPropertyOp30
 70
     1
102
RTVSPropertyOp31
 70
     1
102
RTVSPropertyOp32
 70
     1
102
RTVSPropertyOp33
 70
     1
102
RTVSPropertyOp34
 70
     1
102
RTVSPropertyOp35
 70
     1
102
RTVSPropertyOp36
 70
     1
102
RTVSPropertyOp37
 70
     1
102
RTVSPropertyOp38
 70
     1
102
RTVSPropertyOp39
 70
     1
102
RTVSPropertyOp40
 70
     1
102
RTVSPropertyOp41
 70
     1
102
RTVSPropertyOp42
 70
     1
102
RTVSPropertyOp43
 70
     1
102
RTVSPropertyOp44
 70
     1
102
RTVSPropertyOp45
 70
     1
102
RTVSPropertyOp46
 70
     1
102
RTVSPropertyOp47
 70
     1
102
RTVSPropertyOp48
 70
     1
102
RTVSPropertyOp49
 70
     1
102
RTVSPropertyOp50
 70
     1
102
RTVSPropertyOp51
 70
     0
102
RTVSPropertyOp52
 70
     0
102
RTVSPropertyOp53
 70
     1
102
RTVSPropertyOp54
 70
     1
102
RTVSPropertyOp55
 70
     1
102
RTVSPropertyOp56
 70
     1
102
RTVSPropertyOp57
 70
     1
102
RTVSPropertyOp58
 70
     1
102
RTVSPropertyOp59
 70
     1
102
RTVSPropertyOp60
 70
     1
102
RTVSPropertyOp61
 70
     1
102
RTVSPropertyOp62
 70
     1
  0
XRECORD
  5
1740
102
{ACAD_REACTORS
330
173F
102
}
330
173F
100
AcDbXrecord
280
     1
102
RTVSPost2010Prop28
280
     0
102
RTVSPost2010PropOp28
 70
     1
102
RTVSPost2010Prop29
280
     1
102
RTVSPost2010PropOp29
 70
     1
102
RTVSPost2010Prop30
280
     1
102
RTVSPost2010PropOp30
 70
     1
102
RTVSPost2010Prop31
280
     0
102
RTVSPost2010PropOp31
 70
     1
102
RTVSPost2010Prop32
280
     0
102
RTVSPost2010PropOp32
 70
     1
102
RTVSPost2010Prop33
280
     0
102
RTVSPost2010PropOp33
 70
     1
102
RTVSPost2010Prop34
280
     0
102
RTVSPost2010PropOp34
 70
     1
102
RTVSPost2010Prop35
280
     0
102
RTVSPost2010PropOp35
 70
     1
102
RTVSPost2010Prop36
280
     0
102
RTVSPost2010PropOp36
 70
     1
102
RTVSPost2010Prop37
 90
       50
102
RTVSPost2010PropOp37
 70
     1
102
RTVSPost2010Prop38
140
0.0
102
RTVSPost2010PropOp38
 70
     1
102
RTVSPost2010Prop39
140
1.0
102
RTVSPost2010PropOp39
 70
     1
102
RTVSPost2010Prop40
 90
        0
102
RTVSPost2010PropOp40
 70
     1
102
RTVSPost2010Prop41ColorIndex
 90
       18
102
RTVSPost2010Prop41ColorRGB
 90
        0
102
RTVSPost2010PropOp41
 70
     1
102
RTVSPost2010Prop42
 90
       50
102
RTVSPost2010PropOp42
 70
     1
102
RTVSPost2010Prop43
 90
        3
102
RTVSPost2010PropOp43
 70
     1
102
RTVSPost2010Prop44ColorIndex
 90
        5
102
RTVSPost2010Prop44ColorRGB
 90
      255
102
RTVSPost2010PropOp44
 70
     1
102
RTVSPost2010Prop45
280
     0
102
RTVSPost2010PropOp45
 70
     1
102
RTVSPost2010Prop46
 90
       50
102
RTVSPost2010PropOp46
 70
     1
102
RTVSPost2010Prop47
 90
       50
102
RTVSPost2010PropOp47
 70
     1
102
RTVSPost2010Prop48
 90
       50
102
RTVSPost2010PropOp48
 70
     1
102
RTVSPost2010Prop49
280
     0
102
RTVSPost2010PropOp49
 70
     1
102
RTVSPost2010Prop50
 90
       50
102
RTVSPost2010PropOp50
 70
     1
102
RTVSPost2010Prop51ColorIndex
 90
      256
102
RTVSPost2010Prop51ColorRGB
 90
-16777216
102
RTVSPost2010PropOp51
 70
     0
102
RTVSPost2010Prop52
140
1.0
102
RTVSPost2010PropOp52
 70
     0
102
RTVSPost2010Prop53
 90
        2
102
RTVSPost2010PropOp53
 70
     1
102
RTVSPost2010Prop54
  1
strokes_ogs.tif
102
RTVSPost2010PropOp54
 70
     1
102
RTVSPost2010Prop55
280
     0
102
RTVSPost2010PropOp55
 70
     1
102
RTVSPost2010Prop56
140
1.0
102
RTVSPost2010PropOp56
 70
     1
102
RTVSPost2010Prop57
140
1.0
102
RTVSPost2010PropOp57
 70
     1
102
RTVSPropertyOp0
 70
     1
102
RTVSPropertyOp1
 70
     1
102
RTVSPropertyOp2
 70
     1
102
RTVSPropertyOp3
 70
     1
102
RTVSPropertyOp4
 70
     1
102
RTVSPropertyOp5
 70
     1
102
RTVSPropertyOp6
 70
     1
102
RTVSPropertyOp7
 70
     1
102
RTVSPropertyOp8
 70
     1
102
RTVSPropertyOp9
 70
     1
102
RTVSPropertyOp10
 70
     1
102
RTVSPropertyOp11
 70
     1
102
RTVSPropertyOp12
 70
     1
102
RTVSPropertyOp13
 70
     1
102
RTVSPropertyOp14
 70
     1
102
RTVSPropertyOp15
 70
     1
102
RTVSPropertyOp16
 70
     1
102
RTVSPropertyOp17
 70
     1
102
RTVSPropertyOp18
 70
     1
102
RTVSPropertyOp19
 70
     1
102
RTVSPropertyOp20
 70
     1
102
RTVSPropertyOp21
 70
     1
102
RTVSPropertyOp22
 70
     1
102
RTVSPropertyOp23
 70
     1
102
RTVSPropertyOp24
 70
     1
102
RTVSPropertyOp25
 70
     1
102
RTVSPropertyOp26
 70
     1
102
RTVSPropertyOp27
 70
     1
102
RTVSPropertyOp28
 70
     1
102
RTVSPropertyOp29
 70
     1
102
RTVSPropertyOp30
 70
     1
102
RTVSPropertyOp31
 70
     1
102
RTVSPropertyOp32
 70
     1
102
RTVSPropertyOp33
 70
     1
102
RTVSPropertyOp34
 70
     1
102
RTVSPropertyOp35
 70
     1
102
RTVSPropertyOp36
 70
     1
102
RTVSPropertyOp37
 70
     1
102
RTVSPropertyOp38
 70
     1
102
RTVSPropertyOp39
 70
     1
102
RTVSPropertyOp40
 70
     1
102
RTVSPropertyOp41
 70
     1
102
RTVSPropertyOp42
 70
     1
102
RTVSPropertyOp43
 70
     1
102
RTVSPropertyOp44
 70
     1
102
RTVSPropertyOp45
 70
     1
102
RTVSPropertyOp46
 70
     1
102
RTVSPropertyOp47
 70
     1
102
RTVSPropertyOp48
 70
     1
102
RTVSPropertyOp49
 70
     1
102
RTVSPropertyOp50
 70
     1
102
RTVSPropertyOp51
 70
     0
102
RTVSPropertyOp52
 70
     0
102
RTVSPropertyOp53
 70
     1
102
RTVSPropertyOp54
 70
     1
102
RTVSPropertyOp55
 70
     1
102
RTVSPropertyOp56
 70
     1
102
RTVSPropertyOp57
 70
     1
102
RTVSPropertyOp58
 70
     1
102
RTVSPropertyOp59
 70
     1
102
RTVSPropertyOp60
 70
     1
102
RTVSPropertyOp61
 70
     1
102
RTVSPropertyOp62
 70
     1
  0
XRECORD
  5
1742
102
{ACAD_REACTORS
330
1741
102
}
330
1741
100
AcDbXrecord
280
     1
102
RTVSPost2010Prop28
280
     0
102
RTVSPost2010PropOp28
 70
     1
102
RTVSPost2010Prop29
280
     1
102
RTVSPost2010PropOp29
 70
     1
102
RTVSPost2010Prop30
280
     1
102
RTVSPost2010PropOp30
 70
     1
102
RTVSPost2010Prop31
280
     0
102
RTVSPost2010PropOp31
 70
     1
102
RTVSPost2010Prop32
280
     0
102
RTVSPost2010PropOp32
 70
     1
102
RTVSPost2010Prop33
280
     0
102
RTVSPost2010PropOp33
 70
     1
102
RTVSPost2010Prop34
280
     0
102
RTVSPost2010PropOp34
 70
     1
102
RTVSPost2010Prop35
280
     0
102
RTVSPost2010PropOp35
 70
     1
102
RTVSPost2010Prop36
280
     0
102
RTVSPost2010PropOp36
 70
     1
102
RTVSPost2010Prop37
 90
       50
102
RTVSPost2010PropOp37
 70
     1
102
RTVSPost2010Prop38
140
0.0
102
RTVSPost2010PropOp38
 70
     1
102
RTVSPost2010Prop39
140
1.0
102
RTVSPost2010PropOp39
 70
     1
102
RTVSPost2010Prop40
 90
        0
102
RTVSPost2010PropOp40
 70
     1
102
RTVSPost2010Prop41ColorIndex
 90
       18
102
RTVSPost2010Prop41ColorRGB
 90
        0
102
RTVSPost2010PropOp41
 70
     1
102
RTVSPost2010Prop42
 90
       50
102
RTVSPost2010PropOp42
 70
     1
102
RTVSPost2010Prop43
 90
        3
102
RTVSPost2010PropOp43
 70
     1
102
RTVSPost2010Prop44ColorIndex
 90
        5
102
RTVSPost2010Prop44ColorRGB
 90
      255
102
RTVSPost2010PropOp44
 70
     1
102
RTVSPost2010Prop45
280
     0
102
RTVSPost2010PropOp45
 70
     1
102
RTVSPost2010Prop46
 90
       50
102
RTVSPost2010PropOp46
 70
     1
102
RTVSPost2010Prop47
 90
       50
102
RTVSPost2010PropOp47
 70
     1
102
RTVSPost2010Prop48
 90
       50
102
RTVSPost2010PropOp48
 70
     1
102
RTVSPost2010Prop49
280
     0
102
RTVSPost2010PropOp49
 70
     1
102
RTVSPost2010Prop50
 90
       50
102
RTVSPost2010PropOp50
 70
     1
102
RTVSPost2010Prop51ColorIndex
 90
      256
102
RTVSPost2010Prop51ColorRGB
 90
-16777216
102
RTVSPost2010PropOp51
 70
     0
102
RTVSPost2010Prop52
140
1.0
102
RTVSPost2010PropOp52
 70
     0
102
RTVSPost2010Prop53
 90
        2
102
RTVSPost2010PropOp53
 70
     1
102
RTVSPost2010Prop54
  1
strokes_ogs.tif
102
RTVSPost2010PropOp54
 70
     1
102
RTVSPost2010Prop55
280
     0
102
RTVSPost2010PropOp55
 70
     1
102
RTVSPost2010Prop56
140
1.0
102
RTVSPost2010PropOp56
 70
     1
102
RTVSPost2010Prop57
140
1.0
102
RTVSPost2010PropOp57
 70
     1
102
RTVSPropertyOp0
 70
     1
102
RTVSPropertyOp1
 70
     1
102
RTVSPropertyOp2
 70
     1
102
RTVSPropertyOp3
 70
     1
102
RTVSPropertyOp4
 70
     1
102
RTVSPropertyOp5
 70
     1
102
RTVSPropertyOp6
 70
     1
102
RTVSPropertyOp7
 70
     1
102
RTVSPropertyOp8
 70
     1
102
RTVSPropertyOp9
 70
     1
102
RTVSPropertyOp10
 70
     1
102
RTVSPropertyOp11
 70
     1
102
RTVSPropertyOp12
 70
     1
102
RTVSPropertyOp13
 70
     1
102
RTVSPropertyOp14
 70
     1
102
RTVSPropertyOp15
 70
     1
102
RTVSPropertyOp16
 70
     1
102
RTVSPropertyOp17
 70
     1
102
RTVSPropertyOp18
 70
     1
102
RTVSPropertyOp19
 70
     1
102
RTVSPropertyOp20
 70
     1
102
RTVSPropertyOp21
 70
     1
102
RTVSPropertyOp22
 70
     1
102
RTVSPropertyOp23
 70
     1
102
RTVSPropertyOp24
 70
     1
102
RTVSPropertyOp25
 70
     1
102
RTVSPropertyOp26
 70
     1
102
RTVSPropertyOp27
 70
     1
102
RTVSPropertyOp28
 70
     1
102
RTVSPropertyOp29
 70
     1
102
RTVSPropertyOp30
 70
     1
102
RTVSPropertyOp31
 70
     1
102
RTVSPropertyOp32
 70
     1
102
RTVSPropertyOp33
 70
     1
102
RTVSPropertyOp34
 70
     1
102
RTVSPropertyOp35
 70
     1
102
RTVSPropertyOp36
 70
     1
102
RTVSPropertyOp37
 70
     1
102
RTVSPropertyOp38
 70
     1
102
RTVSPropertyOp39
 70
     1
102
RTVSPropertyOp40
 70
     1
102
RTVSPropertyOp41
 70
     1
102
RTVSPropertyOp42
 70
     1
102
RTVSPropertyOp43
 70
     1
102
RTVSPropertyOp44
 70
     1
102
RTVSPropertyOp45
 70
     1
102
RTVSPropertyOp46
 70
     1
102
RTVSPropertyOp47
 70
     1
102
RTVSPropertyOp48
 70
     1
102
RTVSPropertyOp49
 70
     1
102
RTVSPropertyOp50
 70
     1
102
RTVSPropertyOp51
 70
     0
102
RTVSPropertyOp52
 70
     0
102
RTVSPropertyOp53
 70
     1
102
RTVSPropertyOp54
 70
     1
102
RTVSPropertyOp55
 70
     1
102
RTVSPropertyOp56
 70
     1
102
RTVSPropertyOp57
 70
     1
102
RTVSPropertyOp58
 70
     1
102
RTVSPropertyOp59
 70
     1
102
RTVSPropertyOp60
 70
     1
102
RTVSPropertyOp61
 70
     1
102
RTVSPropertyOp62
 70
     1
  0
XRECORD
  5
1744
102
{ACAD_REACTORS
330
1743
102
}
330
1743
100
AcDbXrecord
280
     1
102
RTVSPost2010Prop28
280
     0
102
RTVSPost2010PropOp28
 70
     1
102
RTVSPost2010Prop29
280
     1
102
RTVSPost2010PropOp29
 70
     1
102
RTVSPost2010Prop30
280
     1
102
RTVSPost2010PropOp30
 70
     1
102
RTVSPost2010Prop31
280
     0
102
RTVSPost2010PropOp31
 70
     1
102
RTVSPost2010Prop32
280
     0
102
RTVSPost2010PropOp32
 70
     1
102
RTVSPost2010Prop33
280
     0
102
RTVSPost2010PropOp33
 70
     1
102
RTVSPost2010Prop34
280
     0
102
RTVSPost2010PropOp34
 70
     1
102
RTVSPost2010Prop35
280
     0
102
RTVSPost2010PropOp35
 70
     1
102
RTVSPost2010Prop36
280
     0
102
RTVSPost2010PropOp36
 70
     1
102
RTVSPost2010Prop37
 90
       50
102
RTVSPost2010PropOp37
 70
     1
102
RTVSPost2010Prop38
140
0.0
102
RTVSPost2010PropOp38
 70
     1
102
RTVSPost2010Prop39
140
1.0
102
RTVSPost2010PropOp39
 70
     1
102
RTVSPost2010Prop40
 90
        0
102
RTVSPost2010PropOp40
 70
     1
102
RTVSPost2010Prop41ColorIndex
 90
       18
102
RTVSPost2010Prop41ColorRGB
 90
        0
102
RTVSPost2010PropOp41
 70
     1
102
RTVSPost2010Prop42
 90
       50
102
RTVSPost2010PropOp42
 70
     1
102
RTVSPost2010Prop43
 90
        3
102
RTVSPost2010PropOp43
 70
     1
102
RTVSPost2010Prop44ColorIndex
 90
        5
102
RTVSPost2010Prop44ColorRGB
 90
      255
102
RTVSPost2010PropOp44
 70
     1
102
RTVSPost2010Prop45
280
     0
102
RTVSPost2010PropOp45
 70
     1
102
RTVSPost2010Prop46
 90
       50
102
RTVSPost2010PropOp46
 70
     1
102
RTVSPost2010Prop47
 90
       50
102
RTVSPost2010PropOp47
 70
     1
102
RTVSPost2010Prop48
 90
       50
102
RTVSPost2010PropOp48
 70
     1
102
RTVSPost2010Prop49
280
     0
102
RTVSPost2010PropOp49
 70
     1
102
RTVSPost2010Prop50
 90
       50
102
RTVSPost2010PropOp50
 70
     1
102
RTVSPost2010Prop51ColorIndex
 90
      256
102
RTVSPost2010Prop51ColorRGB
 90
-16777216
102
RTVSPost2010PropOp51
 70
     0
102
RTVSPost2010Prop52
140
1.0
102
RTVSPost2010PropOp52
 70
     0
102
RTVSPost2010Prop53
 90
        2
102
RTVSPost2010PropOp53
 70
     1
102
RTVSPost2010Prop54
  1
strokes_ogs.tif
102
RTVSPost2010PropOp54
 70
     1
102
RTVSPost2010Prop55
280
     0
102
RTVSPost2010PropOp55
 70
     1
102
RTVSPost2010Prop56
140
1.0
102
RTVSPost2010PropOp56
 70
     1
102
RTVSPost2010Prop57
140
1.0
102
RTVSPost2010PropOp57
 70
     1
102
RTVSPropertyOp0
 70
     1
102
RTVSPropertyOp1
 70
     1
102
RTVSPropertyOp2
 70
     1
102
RTVSPropertyOp3
 70
     1
102
RTVSPropertyOp4
 70
     1
102
RTVSPropertyOp5
 70
     1
102
RTVSPropertyOp6
 70
     1
102
RTVSPropertyOp7
 70
     1
102
RTVSPropertyOp8
 70
     1
102
RTVSPropertyOp9
 70
     1
102
RTVSPropertyOp10
 70
     1
102
RTVSPropertyOp11
 70
     1
102
RTVSPropertyOp12
 70
     1
102
RTVSPropertyOp13
 70
     1
102
RTVSPropertyOp14
 70
     1
102
RTVSPropertyOp15
 70
     1
102
RTVSPropertyOp16
 70
     1
102
RTVSPropertyOp17
 70
     1
102
RTVSPropertyOp18
 70
     1
102
RTVSPropertyOp19
 70
     1
102
RTVSPropertyOp20
 70
     1
102
RTVSPropertyOp21
 70
     1
102
RTVSPropertyOp22
 70
     1
102
RTVSPropertyOp23
 70
     1
102
RTVSPropertyOp24
 70
     1
102
RTVSPropertyOp25
 70
     1
102
RTVSPropertyOp26
 70
     1
102
RTVSPropertyOp27
 70
     1
102
RTVSPropertyOp28
 70
     1
102
RTVSPropertyOp29
 70
     1
102
RTVSPropertyOp30
 70
     1
102
RTVSPropertyOp31
 70
     1
102
RTVSPropertyOp32
 70
     1
102
RTVSPropertyOp33
 70
     1
102
RTVSPropertyOp34
 70
     1
102
RTVSPropertyOp35
 70
     1
102
RTVSPropertyOp36
 70
     1
102
RTVSPropertyOp37
 70
     1
102
RTVSPropertyOp38
 70
     1
102
RTVSPropertyOp39
 70
     1
102
RTVSPropertyOp40
 70
     1
102
RTVSPropertyOp41
 70
     1
102
RTVSPropertyOp42
 70
     1
102
RTVSPropertyOp43
 70
     1
102
RTVSPropertyOp44
 70
     1
102
RTVSPropertyOp45
 70
     1
102
RTVSPropertyOp46
 70
     1
102
RTVSPropertyOp47
 70
     1
102
RTVSPropertyOp48
 70
     1
102
RTVSPropertyOp49
 70
     1
102
RTVSPropertyOp50
 70
     1
102
RTVSPropertyOp51
 70
     0
102
RTVSPropertyOp52
 70
     0
102
RTVSPropertyOp53
 70
     1
102
RTVSPropertyOp54
 70
     1
102
RTVSPropertyOp55
 70
     1
102
RTVSPropertyOp56
 70
     1
102
RTVSPropertyOp57
 70
     1
102
RTVSPropertyOp58
 70
     1
102
RTVSPropertyOp59
 70
     1
102
RTVSPropertyOp60
 70
     1
102
RTVSPropertyOp61
 70
     1
102
RTVSPropertyOp62
 70
     1
  0
XRECORD
  5
1746
102
{ACAD_REACTORS
330
1745
102
}
330
1745
100
AcDbXrecord
280
     1
102
RTVSPost2010Prop28
280
     0
102
RTVSPost2010PropOp28
 70
     1
102
RTVSPost2010Prop29
280
     1
102
RTVSPost2010PropOp29
 70
     1
102
RTVSPost2010Prop30
280
     1
102
RTVSPost2010PropOp30
 70
     1
102
RTVSPost2010Prop31
280
     0
102
RTVSPost2010PropOp31
 70
     1
102
RTVSPost2010Prop32
280
     0
102
RTVSPost2010PropOp32
 70
     1
102
RTVSPost2010Prop33
280
     0
102
RTVSPost2010PropOp33
 70
     1
102
RTVSPost2010Prop34
280
     0
102
RTVSPost2010PropOp34
 70
     1
102
RTVSPost2010Prop35
280
     0
102
RTVSPost2010PropOp35
 70
     1
102
RTVSPost2010Prop36
280
     0
102
RTVSPost2010PropOp36
 70
     1
102
RTVSPost2010Prop37
 90
       50
102
RTVSPost2010PropOp37
 70
     1
102
RTVSPost2010Prop38
140
0.0
102
RTVSPost2010PropOp38
 70
     1
102
RTVSPost2010Prop39
140
1.0
102
RTVSPost2010PropOp39
 70
     1
102
RTVSPost2010Prop40
 90
        0
102
RTVSPost2010PropOp40
 70
     1
102
RTVSPost2010Prop41ColorIndex
 90
       18
102
RTVSPost2010Prop41ColorRGB
 90
        0
102
RTVSPost2010PropOp41
 70
     1
102
RTVSPost2010Prop42
 90
       50
102
RTVSPost2010PropOp42
 70
     1
102
RTVSPost2010Prop43
 90
        3
102
RTVSPost2010PropOp43
 70
     1
102
RTVSPost2010Prop44ColorIndex
 90
        5
102
RTVSPost2010Prop44ColorRGB
 90
      255
102
RTVSPost2010PropOp44
 70
     1
102
RTVSPost2010Prop45
280
     0
102
RTVSPost2010PropOp45
 70
     1
102
RTVSPost2010Prop46
 90
       50
102
RTVSPost2010PropOp46
 70
     1
102
RTVSPost2010Prop47
 90
       50
102
RTVSPost2010PropOp47
 70
     1
102
RTVSPost2010Prop48
 90
       50
102
RTVSPost2010PropOp48
 70
     1
102
RTVSPost2010Prop49
280
     0
102
RTVSPost2010PropOp49
 70
     1
102
RTVSPost2010Prop50
 90
       50
102
RTVSPost2010PropOp50
 70
     1
102
RTVSPost2010Prop51ColorIndex
 90
      256
102
RTVSPost2010Prop51ColorRGB
 90
-16777216
102
RTVSPost2010PropOp51
 70
     0
102
RTVSPost2010Prop52
140
1.0
102
RTVSPost2010PropOp52
 70
     0
102
RTVSPost2010Prop53
 90
        2
102
RTVSPost2010PropOp53
 70
     1
102
RTVSPost2010Prop54
  1
strokes_ogs.tif
102
RTVSPost2010PropOp54
 70
     1
102
RTVSPost2010Prop55
280
     0
102
RTVSPost2010PropOp55
 70
     1
102
RTVSPost2010Prop56
140
1.0
102
RTVSPost2010PropOp56
 70
     1
102
RTVSPost2010Prop57
140
1.0
102
RTVSPost2010PropOp57
 70
     1
102
RTVSPropertyOp0
 70
     1
102
RTVSPropertyOp1
 70
     1
102
RTVSPropertyOp2
 70
     1
102
RTVSPropertyOp3
 70
     1
102
RTVSPropertyOp4
 70
     1
102
RTVSPropertyOp5
 70
     1
102
RTVSPropertyOp6
 70
     1
102
RTVSPropertyOp7
 70
     1
102
RTVSPropertyOp8
 70
     1
102
RTVSPropertyOp9
 70
     1
102
RTVSPropertyOp10
 70
     1
102
RTVSPropertyOp11
 70
     1
102
RTVSPropertyOp12
 70
     1
102
RTVSPropertyOp13
 70
     1
102
RTVSPropertyOp14
 70
     1
102
RTVSPropertyOp15
 70
     1
102
RTVSPropertyOp16
 70
     1
102
RTVSPropertyOp17
 70
     1
102
RTVSPropertyOp18
 70
     1
102
RTVSPropertyOp19
 70
     1
102
RTVSPropertyOp20
 70
     1
102
RTVSPropertyOp21
 70
     1
102
RTVSPropertyOp22
 70
     1
102
RTVSPropertyOp23
 70
     1
102
RTVSPropertyOp24
 70
     1
102
RTVSPropertyOp25
 70
     1
102
RTVSPropertyOp26
 70
     1
102
RTVSPropertyOp27
 70
     1
102
RTVSPropertyOp28
 70
     1
102
RTVSPropertyOp29
 70
     1
102
RTVSPropertyOp30
 70
     1
102
RTVSPropertyOp31
 70
     1
102
RTVSPropertyOp32
 70
     1
102
RTVSPropertyOp33
 70
     1
102
RTVSPropertyOp34
 70
     1
102
RTVSPropertyOp35
 70
     1
102
RTVSPropertyOp36
 70
     1
102
RTVSPropertyOp37
 70
     1
102
RTVSPropertyOp38
 70
     1
102
RTVSPropertyOp39
 70
     1
102
RTVSPropertyOp40
 70
     1
102
RTVSPropertyOp41
 70
     1
102
RTVSPropertyOp42
 70
     1
102
RTVSPropertyOp43
 70
     1
102
RTVSPropertyOp44
 70
     1
102
RTVSPropertyOp45
 70
     1
102
RTVSPropertyOp46
 70
     1
102
RTVSPropertyOp47
 70
     1
102
RTVSPropertyOp48
 70
     1
102
RTVSPropertyOp49
 70
     1
102
RTVSPropertyOp50
 70
     1
102
RTVSPropertyOp51
 70
     0
102
RTVSPropertyOp52
 70
     0
102
RTVSPropertyOp53
 70
     1
102
RTVSPropertyOp54
 70
     1
102
RTVSPropertyOp55
 70
     1
102
RTVSPropertyOp56
 70
     1
102
RTVSPropertyOp57
 70
     1
102
RTVSPropertyOp58
 70
     1
102
RTVSPropertyOp59
 70
     1
102
RTVSPropertyOp60
 70
     1
102
RTVSPropertyOp61
 70
     1
102
RTVSPropertyOp62
 70
     1
  0
XRECORD
  5
174E
102
{ACAD_REACTORS
330
174D
102
}
330
174D
100
AcDbXrecord
280
     1
102
RTVSPost2010Prop28
280
     0
102
RTVSPost2010PropOp28
 70
     1
102
RTVSPost2010Prop29
280
     1
102
RTVSPost2010PropOp29
 70
     1
102
RTVSPost2010Prop30
280
     1
102
RTVSPost2010PropOp30
 70
     1
102
RTVSPost2010Prop31
280
     0
102
RTVSPost2010PropOp31
 70
     1
102
RTVSPost2010Prop32
280
     0
102
RTVSPost2010PropOp32
 70
     1
102
RTVSPost2010Prop33
280
     0
102
RTVSPost2010PropOp33
 70
     1
102
RTVSPost2010Prop34
280
     0
102
RTVSPost2010PropOp34
 70
     1
102
RTVSPost2010Prop35
280
     0
102
RTVSPost2010PropOp35
 70
     1
102
RTVSPost2010Prop36
280
     0
102
RTVSPost2010PropOp36
 70
     1
102
RTVSPost2010Prop37
 90
       50
102
RTVSPost2010PropOp37
 70
     1
102
RTVSPost2010Prop38
140
0.0
102
RTVSPost2010PropOp38
 70
     1
102
RTVSPost2010Prop39
140
1.0
102
RTVSPost2010PropOp39
 70
     1
102
RTVSPost2010Prop40
 90
        0
102
RTVSPost2010PropOp40
 70
     1
102
RTVSPost2010Prop41ColorIndex
 90
       18
102
RTVSPost2010Prop41ColorRGB
 90
        0
102
RTVSPost2010PropOp41
 70
     1
102
RTVSPost2010Prop42
 90
       50
102
RTVSPost2010PropOp42
 70
     1
102
RTVSPost2010Prop43
 90
        3
102
RTVSPost2010PropOp43
 70
     1
102
RTVSPost2010Prop44ColorIndex
 90
        5
102
RTVSPost2010Prop44ColorRGB
 90
      255
102
RTVSPost2010PropOp44
 70
     1
102
RTVSPost2010Prop45
280
     0
102
RTVSPost2010PropOp45
 70
     1
102
RTVSPost2010Prop46
 90
       50
102
RTVSPost2010PropOp46
 70
     1
102
RTVSPost2010Prop47
 90
       50
102
RTVSPost2010PropOp47
 70
     1
102
RTVSPost2010Prop48
 90
       50
102
RTVSPost2010PropOp48
 70
     1
102
RTVSPost2010Prop49
280
     0
102
RTVSPost2010PropOp49
 70
     1
102
RTVSPost2010Prop50
 90
       50
102
RTVSPost2010PropOp50
 70
     1
102
RTVSPost2010Prop51ColorIndex
 90
      256
102
RTVSPost2010Prop51ColorRGB
 90
-16777216
102
RTVSPost2010PropOp51
 70
     0
102
RTVSPost2010Prop52
140
1.0
102
RTVSPost2010PropOp52
 70
     0
102
RTVSPost2010Prop53
 90
        2
102
RTVSPost2010PropOp53
 70
     1
102
RTVSPost2010Prop54
  1
strokes_ogs.tif
102
RTVSPost2010PropOp54
 70
     1
102
RTVSPost2010Prop55
280
     0
102
RTVSPost2010PropOp55
 70
     1
102
RTVSPost2010Prop56
140
1.0
102
RTVSPost2010PropOp56
 70
     1
102
RTVSPost2010Prop57
140
1.0
102
RTVSPost2010PropOp57
 70
     1
102
RTVSPropertyOp0
 70
     1
102
RTVSPropertyOp1
 70
     1
102
RTVSPropertyOp2
 70
     1
102
RTVSPropertyOp3
 70
     1
102
RTVSPropertyOp4
 70
     1
102
RTVSPropertyOp5
 70
     1
102
RTVSPropertyOp6
 70
     1
102
RTVSPropertyOp7
 70
     1
102
RTVSPropertyOp8
 70
     1
102
RTVSPropertyOp9
 70
     1
102
RTVSPropertyOp10
 70
     1
102
RTVSPropertyOp11
 70
     1
102
RTVSPropertyOp12
 70
     1
102
RTVSPropertyOp13
 70
     1
102
RTVSPropertyOp14
 70
     1
102
RTVSPropertyOp15
 70
     1
102
RTVSPropertyOp16
 70
     1
102
RTVSPropertyOp17
 70
     1
102
RTVSPropertyOp18
 70
     1
102
RTVSPropertyOp19
 70
     1
102
RTVSPropertyOp20
 70
     1
102
RTVSPropertyOp21
 70
     1
102
RTVSPropertyOp22
 70
     1
102
RTVSPropertyOp23
 70
     1
102
RTVSPropertyOp24
 70
     1
102
RTVSPropertyOp25
 70
     1
102
RTVSPropertyOp26
 70
     1
102
RTVSPropertyOp27
 70
     1
102
RTVSPropertyOp28
 70
     1
102
RTVSPropertyOp29
 70
     1
102
RTVSPropertyOp30
 70
     1
102
RTVSPropertyOp31
 70
     1
102
RTVSPropertyOp32
 70
     1
102
RTVSPropertyOp33
 70
     1
102
RTVSPropertyOp34
 70
     1
102
RTVSPropertyOp35
 70
     1
102
RTVSPropertyOp36
 70
     1
102
RTVSPropertyOp37
 70
     1
102
RTVSPropertyOp38
 70
     1
102
RTVSPropertyOp39
 70
     1
102
RTVSPropertyOp40
 70
     1
102
RTVSPropertyOp41
 70
     1
102
RTVSPropertyOp42
 70
     1
102
RTVSPropertyOp43
 70
     1
102
RTVSPropertyOp44
 70
     1
102
RTVSPropertyOp45
 70
     1
102
RTVSPropertyOp46
 70
     1
102
RTVSPropertyOp47
 70
     1
102
RTVSPropertyOp48
 70
     1
102
RTVSPropertyOp49
 70
     1
102
RTVSPropertyOp50
 70
     1
102
RTVSPropertyOp51
 70
     0
102
RTVSPropertyOp52
 70
     0
102
RTVSPropertyOp53
 70
     1
102
RTVSPropertyOp54
 70
     1
102
RTVSPropertyOp55
 70
     1
102
RTVSPropertyOp56
 70
     1
102
RTVSPropertyOp57
 70
     1
102
RTVSPropertyOp58
 70
     1
102
RTVSPropertyOp59
 70
     1
102
RTVSPropertyOp60
 70
     1
102
RTVSPropertyOp61
 70
     1
102
RTVSPropertyOp62
 70
     1
  0
XRECORD
  5
176A
102
{ACAD_REACTORS
330
1769
102
}
330
1769
100
AcDbXrecord
280
     1
102
RTVSPost2010Prop28
280
     0
102
RTVSPost2010PropOp28
 70
     1
102
RTVSPost2010Prop29
280
     1
102
RTVSPost2010PropOp29
 70
     1
102
RTVSPost2010Prop30
280
     1
102
RTVSPost2010PropOp30
 70
     1
102
RTVSPost2010Prop31
280
     0
102
RTVSPost2010PropOp31
 70
     1
102
RTVSPost2010Prop32
280
     0
102
RTVSPost2010PropOp32
 70
     1
102
RTVSPost2010Prop33
280
     0
102
RTVSPost2010PropOp33
 70
     1
102
RTVSPost2010Prop34
280
     0
102
RTVSPost2010PropOp34
 70
     1
102
RTVSPost2010Prop35
280
     0
102
RTVSPost2010PropOp35
 70
     1
102
RTVSPost2010Prop36
280
     0
102
RTVSPost2010PropOp36
 70
     1
102
RTVSPost2010Prop37
 90
       50
102
RTVSPost2010PropOp37
 70
     0
102
RTVSPost2010Prop38
140
0.0
102
RTVSPost2010PropOp38
 70
     0
102
RTVSPost2010Prop39
140
1.0
102
RTVSPost2010PropOp39
 70
     0
102
RTVSPost2010Prop40
 90
        0
102
RTVSPost2010PropOp40
 70
     0
102
RTVSPost2010Prop41ColorIndex
 90
       18
102
RTVSPost2010Prop41ColorRGB
 90
        0
102
RTVSPost2010PropOp41
 70
     0
102
RTVSPost2010Prop42
 90
       50
102
RTVSPost2010PropOp42
 70
     0
102
RTVSPost2010Prop43
 90
        3
102
RTVSPost2010PropOp43
 70
     0
102
RTVSPost2010Prop44ColorIndex
 90
        5
102
RTVSPost2010Prop44ColorRGB
 90
      255
102
RTVSPost2010PropOp44
 70
     0
102
RTVSPost2010Prop45
280
     0
102
RTVSPost2010PropOp45
 70
     1
102
RTVSPost2010Prop46
 90
       50
102
RTVSPost2010PropOp46
 70
     0
102
RTVSPost2010Prop47
 90
       50
102
RTVSPost2010PropOp47
 70
     0
102
RTVSPost2010Prop48
 90
       50
102
RTVSPost2010PropOp48
 70
     0
102
RTVSPost2010Prop49
280
     0
102
RTVSPost2010PropOp49
 70
     1
102
RTVSPost2010Prop50
 90
       50
102
RTVSPost2010PropOp50
 70
     0
102
RTVSPost2010Prop51ColorIndex
 90
      256
102
RTVSPost2010Prop51ColorRGB
 90
-16777216
102
RTVSPost2010PropOp51
 70
     0
102
RTVSPost2010Prop52
140
1.0
102
RTVSPost2010PropOp52
 70
     0
102
RTVSPost2010Prop53
 90
        2
102
RTVSPost2010PropOp53
 70
     0
102
RTVSPost2010Prop54
  1
strokes_ogs.tif
102
RTVSPost2010PropOp54
 70
     0
102
RTVSPost2010Prop55
280
     0
102
RTVSPost2010PropOp55
 70
     1
102
RTVSPost2010Prop56
140
1.0
102
RTVSPost2010PropOp56
 70
     0
102
RTVSPost2010Prop57
140
1.0
102
RTVSPost2010PropOp57
 70
     0
102
RTVSPropertyOp0
 70
     0
102
RTVSPropertyOp1
 70
     0
102
RTVSPropertyOp2
 70
     0
102
RTVSPropertyOp3
 70
     0
102
RTVSPropertyOp4
 70
     0
102
RTVSPropertyOp5
 70
     0
102
RTVSPropertyOp6
 70
     0
102
RTVSPropertyOp7
 70
     0
102
RTVSPropertyOp8
 70
     0
102
RTVSPropertyOp9
 70
     0
102
RTVSPropertyOp10
 70
     0
102
RTVSPropertyOp11
 70
     0
102
RTVSPropertyOp12
 70
     0
102
RTVSPropertyOp13
 70
     0
102
RTVSPropertyOp14
 70
     2
102
RTVSPropertyOp15
 70
     0
102
RTVSPropertyOp16
 70
     0
102
RTVSPropertyOp17
 70
     0
102
RTVSPropertyOp18
 70
     0
102
RTVSPropertyOp19
 70
     0
102
RTVSPropertyOp20
 70
     0
102
RTVSPropertyOp21
 70
     0
102
RTVSPropertyOp22
 70
     0
102
RTVSPropertyOp23
 70
     0
102
RTVSPropertyOp24
 70
     0
102
RTVSPropertyOp25
 70
     0
102
RTVSPropertyOp26
 70
     0
102
RTVSPropertyOp27
 70
     0
102
RTVSPropertyOp28
 70
     1
102
RTVSPropertyOp29
 70
     1
102
RTVSPropertyOp30
 70
     1
102
RTVSPropertyOp31
 70
     1
102
RTVSPropertyOp32
 70
     1
102
RTVSPropertyOp33
 70
     1
102
RTVSPropertyOp34
 70
     1
102
RTVSPropertyOp35
 70
     1
102
RTVSPropertyOp36
 70
     1
102
RTVSPropertyOp37
 70
     0
102
RTVSPropertyOp38
 70
     0
102
RTVSPropertyOp39
 70
     0
102
RTVSPropertyOp40
 70
     0
102
RTVSPropertyOp41
 70
     0
102
RTVSPropertyOp42
 70
     0
102
RTVSPropertyOp43
 70
     0
102
RTVSPropertyOp44
 70
     0
102
RTVSPropertyOp45
 70
     1
102
RTVSPropertyOp46
 70
     0
102
RTVSPropertyOp47
 70
     0
102
RTVSPropertyOp48
 70
     0
102
RTVSPropertyOp49
 70
     1
102
RTVSPropertyOp50
 70
     0
102
RTVSPropertyOp51
 70
     0
102
RTVSPropertyOp52
 70
     0
102
RTVSPropertyOp53
 70
     0
102
RTVSPropertyOp54
 70
     0
102
RTVSPropertyOp55
 70
     1
102
RTVSPropertyOp56
 70
     0
102
RTVSPropertyOp57
 70
     0
102
RTVSPropertyOp58
 70
     0
102
RTVSPropertyOp59
 70
     0
102
RTVSPropertyOp60
 70
     0
102
RTVSPropertyOp61
 70
     0
102
RTVSPropertyOp62
 70
     0
  0
XRECORD
  5
175A
102
{ACAD_REACTORS
330
1759
102
}
330
1759
100
AcDbXrecord
280
     1
102
RTVSPost2010Prop28
280
     0
102
RTVSPost2010PropOp28
 70
     1
102
RTVSPost2010Prop29
280
     1
102
RTVSPost2010PropOp29
 70
     1
102
RTVSPost2010Prop30
280
     1
102
RTVSPost2010PropOp30
 70
     1
102
RTVSPost2010Prop31
280
     0
102
RTVSPost2010PropOp31
 70
     1
102
RTVSPost2010Prop32
280
     0
102
RTVSPost2010PropOp32
 70
     1
102
RTVSPost2010Prop33
280
     0
102
RTVSPost2010PropOp33
 70
     1
102
RTVSPost2010Prop34
280
     0
102
RTVSPost2010PropOp34
 70
     1
102
RTVSPost2010Prop35
280
     0
102
RTVSPost2010PropOp35
 70
     1
102
RTVSPost2010Prop36
280
     0
102
RTVSPost2010PropOp36
 70
     1
102
RTVSPost2010Prop37
 90
       50
102
RTVSPost2010PropOp37
 70
     1
102
RTVSPost2010Prop38
140
0.0
102
RTVSPost2010PropOp38
 70
     1
102
RTVSPost2010Prop39
140
1.0
102
RTVSPost2010PropOp39
 70
     1
102
RTVSPost2010Prop40
 90
        0
102
RTVSPost2010PropOp40
 70
     1
102
RTVSPost2010Prop41ColorIndex
 90
       18
102
RTVSPost2010Prop41ColorRGB
 90
        0
102
RTVSPost2010PropOp41
 70
     1
102
RTVSPost2010Prop42
 90
       50
102
RTVSPost2010PropOp42
 70
     1
102
RTVSPost2010Prop43
 90
        3
102
RTVSPost2010PropOp43
 70
     1
102
RTVSPost2010Prop44ColorIndex
 90
        5
102
RTVSPost2010Prop44ColorRGB
 90
      255
102
RTVSPost2010PropOp44
 70
     1
102
RTVSPost2010Prop45
280
     0
102
RTVSPost2010PropOp45
 70
     1
102
RTVSPost2010Prop46
 90
       50
102
RTVSPost2010PropOp46
 70
     1
102
RTVSPost2010Prop47
 90
       50
102
RTVSPost2010PropOp47
 70
     1
102
RTVSPost2010Prop48
 90
       50
102
RTVSPost2010PropOp48
 70
     1
102
RTVSPost2010Prop49
280
     0
102
RTVSPost2010PropOp49
 70
     1
102
RTVSPost2010Prop50
 90
       50
102
RTVSPost2010PropOp50
 70
     1
102
RTVSPost2010Prop51ColorIndex
 90
      256
102
RTVSPost2010Prop51ColorRGB
 90
-16777216
102
RTVSPost2010PropOp51
 70
     0
102
RTVSPost2010Prop52
140
1.0
102
RTVSPost2010PropOp52
 70
     0
102
RTVSPost2010Prop53
 90
        2
102
RTVSPost2010PropOp53
 70
     1
102
RTVSPost2010Prop54
  1
strokes_ogs.tif
102
RTVSPost2010PropOp54
 70
     1
102
RTVSPost2010Prop55
280
     0
102
RTVSPost2010PropOp55
 70
     1
102
RTVSPost2010Prop56
140
1.0
102
RTVSPost2010PropOp56
 70
     1
102
RTVSPost2010Prop57
140
1.0
102
RTVSPost2010PropOp57
 70
     1
102
RTVSPropertyOp0
 70
     1
102
RTVSPropertyOp1
 70
     1
102
RTVSPropertyOp2
 70
     1
102
RTVSPropertyOp3
 70
     1
102
RTVSPropertyOp4
 70
     1
102
RTVSPropertyOp5
 70
     1
102
RTVSPropertyOp6
 70
     1
102
RTVSPropertyOp7
 70
     1
102
RTVSPropertyOp8
 70
     1
102
RTVSPropertyOp9
 70
     1
102
RTVSPropertyOp10
 70
     1
102
RTVSPropertyOp11
 70
     1
102
RTVSPropertyOp12
 70
     1
102
RTVSPropertyOp13
 70
     1
102
RTVSPropertyOp14
 70
     1
102
RTVSPropertyOp15
 70
     1
102
RTVSPropertyOp16
 70
     1
102
RTVSPropertyOp17
 70
     1
102
RTVSPropertyOp18
 70
     1
102
RTVSPropertyOp19
 70
     1
102
RTVSPropertyOp20
 70
     1
102
RTVSPropertyOp21
 70
     1
102
RTVSPropertyOp22
 70
     1
102
RTVSPropertyOp23
 70
     1
102
RTVSPropertyOp24
 70
     1
102
RTVSPropertyOp25
 70
     1
102
RTVSPropertyOp26
 70
     1
102
RTVSPropertyOp27
 70
     1
102
RTVSPropertyOp28
 70
     1
102
RTVSPropertyOp29
 70
     1
102
RTVSPropertyOp30
 70
     1
102
RTVSPropertyOp31
 70
     1
102
RTVSPropertyOp32
 70
     1
102
RTVSPropertyOp33
 70
     1
102
RTVSPropertyOp34
 70
     1
102
RTVSPropertyOp35
 70
     1
102
RTVSPropertyOp36
 70
     1
102
RTVSPropertyOp37
 70
     1
102
RTVSPropertyOp38
 70
     1
102
RTVSPropertyOp39
 70
     1
102
RTVSPropertyOp40
 70
     1
102
RTVSPropertyOp41
 70
     1
102
RTVSPropertyOp42
 70
     1
102
RTVSPropertyOp43
 70
     1
102
RTVSPropertyOp44
 70
     1
102
RTVSPropertyOp45
 70
     1
102
RTVSPropertyOp46
 70
     1
102
RTVSPropertyOp47
 70
     1
102
RTVSPropertyOp48
 70
     1
102
RTVSPropertyOp49
 70
     1
102
RTVSPropertyOp50
 70
     1
102
RTVSPropertyOp51
 70
     0
102
RTVSPropertyOp52
 70
     0
102
RTVSPropertyOp53
 70
     1
102
RTVSPropertyOp54
 70
     1
102
RTVSPropertyOp55
 70
     1
102
RTVSPropertyOp56
 70
     1
102
RTVSPropertyOp57
 70
     1
102
RTVSPropertyOp58
 70
     1
102
RTVSPropertyOp59
 70
     1
102
RTVSPropertyOp60
 70
     1
102
RTVSPropertyOp61
 70
     1
102
RTVSPropertyOp62
 70
     1
  0
XRECORD
  5
176C
102
{ACAD_REACTORS
330
176B
102
}
330
176B
100
AcDbXrecord
280
     1
102
RTVSPost2010Prop28
280
     0
102
RTVSPost2010PropOp28
 70
     1
102
RTVSPost2010Prop29
280
     1
102
RTVSPost2010PropOp29
 70
     1
102
RTVSPost2010Prop30
280
     1
102
RTVSPost2010PropOp30
 70
     1
102
RTVSPost2010Prop31
280
     0
102
RTVSPost2010PropOp31
 70
     1
102
RTVSPost2010Prop32
280
     0
102
RTVSPost2010PropOp32
 70
     1
102
RTVSPost2010Prop33
280
     0
102
RTVSPost2010PropOp33
 70
     1
102
RTVSPost2010Prop34
280
     0
102
RTVSPost2010PropOp34
 70
     1
102
RTVSPost2010Prop35
280
     0
102
RTVSPost2010PropOp35
 70
     1
102
RTVSPost2010Prop36
280
     0
102
RTVSPost2010PropOp36
 70
     1
102
RTVSPost2010Prop37
 90
       50
102
RTVSPost2010PropOp37
 70
     0
102
RTVSPost2010Prop38
140
0.0
102
RTVSPost2010PropOp38
 70
     0
102
RTVSPost2010Prop39
140
1.0
102
RTVSPost2010PropOp39
 70
     0
102
RTVSPost2010Prop40
 90
        0
102
RTVSPost2010PropOp40
 70
     0
102
RTVSPost2010Prop41ColorIndex
 90
       18
102
RTVSPost2010Prop41ColorRGB
 90
        0
102
RTVSPost2010PropOp41
 70
     0
102
RTVSPost2010Prop42
 90
       50
102
RTVSPost2010PropOp42
 70
     0
102
RTVSPost2010Prop43
 90
        3
102
RTVSPost2010PropOp43
 70
     0
102
RTVSPost2010Prop44ColorIndex
 90
        5
102
RTVSPost2010Prop44ColorRGB
 90
      255
102
RTVSPost2010PropOp44
 70
     0
102
RTVSPost2010Prop45
280
     0
102
RTVSPost2010PropOp45
 70
     1
102
RTVSPost2010Prop46
 90
       50
102
RTVSPost2010PropOp46
 70
     0
102
RTVSPost2010Prop47
 90
       50
102
RTVSPost2010PropOp47
 70
     0
102
RTVSPost2010Prop48
 90
       50
102
RTVSPost2010PropOp48
 70
     0
102
RTVSPost2010Prop49
280
     0
102
RTVSPost2010PropOp49
 70
     1
102
RTVSPost2010Prop50
 90
       50
102
RTVSPost2010PropOp50
 70
     0
102
RTVSPost2010Prop51ColorIndex
 90
      256
102
RTVSPost2010Prop51ColorRGB
 90
-16777216
102
RTVSPost2010PropOp51
 70
     0
102
RTVSPost2010Prop52
140
1.0
102
RTVSPost2010PropOp52
 70
     0
102
RTVSPost2010Prop53
 90
        2
102
RTVSPost2010PropOp53
 70
     0
102
RTVSPost2010Prop54
  1
strokes_ogs.tif
102
RTVSPost2010PropOp54
 70
     0
102
RTVSPost2010Prop55
280
     0
102
RTVSPost2010PropOp55
 70
     1
102
RTVSPost2010Prop56
140
1.0
102
RTVSPost2010PropOp56
 70
     0
102
RTVSPost2010Prop57
140
1.0
102
RTVSPost2010PropOp57
 70
     0
102
RTVSPropertyOp0
 70
     0
102
RTVSPropertyOp1
 70
     0
102
RTVSPropertyOp2
 70
     0
102
RTVSPropertyOp3
 70
     0
102
RTVSPropertyOp4
 70
     0
102
RTVSPropertyOp5
 70
     0
102
RTVSPropertyOp6
 70
     0
102
RTVSPropertyOp7
 70
     0
102
RTVSPropertyOp8
 70
     0
102
RTVSPropertyOp9
 70
     0
102
RTVSPropertyOp10
 70
     0
102
RTVSPropertyOp11
 70
     0
102
RTVSPropertyOp12
 70
     0
102
RTVSPropertyOp13
 70
     0
102
RTVSPropertyOp14
 70
     2
102
RTVSPropertyOp15
 70
     0
102
RTVSPropertyOp16
 70
     0
102
RTVSPropertyOp17
 70
     0
102
RTVSPropertyOp18
 70
     0
102
RTVSPropertyOp19
 70
     0
102
RTVSPropertyOp20
 70
     0
102
RTVSPropertyOp21
 70
     0
102
RTVSPropertyOp22
 70
     0
102
RTVSPropertyOp23
 70
     0
102
RTVSPropertyOp24
 70
     0
102
RTVSPropertyOp25
 70
     0
102
RTVSPropertyOp26
 70
     0
102
RTVSPropertyOp27
 70
     0
102
RTVSPropertyOp28
 70
     1
102
RTVSPropertyOp29
 70
     1
102
RTVSPropertyOp30
 70
     1
102
RTVSPropertyOp31
 70
     1
102
RTVSPropertyOp32
 70
     1
102
RTVSPropertyOp33
 70
     1
102
RTVSPropertyOp34
 70
     1
102
RTVSPropertyOp35
 70
     1
102
RTVSPropertyOp36
 70
     1
102
RTVSPropertyOp37
 70
     0
102
RTVSPropertyOp38
 70
     0
102
RTVSPropertyOp39
 70
     0
102
RTVSPropertyOp40
 70
     0
102
RTVSPropertyOp41
 70
     0
102
RTVSPropertyOp42
 70
     0
102
RTVSPropertyOp43
 70
     0
102
RTVSPropertyOp44
 70
     0
102
RTVSPropertyOp45
 70
     1
102
RTVSPropertyOp46
 70
     0
102
RTVSPropertyOp47
 70
     0
102
RTVSPropertyOp48
 70
     0
102
RTVSPropertyOp49
 70
     1
102
RTVSPropertyOp50
 70
     0
102
RTVSPropertyOp51
 70
     0
102
RTVSPropertyOp52
 70
     0
102
RTVSPropertyOp53
 70
     0
102
RTVSPropertyOp54
 70
     0
102
RTVSPropertyOp55
 70
     1
102
RTVSPropertyOp56
 70
     0
102
RTVSPropertyOp57
 70
     0
102
RTVSPropertyOp58
 70
     0
102
RTVSPropertyOp59
 70
     0
102
RTVSPropertyOp60
 70
     0
102
RTVSPropertyOp61
 70
     0
102
RTVSPropertyOp62
 70
     0
  0
XRECORD
  5
1752
102
{ACAD_REACTORS
330
1751
102
}
330
1751
100
AcDbXrecord
280
     1
102
RTVSPost2010Prop28
280
     0
102
RTVSPost2010PropOp28
 70
     1
102
RTVSPost2010Prop29
280
     1
102
RTVSPost2010PropOp29
 70
     1
102
RTVSPost2010Prop30
280
     1
102
RTVSPost2010PropOp30
 70
     1
102
RTVSPost2010Prop31
280
     0
102
RTVSPost2010PropOp31
 70
     1
102
RTVSPost2010Prop32
280
     0
102
RTVSPost2010PropOp32
 70
     1
102
RTVSPost2010Prop33
280
     0
102
RTVSPost2010PropOp33
 70
     1
102
RTVSPost2010Prop34
280
     0
102
RTVSPost2010PropOp34
 70
     1
102
RTVSPost2010Prop35
280
     0
102
RTVSPost2010PropOp35
 70
     1
102
RTVSPost2010Prop36
280
     0
102
RTVSPost2010PropOp36
 70
     1
102
RTVSPost2010Prop37
 90
       50
102
RTVSPost2010PropOp37
 70
     1
102
RTVSPost2010Prop38
140
0.0
102
RTVSPost2010PropOp38
 70
     1
102
RTVSPost2010Prop39
140
1.0
102
RTVSPost2010PropOp39
 70
     1
102
RTVSPost2010Prop40
 90
        0
102
RTVSPost2010PropOp40
 70
     1
102
RTVSPost2010Prop41ColorIndex
 90
       18
102
RTVSPost2010Prop41ColorRGB
 90
        0
102
RTVSPost2010PropOp41
 70
     1
102
RTVSPost2010Prop42
 90
       50
102
RTVSPost2010PropOp42
 70
     1
102
RTVSPost2010Prop43
 90
        3
102
RTVSPost2010PropOp43
 70
     1
102
RTVSPost2010Prop44ColorIndex
 90
        5
102
RTVSPost2010Prop44ColorRGB
 90
      255
102
RTVSPost2010PropOp44
 70
     1
102
RTVSPost2010Prop45
280
     0
102
RTVSPost2010PropOp45
 70
     1
102
RTVSPost2010Prop46
 90
       50
102
RTVSPost2010PropOp46
 70
     1
102
RTVSPost2010Prop47
 90
       50
102
RTVSPost2010PropOp47
 70
     1
102
RTVSPost2010Prop48
 90
       50
102
RTVSPost2010PropOp48
 70
     1
102
RTVSPost2010Prop49
280
     0
102
RTVSPost2010PropOp49
 70
     1
102
RTVSPost2010Prop50
 90
       50
102
RTVSPost2010PropOp50
 70
     1
102
RTVSPost2010Prop51ColorIndex
 90
      256
102
RTVSPost2010Prop51ColorRGB
 90
-16777216
102
RTVSPost2010PropOp51
 70
     0
102
RTVSPost2010Prop52
140
1.0
102
RTVSPost2010PropOp52
 70
     0
102
RTVSPost2010Prop53
 90
        2
102
RTVSPost2010PropOp53
 70
     1
102
RTVSPost2010Prop54
  1
strokes_ogs.tif
102
RTVSPost2010PropOp54
 70
     1
102
RTVSPost2010Prop55
280
     0
102
RTVSPost2010PropOp55
 70
     1
102
RTVSPost2010Prop56
140
1.0
102
RTVSPost2010PropOp56
 70
     1
102
RTVSPost2010Prop57
140
1.0
102
RTVSPost2010PropOp57
 70
     1
102
RTVSPropertyOp0
 70
     1
102
RTVSPropertyOp1
 70
     1
102
RTVSPropertyOp2
 70
     1
102
RTVSPropertyOp3
 70
     1
102
RTVSPropertyOp4
 70
     1
102
RTVSPropertyOp5
 70
     1
102
RTVSPropertyOp6
 70
     1
102
RTVSPropertyOp7
 70
     1
102
RTVSPropertyOp8
 70
     1
102
RTVSPropertyOp9
 70
     1
102
RTVSPropertyOp10
 70
     1
102
RTVSPropertyOp11
 70
     1
102
RTVSPropertyOp12
 70
     1
102
RTVSPropertyOp13
 70
     1
102
RTVSPropertyOp14
 70
     1
102
RTVSPropertyOp15
 70
     1
102
RTVSPropertyOp16
 70
     1
102
RTVSPropertyOp17
 70
     1
102
RTVSPropertyOp18
 70
     1
102
RTVSPropertyOp19
 70
     1
102
RTVSPropertyOp20
 70
     1
102
RTVSPropertyOp21
 70
     1
102
RTVSPropertyOp22
 70
     1
102
RTVSPropertyOp23
 70
     1
102
RTVSPropertyOp24
 70
     1
102
RTVSPropertyOp25
 70
     1
102
RTVSPropertyOp26
 70
     1
102
RTVSPropertyOp27
 70
     1
102
RTVSPropertyOp28
 70
     1
102
RTVSPropertyOp29
 70
     1
102
RTVSPropertyOp30
 70
     1
102
RTVSPropertyOp31
 70
     1
102
RTVSPropertyOp32
 70
     1
102
RTVSPropertyOp33
 70
     1
102
RTVSPropertyOp34
 70
     1
102
RTVSPropertyOp35
 70
     1
102
RTVSPropertyOp36
 70
     1
102
RTVSPropertyOp37
 70
     1
102
RTVSPropertyOp38
 70
     1
102
RTVSPropertyOp39
 70
     1
102
RTVSPropertyOp40
 70
     1
102
RTVSPropertyOp41
 70
     1
102
RTVSPropertyOp42
 70
     1
102
RTVSPropertyOp43
 70
     1
102
RTVSPropertyOp44
 70
     1
102
RTVSPropertyOp45
 70
     1
102
RTVSPropertyOp46
 70
     1
102
RTVSPropertyOp47
 70
     1
102
RTVSPropertyOp48
 70
     1
102
RTVSPropertyOp49
 70
     1
102
RTVSPropertyOp50
 70
     1
102
RTVSPropertyOp51
 70
     0
102
RTVSPropertyOp52
 70
     0
102
RTVSPropertyOp53
 70
     1
102
RTVSPropertyOp54
 70
     1
102
RTVSPropertyOp55
 70
     1
102
RTVSPropertyOp56
 70
     1
102
RTVSPropertyOp57
 70
     1
102
RTVSPropertyOp58
 70
     1
102
RTVSPropertyOp59
 70
     1
102
RTVSPropertyOp60
 70
     1
102
RTVSPropertyOp61
 70
     1
102
RTVSPropertyOp62
 70
     1
  0
XRECORD
  5
1768
102
{ACAD_REACTORS
330
1767
102
}
330
1767
100
AcDbXrecord
280
     1
102
RTVSPost2010Prop28
280
     0
102
RTVSPost2010PropOp28
 70
     1
102
RTVSPost2010Prop29
280
     1
102
RTVSPost2010PropOp29
 70
     1
102
RTVSPost2010Prop30
280
     1
102
RTVSPost2010PropOp30
 70
     1
102
RTVSPost2010Prop31
280
     0
102
RTVSPost2010PropOp31
 70
     1
102
RTVSPost2010Prop32
280
     0
102
RTVSPost2010PropOp32
 70
     1
102
RTVSPost2010Prop33
280
     0
102
RTVSPost2010PropOp33
 70
     1
102
RTVSPost2010Prop34
280
     0
102
RTVSPost2010PropOp34
 70
     1
102
RTVSPost2010Prop35
280
     0
102
RTVSPost2010PropOp35
 70
     1
102
RTVSPost2010Prop36
280
     0
102
RTVSPost2010PropOp36
 70
     1
102
RTVSPost2010Prop37
 90
       50
102
RTVSPost2010PropOp37
 70
     1
102
RTVSPost2010Prop38
140
0.0
102
RTVSPost2010PropOp38
 70
     1
102
RTVSPost2010Prop39
140
1.0
102
RTVSPost2010PropOp39
 70
     1
102
RTVSPost2010Prop40
 90
        0
102
RTVSPost2010PropOp40
 70
     1
102
RTVSPost2010Prop41ColorIndex
 90
       18
102
RTVSPost2010Prop41ColorRGB
 90
        0
102
RTVSPost2010PropOp41
 70
     1
102
RTVSPost2010Prop42
 90
       50
102
RTVSPost2010PropOp42
 70
     1
102
RTVSPost2010Prop43
 90
        3
102
RTVSPost2010PropOp43
 70
     1
102
RTVSPost2010Prop44ColorIndex
 90
        5
102
RTVSPost2010Prop44ColorRGB
 90
      255
102
RTVSPost2010PropOp44
 70
     1
102
RTVSPost2010Prop45
280
     0
102
RTVSPost2010PropOp45
 70
     1
102
RTVSPost2010Prop46
 90
       50
102
RTVSPost2010PropOp46
 70
     1
102
RTVSPost2010Prop47
 90
       50
102
RTVSPost2010PropOp47
 70
     1
102
RTVSPost2010Prop48
 90
       50
102
RTVSPost2010PropOp48
 70
     1
102
RTVSPost2010Prop49
280
     0
102
RTVSPost2010PropOp49
 70
     1
102
RTVSPost2010Prop50
 90
       50
102
RTVSPost2010PropOp50
 70
     1
102
RTVSPost2010Prop51ColorIndex
 90
      256
102
RTVSPost2010Prop51ColorRGB
 90
-16777216
102
RTVSPost2010PropOp51
 70
     0
102
RTVSPost2010Prop52
140
1.0
102
RTVSPost2010PropOp52
 70
     0
102
RTVSPost2010Prop53
 90
        2
102
RTVSPost2010PropOp53
 70
     1
102
RTVSPost2010Prop54
  1
strokes_ogs.tif
102
RTVSPost2010PropOp54
 70
     1
102
RTVSPost2010Prop55
280
     0
102
RTVSPost2010PropOp55
 70
     1
102
RTVSPost2010Prop56
140
1.0
102
RTVSPost2010PropOp56
 70
     1
102
RTVSPost2010Prop57
140
1.0
102
RTVSPost2010PropOp57
 70
     1
102
RTVSPropertyOp0
 70
     1
102
RTVSPropertyOp1
 70
     1
102
RTVSPropertyOp2
 70
     1
102
RTVSPropertyOp3
 70
     1
102
RTVSPropertyOp4
 70
     1
102
RTVSPropertyOp5
 70
     1
102
RTVSPropertyOp6
 70
     1
102
RTVSPropertyOp7
 70
     1
102
RTVSPropertyOp8
 70
     1
102
RTVSPropertyOp9
 70
     1
102
RTVSPropertyOp10
 70
     1
102
RTVSPropertyOp11
 70
     1
102
RTVSPropertyOp12
 70
     1
102
RTVSPropertyOp13
 70
     1
102
RTVSPropertyOp14
 70
     1
102
RTVSPropertyOp15
 70
     1
102
RTVSPropertyOp16
 70
     1
102
RTVSPropertyOp17
 70
     1
102
RTVSPropertyOp18
 70
     1
102
RTVSPropertyOp19
 70
     1
102
RTVSPropertyOp20
 70
     1
102
RTVSPropertyOp21
 70
     1
102
RTVSPropertyOp22
 70
     1
102
RTVSPropertyOp23
 70
     1
102
RTVSPropertyOp24
 70
     1
102
RTVSPropertyOp25
 70
     1
102
RTVSPropertyOp26
 70
     1
102
RTVSPropertyOp27
 70
     1
102
RTVSPropertyOp28
 70
     1
102
RTVSPropertyOp29
 70
     1
102
RTVSPropertyOp30
 70
     1
102
RTVSPropertyOp31
 70
     1
102
RTVSPropertyOp32
 70
     1
102
RTVSPropertyOp33
 70
     1
102
RTVSPropertyOp34
 70
     1
102
RTVSPropertyOp35
 70
     1
102
RTVSPropertyOp36
 70
     1
102
RTVSPropertyOp37
 70
     1
102
RTVSPropertyOp38
 70
     1
102
RTVSPropertyOp39
 70
     1
102
RTVSPropertyOp40
 70
     1
102
RTVSPropertyOp41
 70
     1
102
RTVSPropertyOp42
 70
     1
102
RTVSPropertyOp43
 70
     1
102
RTVSPropertyOp44
 70
     1
102
RTVSPropertyOp45
 70
     1
102
RTVSPropertyOp46
 70
     1
102
RTVSPropertyOp47
 70
     1
102
RTVSPropertyOp48
 70
     1
102
RTVSPropertyOp49
 70
     1
102
RTVSPropertyOp50
 70
     1
102
RTVSPropertyOp51
 70
     0
102
RTVSPropertyOp52
 70
     0
102
RTVSPropertyOp53
 70
     1
102
RTVSPropertyOp54
 70
     1
102
RTVSPropertyOp55
 70
     1
102
RTVSPropertyOp56
 70
     1
102
RTVSPropertyOp57
 70
     1
102
RTVSPropertyOp58
 70
     1
102
RTVSPropertyOp59
 70
     1
102
RTVSPropertyOp60
 70
     1
102
RTVSPropertyOp61
 70
     1
102
RTVSPropertyOp62
 70
     1
  0
XRECORD
  5
1766
102
{ACAD_REACTORS
330
1765
102
}
330
1765
100
AcDbXrecord
280
     1
102
RTVSPost2010Prop28
280
     0
102
RTVSPost2010PropOp28
 70
     1
102
RTVSPost2010Prop29
280
     1
102
RTVSPost2010PropOp29
 70
     1
102
RTVSPost2010Prop30
280
     1
102
RTVSPost2010PropOp30
 70
     1
102
RTVSPost2010Prop31
280
     0
102
RTVSPost2010PropOp31
 70
     1
102
RTVSPost2010Prop32
280
     0
102
RTVSPost2010PropOp32
 70
     1
102
RTVSPost2010Prop33
280
     0
102
RTVSPost2010PropOp33
 70
     1
102
RTVSPost2010Prop34
280
     0
102
RTVSPost2010PropOp34
 70
     1
102
RTVSPost2010Prop35
280
     0
102
RTVSPost2010PropOp35
 70
     1
102
RTVSPost2010Prop36
280
     0
102
RTVSPost2010PropOp36
 70
     1
102
RTVSPost2010Prop37
 90
       50
102
RTVSPost2010PropOp37
 70
     1
102
RTVSPost2010Prop38
140
0.0
102
RTVSPost2010PropOp38
 70
     1
102
RTVSPost2010Prop39
140
1.0
102
RTVSPost2010PropOp39
 70
     1
102
RTVSPost2010Prop40
 90
        0
102
RTVSPost2010PropOp40
 70
     1
102
RTVSPost2010Prop41ColorIndex
 90
       18
102
RTVSPost2010Prop41ColorRGB
 90
        0
102
RTVSPost2010PropOp41
 70
     1
102
RTVSPost2010Prop42
 90
       50
102
RTVSPost2010PropOp42
 70
     1
102
RTVSPost2010Prop43
 90
        3
102
RTVSPost2010PropOp43
 70
     1
102
RTVSPost2010Prop44ColorIndex
 90
        5
102
RTVSPost2010Prop44ColorRGB
 90
      255
102
RTVSPost2010PropOp44
 70
     1
102
RTVSPost2010Prop45
280
     0
102
RTVSPost2010PropOp45
 70
     1
102
RTVSPost2010Prop46
 90
       50
102
RTVSPost2010PropOp46
 70
     1
102
RTVSPost2010Prop47
 90
       50
102
RTVSPost2010PropOp47
 70
     1
102
RTVSPost2010Prop48
 90
       50
102
RTVSPost2010PropOp48
 70
     1
102
RTVSPost2010Prop49
280
     0
102
RTVSPost2010PropOp49
 70
     1
102
RTVSPost2010Prop50
 90
       50
102
RTVSPost2010PropOp50
 70
     1
102
RTVSPost2010Prop51ColorIndex
 90
      256
102
RTVSPost2010Prop51ColorRGB
 90
-16777216
102
RTVSPost2010PropOp51
 70
     0
102
RTVSPost2010Prop52
140
1.0
102
RTVSPost2010PropOp52
 70
     0
102
RTVSPost2010Prop53
 90
        2
102
RTVSPost2010PropOp53
 70
     1
102
RTVSPost2010Prop54
  1
strokes_ogs.tif
102
RTVSPost2010PropOp54
 70
     1
102
RTVSPost2010Prop55
280
     0
102
RTVSPost2010PropOp55
 70
     1
102
RTVSPost2010Prop56
140
1.0
102
RTVSPost2010PropOp56
 70
     1
102
RTVSPost2010Prop57
140
1.0
102
RTVSPost2010PropOp57
 70
     1
102
RTVSPropertyOp0
 70
     1
102
RTVSPropertyOp1
 70
     1
102
RTVSPropertyOp2
 70
     1
102
RTVSPropertyOp3
 70
     1
102
RTVSPropertyOp4
 70
     1
102
RTVSPropertyOp5
 70
     1
102
RTVSPropertyOp6
 70
     1
102
RTVSPropertyOp7
 70
     1
102
RTVSPropertyOp8
 70
     1
102
RTVSPropertyOp9
 70
     1
102
RTVSPropertyOp10
 70
     1
102
RTVSPropertyOp11
 70
     1
102
RTVSPropertyOp12
 70
     1
102
RTVSPropertyOp13
 70
     1
102
RTVSPropertyOp14
 70
     1
102
RTVSPropertyOp15
 70
     1
102
RTVSPropertyOp16
 70
     1
102
RTVSPropertyOp17
 70
     1
102
RTVSPropertyOp18
 70
     1
102
RTVSPropertyOp19
 70
     1
102
RTVSPropertyOp20
 70
     1
102
RTVSPropertyOp21
 70
     1
102
RTVSPropertyOp22
 70
     1
102
RTVSPropertyOp23
 70
     1
102
RTVSPropertyOp24
 70
     1
102
RTVSPropertyOp25
 70
     1
102
RTVSPropertyOp26
 70
     1
102
RTVSPropertyOp27
 70
     1
102
RTVSPropertyOp28
 70
     1
102
RTVSPropertyOp29
 70
     1
102
RTVSPropertyOp30
 70
     1
102
RTVSPropertyOp31
 70
     1
102
RTVSPropertyOp32
 70
     1
102
RTVSPropertyOp33
 70
     1
102
RTVSPropertyOp34
 70
     1
102
RTVSPropertyOp35
 70
     1
102
RTVSPropertyOp36
 70
     1
102
RTVSPropertyOp37
 70
     1
102
RTVSPropertyOp38
 70
     1
102
RTVSPropertyOp39
 70
     1
102
RTVSPropertyOp40
 70
     1
102
RTVSPropertyOp41
 70
     1
102
RTVSPropertyOp42
 70
     1
102
RTVSPropertyOp43
 70
     1
102
RTVSPropertyOp44
 70
     1
102
RTVSPropertyOp45
 70
     1
102
RTVSPropertyOp46
 70
     1
102
RTVSPropertyOp47
 70
     1
102
RTVSPropertyOp48
 70
     1
102
RTVSPropertyOp49
 70
     1
102
RTVSPropertyOp50
 70
     1
102
RTVSPropertyOp51
 70
     0
102
RTVSPropertyOp52
 70
     0
102
RTVSPropertyOp53
 70
     1
102
RTVSPropertyOp54
 70
     1
102
RTVSPropertyOp55
 70
     1
102
RTVSPropertyOp56
 70
     1
102
RTVSPropertyOp57
 70
     1
102
RTVSPropertyOp58
 70
     1
102
RTVSPropertyOp59
 70
     1
102
RTVSPropertyOp60
 70
     1
102
RTVSPropertyOp61
 70
     1
102
RTVSPropertyOp62
 70
     1
  0
XRECORD
  5
1760
102
{ACAD_REACTORS
330
175F
102
}
330
175F
100
AcDbXrecord
280
     1
102
RTVSPost2010Prop28
280
     0
102
RTVSPost2010PropOp28
 70
     1
102
RTVSPost2010Prop29
280
     1
102
RTVSPost2010PropOp29
 70
     1
102
RTVSPost2010Prop30
280
     1
102
RTVSPost2010PropOp30
 70
     1
102
RTVSPost2010Prop31
280
     0
102
RTVSPost2010PropOp31
 70
     1
102
RTVSPost2010Prop32
280
     0
102
RTVSPost2010PropOp32
 70
     1
102
RTVSPost2010Prop33
280
     0
102
RTVSPost2010PropOp33
 70
     1
102
RTVSPost2010Prop34
280
     0
102
RTVSPost2010PropOp34
 70
     1
102
RTVSPost2010Prop35
280
     0
102
RTVSPost2010PropOp35
 70
     1
102
RTVSPost2010Prop36
280
     0
102
RTVSPost2010PropOp36
 70
     1
102
RTVSPost2010Prop37
 90
       50
102
RTVSPost2010PropOp37
 70
     1
102
RTVSPost2010Prop38
140
0.0
102
RTVSPost2010PropOp38
 70
     1
102
RTVSPost2010Prop39
140
1.0
102
RTVSPost2010PropOp39
 70
     1
102
RTVSPost2010Prop40
 90
        0
102
RTVSPost2010PropOp40
 70
     1
102
RTVSPost2010Prop41ColorIndex
 90
       18
102
RTVSPost2010Prop41ColorRGB
 90
        0
102
RTVSPost2010PropOp41
 70
     1
102
RTVSPost2010Prop42
 90
       50
102
RTVSPost2010PropOp42
 70
     1
102
RTVSPost2010Prop43
 90
        3
102
RTVSPost2010PropOp43
 70
     1
102
RTVSPost2010Prop44ColorIndex
 90
        5
102
RTVSPost2010Prop44ColorRGB
 90
      255
102
RTVSPost2010PropOp44
 70
     1
102
RTVSPost2010Prop45
280
     0
102
RTVSPost2010PropOp45
 70
     1
102
RTVSPost2010Prop46
 90
       50
102
RTVSPost2010PropOp46
 70
     1
102
RTVSPost2010Prop47
 90
       50
102
RTVSPost2010PropOp47
 70
     1
102
RTVSPost2010Prop48
 90
       50
102
RTVSPost2010PropOp48
 70
     1
102
RTVSPost2010Prop49
280
     0
102
RTVSPost2010PropOp49
 70
     1
102
RTVSPost2010Prop50
 90
       50
102
RTVSPost2010PropOp50
 70
     1
102
RTVSPost2010Prop51ColorIndex
 90
      256
102
RTVSPost2010Prop51ColorRGB
 90
-16777216
102
RTVSPost2010PropOp51
 70
     0
102
RTVSPost2010Prop52
140
1.0
102
RTVSPost2010PropOp52
 70
     0
102
RTVSPost2010Prop53
 90
        2
102
RTVSPost2010PropOp53
 70
     1
102
RTVSPost2010Prop54
  1
strokes_ogs.tif
102
RTVSPost2010PropOp54
 70
     1
102
RTVSPost2010Prop55
280
     0
102
RTVSPost2010PropOp55
 70
     1
102
RTVSPost2010Prop56
140
1.0
102
RTVSPost2010PropOp56
 70
     1
102
RTVSPost2010Prop57
140
1.0
102
RTVSPost2010PropOp57
 70
     1
102
RTVSPropertyOp0
 70
     1
102
RTVSPropertyOp1
 70
     1
102
RTVSPropertyOp2
 70
     1
102
RTVSPropertyOp3
 70
     1
102
RTVSPropertyOp4
 70
     1
102
RTVSPropertyOp5
 70
     1
102
RTVSPropertyOp6
 70
     1
102
RTVSPropertyOp7
 70
     1
102
RTVSPropertyOp8
 70
     1
102
RTVSPropertyOp9
 70
     1
102
RTVSPropertyOp10
 70
     1
102
RTVSPropertyOp11
 70
     1
102
RTVSPropertyOp12
 70
     1
102
RTVSPropertyOp13
 70
     1
102
RTVSPropertyOp14
 70
     1
102
RTVSPropertyOp15
 70
     1
102
RTVSPropertyOp16
 70
     1
102
RTVSPropertyOp17
 70
     1
102
RTVSPropertyOp18
 70
     1
102
RTVSPropertyOp19
 70
     1
102
RTVSPropertyOp20
 70
     1
102
RTVSPropertyOp21
 70
     1
102
RTVSPropertyOp22
 70
     1
102
RTVSPropertyOp23
 70
     1
102
RTVSPropertyOp24
 70
     1
102
RTVSPropertyOp25
 70
     1
102
RTVSPropertyOp26
 70
     1
102
RTVSPropertyOp27
 70
     1
102
RTVSPropertyOp28
 70
     1
102
RTVSPropertyOp29
 70
     1
102
RTVSPropertyOp30
 70
     1
102
RTVSPropertyOp31
 70
     1
102
RTVSPropertyOp32
 70
     1
102
RTVSPropertyOp33
 70
     1
102
RTVSPropertyOp34
 70
     1
102
RTVSPropertyOp35
 70
     1
102
RTVSPropertyOp36
 70
     1
102
RTVSPropertyOp37
 70
     1
102
RTVSPropertyOp38
 70
     1
102
RTVSPropertyOp39
 70
     1
102
RTVSPropertyOp40
 70
     1
102
RTVSPropertyOp41
 70
     1
102
RTVSPropertyOp42
 70
     1
102
RTVSPropertyOp43
 70
     1
102
RTVSPropertyOp44
 70
     1
102
RTVSPropertyOp45
 70
     1
102
RTVSPropertyOp46
 70
     1
102
RTVSPropertyOp47
 70
     1
102
RTVSPropertyOp48
 70
     1
102
RTVSPropertyOp49
 70
     1
102
RTVSPropertyOp50
 70
     1
102
RTVSPropertyOp51
 70
     0
102
RTVSPropertyOp52
 70
     0
102
RTVSPropertyOp53
 70
     1
102
RTVSPropertyOp54
 70
     1
102
RTVSPropertyOp55
 70
     1
102
RTVSPropertyOp56
 70
     1
102
RTVSPropertyOp57
 70
     1
102
RTVSPropertyOp58
 70
     1
102
RTVSPropertyOp59
 70
     1
102
RTVSPropertyOp60
 70
     1
102
RTVSPropertyOp61
 70
     1
102
RTVSPropertyOp62
 70
     1
  0
XRECORD
  5
1762
102
{ACAD_REACTORS
330
1761
102
}
330
1761
100
AcDbXrecord
280
     1
102
RTVSPost2010Prop28
280
     0
102
RTVSPost2010PropOp28
 70
     1
102
RTVSPost2010Prop29
280
     1
102
RTVSPost2010PropOp29
 70
     1
102
RTVSPost2010Prop30
280
     1
102
RTVSPost2010PropOp30
 70
     1
102
RTVSPost2010Prop31
280
     0
102
RTVSPost2010PropOp31
 70
     1
102
RTVSPost2010Prop32
280
     0
102
RTVSPost2010PropOp32
 70
     1
102
RTVSPost2010Prop33
280
     0
102
RTVSPost2010PropOp33
 70
     1
102
RTVSPost2010Prop34
280
     0
102
RTVSPost2010PropOp34
 70
     1
102
RTVSPost2010Prop35
280
     0
102
RTVSPost2010PropOp35
 70
     1
102
RTVSPost2010Prop36
280
     0
102
RTVSPost2010PropOp36
 70
     1
102
RTVSPost2010Prop37
 90
       50
102
RTVSPost2010PropOp37
 70
     1
102
RTVSPost2010Prop38
140
0.0
102
RTVSPost2010PropOp38
 70
     1
102
RTVSPost2010Prop39
140
1.0
102
RTVSPost2010PropOp39
 70
     1
102
RTVSPost2010Prop40
 90
        0
102
RTVSPost2010PropOp40
 70
     1
102
RTVSPost2010Prop41ColorIndex
 90
       18
102
RTVSPost2010Prop41ColorRGB
 90
        0
102
RTVSPost2010PropOp41
 70
     1
102
RTVSPost2010Prop42
 90
       50
102
RTVSPost2010PropOp42
 70
     1
102
RTVSPost2010Prop43
 90
        3
102
RTVSPost2010PropOp43
 70
     1
102
RTVSPost2010Prop44ColorIndex
 90
        5
102
RTVSPost2010Prop44ColorRGB
 90
      255
102
RTVSPost2010PropOp44
 70
     1
102
RTVSPost2010Prop45
280
     0
102
RTVSPost2010PropOp45
 70
     1
102
RTVSPost2010Prop46
 90
       50
102
RTVSPost2010PropOp46
 70
     1
102
RTVSPost2010Prop47
 90
       50
102
RTVSPost2010PropOp47
 70
     1
102
RTVSPost2010Prop48
 90
       50
102
RTVSPost2010PropOp48
 70
     1
102
RTVSPost2010Prop49
280
     0
102
RTVSPost2010PropOp49
 70
     1
102
RTVSPost2010Prop50
 90
       50
102
RTVSPost2010PropOp50
 70
     1
102
RTVSPost2010Prop51ColorIndex
 90
      256
102
RTVSPost2010Prop51ColorRGB
 90
-16777216
102
RTVSPost2010PropOp51
 70
     0
102
RTVSPost2010Prop52
140
1.0
102
RTVSPost2010PropOp52
 70
     0
102
RTVSPost2010Prop53
 90
        2
102
RTVSPost2010PropOp53
 70
     1
102
RTVSPost2010Prop54
  1
strokes_ogs.tif
102
RTVSPost2010PropOp54
 70
     1
102
RTVSPost2010Prop55
280
     0
102
RTVSPost2010PropOp55
 70
     1
102
RTVSPost2010Prop56
140
1.0
102
RTVSPost2010PropOp56
 70
     1
102
RTVSPost2010Prop57
140
1.0
102
RTVSPost2010PropOp57
 70
     1
102
RTVSPropertyOp0
 70
     1
102
RTVSPropertyOp1
 70
     1
102
RTVSPropertyOp2
 70
     1
102
RTVSPropertyOp3
 70
     1
102
RTVSPropertyOp4
 70
     1
102
RTVSPropertyOp5
 70
     1
102
RTVSPropertyOp6
 70
     1
102
RTVSPropertyOp7
 70
     1
102
RTVSPropertyOp8
 70
     1
102
RTVSPropertyOp9
 70
     1
102
RTVSPropertyOp10
 70
     1
102
RTVSPropertyOp11
 70
     1
102
RTVSPropertyOp12
 70
     1
102
RTVSPropertyOp13
 70
     1
102
RTVSPropertyOp14
 70
     1
102
RTVSPropertyOp15
 70
     1
102
RTVSPropertyOp16
 70
     1
102
RTVSPropertyOp17
 70
     1
102
RTVSPropertyOp18
 70
     1
102
RTVSPropertyOp19
 70
     1
102
RTVSPropertyOp20
 70
     1
102
RTVSPropertyOp21
 70
     1
102
RTVSPropertyOp22
 70
     1
102
RTVSPropertyOp23
 70
     1
102
RTVSPropertyOp24
 70
     1
102
RTVSPropertyOp25
 70
     1
102
RTVSPropertyOp26
 70
     1
102
RTVSPropertyOp27
 70
     1
102
RTVSPropertyOp28
 70
     1
102
RTVSPropertyOp29
 70
     1
102
RTVSPropertyOp30
 70
     1
102
RTVSPropertyOp31
 70
     1
102
RTVSPropertyOp32
 70
     1
102
RTVSPropertyOp33
 70
     1
102
RTVSPropertyOp34
 70
     1
102
RTVSPropertyOp35
 70
     1
102
RTVSPropertyOp36
 70
     1
102
RTVSPropertyOp37
 70
     1
102
RTVSPropertyOp38
 70
     1
102
RTVSPropertyOp39
 70
     1
102
RTVSPropertyOp40
 70
     1
102
RTVSPropertyOp41
 70
     1
102
RTVSPropertyOp42
 70
     1
102
RTVSPropertyOp43
 70
     1
102
RTVSPropertyOp44
 70
     1
102
RTVSPropertyOp45
 70
     1
102
RTVSPropertyOp46
 70
     1
102
RTVSPropertyOp47
 70
     1
102
RTVSPropertyOp48
 70
     1
102
RTVSPropertyOp49
 70
     1
102
RTVSPropertyOp50
 70
     1
102
RTVSPropertyOp51
 70
     0
102
RTVSPropertyOp52
 70
     0
102
RTVSPropertyOp53
 70
     1
102
RTVSPropertyOp54
 70
     1
102
RTVSPropertyOp55
 70
     1
102
RTVSPropertyOp56
 70
     1
102
RTVSPropertyOp57
 70
     1
102
RTVSPropertyOp58
 70
     1
102
RTVSPropertyOp59
 70
     1
102
RTVSPropertyOp60
 70
     1
102
RTVSPropertyOp61
 70
     1
102
RTVSPropertyOp62
 70
     1
  0
XRECORD
  5
1758
102
{ACAD_REACTORS
330
1757
102
}
330
1757
100
AcDbXrecord
280
     1
102
RTVSPost2010Prop28
280
     0
102
RTVSPost2010PropOp28
 70
     1
102
RTVSPost2010Prop29
280
     1
102
RTVSPost2010PropOp29
 70
     1
102
RTVSPost2010Prop30
280
     1
102
RTVSPost2010PropOp30
 70
     1
102
RTVSPost2010Prop31
280
     0
102
RTVSPost2010PropOp31
 70
     1
102
RTVSPost2010Prop32
280
     0
102
RTVSPost2010PropOp32
 70
     1
102
RTVSPost2010Prop33
280
     0
102
RTVSPost2010PropOp33
 70
     1
102
RTVSPost2010Prop34
280
     0
102
RTVSPost2010PropOp34
 70
     1
102
RTVSPost2010Prop35
280
     0
102
RTVSPost2010PropOp35
 70
     1
102
RTVSPost2010Prop36
280
     0
102
RTVSPost2010PropOp36
 70
     1
102
RTVSPost2010Prop37
 90
       50
102
RTVSPost2010PropOp37
 70
     1
102
RTVSPost2010Prop38
140
0.0
102
RTVSPost2010PropOp38
 70
     1
102
RTVSPost2010Prop39
140
1.0
102
RTVSPost2010PropOp39
 70
     1
102
RTVSPost2010Prop40
 90
        0
102
RTVSPost2010PropOp40
 70
     1
102
RTVSPost2010Prop41ColorIndex
 90
       18
102
RTVSPost2010Prop41ColorRGB
 90
        0
102
RTVSPost2010PropOp41
 70
     1
102
RTVSPost2010Prop42
 90
       50
102
RTVSPost2010PropOp42
 70
     1
102
RTVSPost2010Prop43
 90
        3
102
RTVSPost2010PropOp43
 70
     1
102
RTVSPost2010Prop44ColorIndex
 90
        5
102
RTVSPost2010Prop44ColorRGB
 90
      255
102
RTVSPost2010PropOp44
 70
     1
102
RTVSPost2010Prop45
280
     0
102
RTVSPost2010PropOp45
 70
     1
102
RTVSPost2010Prop46
 90
       50
102
RTVSPost2010PropOp46
 70
     1
102
RTVSPost2010Prop47
 90
       50
102
RTVSPost2010PropOp47
 70
     1
102
RTVSPost2010Prop48
 90
       50
102
RTVSPost2010PropOp48
 70
     1
102
RTVSPost2010Prop49
280
     0
102
RTVSPost2010PropOp49
 70
     1
102
RTVSPost2010Prop50
 90
       50
102
RTVSPost2010PropOp50
 70
     1
102
RTVSPost2010Prop51ColorIndex
 90
      256
102
RTVSPost2010Prop51ColorRGB
 90
-16777216
102
RTVSPost2010PropOp51
 70
     0
102
RTVSPost2010Prop52
140
1.0
102
RTVSPost2010PropOp52
 70
     0
102
RTVSPost2010Prop53
 90
        2
102
RTVSPost2010PropOp53
 70
     1
102
RTVSPost2010Prop54
  1
strokes_ogs.tif
102
RTVSPost2010PropOp54
 70
     1
102
RTVSPost2010Prop55
280
     0
102
RTVSPost2010PropOp55
 70
     1
102
RTVSPost2010Prop56
140
1.0
102
RTVSPost2010PropOp56
 70
     1
102
RTVSPost2010Prop57
140
1.0
102
RTVSPost2010PropOp57
 70
     1
102
RTVSPropertyOp0
 70
     1
102
RTVSPropertyOp1
 70
     1
102
RTVSPropertyOp2
 70
     1
102
RTVSPropertyOp3
 70
     1
102
RTVSPropertyOp4
 70
     1
102
RTVSPropertyOp5
 70
     1
102
RTVSPropertyOp6
 70
     1
102
RTVSPropertyOp7
 70
     1
102
RTVSPropertyOp8
 70
     1
102
RTVSPropertyOp9
 70
     1
102
RTVSPropertyOp10
 70
     1
102
RTVSPropertyOp11
 70
     1
102
RTVSPropertyOp12
 70
     1
102
RTVSPropertyOp13
 70
     1
102
RTVSPropertyOp14
 70
     1
102
RTVSPropertyOp15
 70
     1
102
RTVSPropertyOp16
 70
     1
102
RTVSPropertyOp17
 70
     1
102
RTVSPropertyOp18
 70
     1
102
RTVSPropertyOp19
 70
     1
102
RTVSPropertyOp20
 70
     1
102
RTVSPropertyOp21
 70
     1
102
RTVSPropertyOp22
 70
     1
102
RTVSPropertyOp23
 70
     1
102
RTVSPropertyOp24
 70
     1
102
RTVSPropertyOp25
 70
     1
102
RTVSPropertyOp26
 70
     1
102
RTVSPropertyOp27
 70
     1
102
RTVSPropertyOp28
 70
     1
102
RTVSPropertyOp29
 70
     1
102
RTVSPropertyOp30
 70
     1
102
RTVSPropertyOp31
 70
     1
102
RTVSPropertyOp32
 70
     1
102
RTVSPropertyOp33
 70
     1
102
RTVSPropertyOp34
 70
     1
102
RTVSPropertyOp35
 70
     1
102
RTVSPropertyOp36
 70
     1
102
RTVSPropertyOp37
 70
     1
102
RTVSPropertyOp38
 70
     1
102
RTVSPropertyOp39
 70
     1
102
RTVSPropertyOp40
 70
     1
102
RTVSPropertyOp41
 70
     1
102
RTVSPropertyOp42
 70
     1
102
RTVSPropertyOp43
 70
     1
102
RTVSPropertyOp44
 70
     1
102
RTVSPropertyOp45
 70
     1
102
RTVSPropertyOp46
 70
     1
102
RTVSPropertyOp47
 70
     1
102
RTVSPropertyOp48
 70
     1
102
RTVSPropertyOp49
 70
     1
102
RTVSPropertyOp50
 70
     1
102
RTVSPropertyOp51
 70
     0
102
RTVSPropertyOp52
 70
     0
102
RTVSPropertyOp53
 70
     1
102
RTVSPropertyOp54
 70
     1
102
RTVSPropertyOp55
 70
     1
102
RTVSPropertyOp56
 70
     1
102
RTVSPropertyOp57
 70
     1
102
RTVSPropertyOp58
 70
     1
102
RTVSPropertyOp59
 70
     1
102
RTVSPropertyOp60
 70
     1
102
RTVSPropertyOp61
 70
     1
102
RTVSPropertyOp62
 70
     1
  0
XRECORD
  5
174C
102
{ACAD_REACTORS
330
174B
102
}
330
174B
100
AcDbXrecord
280
     1
102
RTVSPost2010Prop28
280
     0
102
RTVSPost2010PropOp28
 70
     1
102
RTVSPost2010Prop29
280
     1
102
RTVSPost2010PropOp29
 70
     1
102
RTVSPost2010Prop30
280
     1
102
RTVSPost2010PropOp30
 70
     1
102
RTVSPost2010Prop31
280
     0
102
RTVSPost2010PropOp31
 70
     1
102
RTVSPost2010Prop32
280
     0
102
RTVSPost2010PropOp32
 70
     1
102
RTVSPost2010Prop33
280
     0
102
RTVSPost2010PropOp33
 70
     1
102
RTVSPost2010Prop34
280
     0
102
RTVSPost2010PropOp34
 70
     1
102
RTVSPost2010Prop35
280
     0
102
RTVSPost2010PropOp35
 70
     1
102
RTVSPost2010Prop36
280
     0
102
RTVSPost2010PropOp36
 70
     1
102
RTVSPost2010Prop37
 90
       50
102
RTVSPost2010PropOp37
 70
     1
102
RTVSPost2010Prop38
140
0.0
102
RTVSPost2010PropOp38
 70
     1
102
RTVSPost2010Prop39
140
1.0
102
RTVSPost2010PropOp39
 70
     1
102
RTVSPost2010Prop40
 90
        0
102
RTVSPost2010PropOp40
 70
     1
102
RTVSPost2010Prop41ColorIndex
 90
       18
102
RTVSPost2010Prop41ColorRGB
 90
        0
102
RTVSPost2010PropOp41
 70
     1
102
RTVSPost2010Prop42
 90
       50
102
RTVSPost2010PropOp42
 70
     1
102
RTVSPost2010Prop43
 90
        3
102
RTVSPost2010PropOp43
 70
     1
102
RTVSPost2010Prop44ColorIndex
 90
        5
102
RTVSPost2010Prop44ColorRGB
 90
      255
102
RTVSPost2010PropOp44
 70
     1
102
RTVSPost2010Prop45
280
     0
102
RTVSPost2010PropOp45
 70
     1
102
RTVSPost2010Prop46
 90
       50
102
RTVSPost2010PropOp46
 70
     1
102
RTVSPost2010Prop47
 90
       50
102
RTVSPost2010PropOp47
 70
     1
102
RTVSPost2010Prop48
 90
       50
102
RTVSPost2010PropOp48
 70
     1
102
RTVSPost2010Prop49
280
     0
102
RTVSPost2010PropOp49
 70
     1
102
RTVSPost2010Prop50
 90
       50
102
RTVSPost2010PropOp50
 70
     1
102
RTVSPost2010Prop51ColorIndex
 90
      256
102
RTVSPost2010Prop51ColorRGB
 90
-16777216
102
RTVSPost2010PropOp51
 70
     0
102
RTVSPost2010Prop52
140
1.0
102
RTVSPost2010PropOp52
 70
     0
102
RTVSPost2010Prop53
 90
        2
102
RTVSPost2010PropOp53
 70
     1
102
RTVSPost2010Prop54
  1
strokes_ogs.tif
102
RTVSPost2010PropOp54
 70
     1
102
RTVSPost2010Prop55
280
     0
102
RTVSPost2010PropOp55
 70
     1
102
RTVSPost2010Prop56
140
1.0
102
RTVSPost2010PropOp56
 70
     1
102
RTVSPost2010Prop57
140
1.0
102
RTVSPost2010PropOp57
 70
     1
102
RTVSPropertyOp0
 70
     1
102
RTVSPropertyOp1
 70
     1
102
RTVSPropertyOp2
 70
     1
102
RTVSPropertyOp3
 70
     1
102
RTVSPropertyOp4
 70
     1
102
RTVSPropertyOp5
 70
     1
102
RTVSPropertyOp6
 70
     1
102
RTVSPropertyOp7
 70
     1
102
RTVSPropertyOp8
 70
     1
102
RTVSPropertyOp9
 70
     1
102
RTVSPropertyOp10
 70
     1
102
RTVSPropertyOp11
 70
     1
102
RTVSPropertyOp12
 70
     1
102
RTVSPropertyOp13
 70
     1
102
RTVSPropertyOp14
 70
     1
102
RTVSPropertyOp15
 70
     1
102
RTVSPropertyOp16
 70
     1
102
RTVSPropertyOp17
 70
     1
102
RTVSPropertyOp18
 70
     1
102
RTVSPropertyOp19
 70
     1
102
RTVSPropertyOp20
 70
     1
102
RTVSPropertyOp21
 70
     1
102
RTVSPropertyOp22
 70
     1
102
RTVSPropertyOp23
 70
     1
102
RTVSPropertyOp24
 70
     1
102
RTVSPropertyOp25
 70
     1
102
RTVSPropertyOp26
 70
     1
102
RTVSPropertyOp27
 70
     1
102
RTVSPropertyOp28
 70
     1
102
RTVSPropertyOp29
 70
     1
102
RTVSPropertyOp30
 70
     1
102
RTVSPropertyOp31
 70
     1
102
RTVSPropertyOp32
 70
     1
102
RTVSPropertyOp33
 70
     1
102
RTVSPropertyOp34
 70
     1
102
RTVSPropertyOp35
 70
     1
102
RTVSPropertyOp36
 70
     1
102
RTVSPropertyOp37
 70
     1
102
RTVSPropertyOp38
 70
     1
102
RTVSPropertyOp39
 70
     1
102
RTVSPropertyOp40
 70
     1
102
RTVSPropertyOp41
 70
     1
102
RTVSPropertyOp42
 70
     1
102
RTVSPropertyOp43
 70
     1
102
RTVSPropertyOp44
 70
     1
102
RTVSPropertyOp45
 70
     1
102
RTVSPropertyOp46
 70
     1
102
RTVSPropertyOp47
 70
     1
102
RTVSPropertyOp48
 70
     1
102
RTVSPropertyOp49
 70
     1
102
RTVSPropertyOp50
 70
     1
102
RTVSPropertyOp51
 70
     0
102
RTVSPropertyOp52
 70
     0
102
RTVSPropertyOp53
 70
     1
102
RTVSPropertyOp54
 70
     1
102
RTVSPropertyOp55
 70
     1
102
RTVSPropertyOp56
 70
     1
102
RTVSPropertyOp57
 70
     1
102
RTVSPropertyOp58
 70
     1
102
RTVSPropertyOp59
 70
     1
102
RTVSPropertyOp60
 70
     1
102
RTVSPropertyOp61
 70
     1
102
RTVSPropertyOp62
 70
     1
  0
XRECORD
  5
1764
102
{ACAD_REACTORS
330
1763
102
}
330
1763
100
AcDbXrecord
280
     1
102
RTVSPost2010Prop28
280
     0
102
RTVSPost2010PropOp28
 70
     1
102
RTVSPost2010Prop29
280
     1
102
RTVSPost2010PropOp29
 70
     1
102
RTVSPost2010Prop30
280
     1
102
RTVSPost2010PropOp30
 70
     1
102
RTVSPost2010Prop31
280
     0
102
RTVSPost2010PropOp31
 70
     1
102
RTVSPost2010Prop32
280
     0
102
RTVSPost2010PropOp32
 70
     1
102
RTVSPost2010Prop33
280
     0
102
RTVSPost2010PropOp33
 70
     1
102
RTVSPost2010Prop34
280
     0
102
RTVSPost2010PropOp34
 70
     1
102
RTVSPost2010Prop35
280
     0
102
RTVSPost2010PropOp35
 70
     1
102
RTVSPost2010Prop36
280
     0
102
RTVSPost2010PropOp36
 70
     1
102
RTVSPost2010Prop37
 90
       50
102
RTVSPost2010PropOp37
 70
     1
102
RTVSPost2010Prop38
140
0.0
102
RTVSPost2010PropOp38
 70
     1
102
RTVSPost2010Prop39
140
1.0
102
RTVSPost2010PropOp39
 70
     1
102
RTVSPost2010Prop40
 90
        0
102
RTVSPost2010PropOp40
 70
     1
102
RTVSPost2010Prop41ColorIndex
 90
       18
102
RTVSPost2010Prop41ColorRGB
 90
        0
102
RTVSPost2010PropOp41
 70
     1
102
RTVSPost2010Prop42
 90
       50
102
RTVSPost2010PropOp42
 70
     1
102
RTVSPost2010Prop43
 90
        3
102
RTVSPost2010PropOp43
 70
     1
102
RTVSPost2010Prop44ColorIndex
 90
        5
102
RTVSPost2010Prop44ColorRGB
 90
      255
102
RTVSPost2010PropOp44
 70
     1
102
RTVSPost2010Prop45
280
     0
102
RTVSPost2010PropOp45
 70
     1
102
RTVSPost2010Prop46
 90
       50
102
RTVSPost2010PropOp46
 70
     1
102
RTVSPost2010Prop47
 90
       50
102
RTVSPost2010PropOp47
 70
     1
102
RTVSPost2010Prop48
 90
       50
102
RTVSPost2010PropOp48
 70
     1
102
RTVSPost2010Prop49
280
     0
102
RTVSPost2010PropOp49
 70
     1
102
RTVSPost2010Prop50
 90
       50
102
RTVSPost2010PropOp50
 70
     1
102
RTVSPost2010Prop51ColorIndex
 90
      256
102
RTVSPost2010Prop51ColorRGB
 90
-16777216
102
RTVSPost2010PropOp51
 70
     0
102
RTVSPost2010Prop52
140
1.0
102
RTVSPost2010PropOp52
 70
     0
102
RTVSPost2010Prop53
 90
        2
102
RTVSPost2010PropOp53
 70
     1
102
RTVSPost2010Prop54
  1
strokes_ogs.tif
102
RTVSPost2010PropOp54
 70
     1
102
RTVSPost2010Prop55
280
     0
102
RTVSPost2010PropOp55
 70
     1
102
RTVSPost2010Prop56
140
1.0
102
RTVSPost2010PropOp56
 70
     1
102
RTVSPost2010Prop57
140
1.0
102
RTVSPost2010PropOp57
 70
     1
102
RTVSPropertyOp0
 70
     1
102
RTVSPropertyOp1
 70
     1
102
RTVSPropertyOp2
 70
     1
102
RTVSPropertyOp3
 70
     1
102
RTVSPropertyOp4
 70
     1
102
RTVSPropertyOp5
 70
     1
102
RTVSPropertyOp6
 70
     1
102
RTVSPropertyOp7
 70
     1
102
RTVSPropertyOp8
 70
     1
102
RTVSPropertyOp9
 70
     1
102
RTVSPropertyOp10
 70
     1
102
RTVSPropertyOp11
 70
     1
102
RTVSPropertyOp12
 70
     1
102
RTVSPropertyOp13
 70
     1
102
RTVSPropertyOp14
 70
     1
102
RTVSPropertyOp15
 70
     1
102
RTVSPropertyOp16
 70
     1
102
RTVSPropertyOp17
 70
     1
102
RTVSPropertyOp18
 70
     1
102
RTVSPropertyOp19
 70
     1
102
RTVSPropertyOp20
 70
     1
102
RTVSPropertyOp21
 70
     1
102
RTVSPropertyOp22
 70
     1
102
RTVSPropertyOp23
 70
     1
102
RTVSPropertyOp24
 70
     1
102
RTVSPropertyOp25
 70
     1
102
RTVSPropertyOp26
 70
     1
102
RTVSPropertyOp27
 70
     1
102
RTVSPropertyOp28
 70
     1
102
RTVSPropertyOp29
 70
     1
102
RTVSPropertyOp30
 70
     1
102
RTVSPropertyOp31
 70
     1
102
RTVSPropertyOp32
 70
     1
102
RTVSPropertyOp33
 70
     1
102
RTVSPropertyOp34
 70
     1
102
RTVSPropertyOp35
 70
     1
102
RTVSPropertyOp36
 70
     1
102
RTVSPropertyOp37
 70
     1
102
RTVSPropertyOp38
 70
     1
102
RTVSPropertyOp39
 70
     1
102
RTVSPropertyOp40
 70
     1
102
RTVSPropertyOp41
 70
     1
102
RTVSPropertyOp42
 70
     1
102
RTVSPropertyOp43
 70
     1
102
RTVSPropertyOp44
 70
     1
102
RTVSPropertyOp45
 70
     1
102
RTVSPropertyOp46
 70
     1
102
RTVSPropertyOp47
 70
     1
102
RTVSPropertyOp48
 70
     1
102
RTVSPropertyOp49
 70
     1
102
RTVSPropertyOp50
 70
     1
102
RTVSPropertyOp51
 70
     0
102
RTVSPropertyOp52
 70
     0
102
RTVSPropertyOp53
 70
     1
102
RTVSPropertyOp54
 70
     1
102
RTVSPropertyOp55
 70
     1
102
RTVSPropertyOp56
 70
     1
102
RTVSPropertyOp57
 70
     1
102
RTVSPropertyOp58
 70
     1
102
RTVSPropertyOp59
 70
     1
102
RTVSPropertyOp60
 70
     1
102
RTVSPropertyOp61
 70
     1
102
RTVSPropertyOp62
 70
     1
  0
ENDSEC
  0
EOF
