  0
SECTION
  2
HEADER
  9
$ACADVER
  1
AC1015
  9
$ACADMAINTVER
 70
    20
  9
$DWGCODEPAGE
  3
ANSI_932
  9
$INSBASE
 10
0.0
 20
0.0
 30
0.0
  9
$EXTMIN
 10
-36.5
 20
-30.0
 30
0.0
  9
$EXTMAX
 10
63.5
 20
34.99987909325575
 30
0.0
  9
$LIMMIN
 10
0.0
 20
0.0
  9
$LIMMAX
 10
420.0
 20
297.0
  9
$ORTHOMODE
 70
     0
  9
$REGENMODE
 70
     1
  9
$FILLMODE
 70
     1
  9
$QTEXTMODE
 70
     0
  9
$MIRRTEXT
 70
     1
  9
$LTSCALE
 40
7.549999999999998
  9
$ATTMODE
 70
     1
  9
$TEXTSIZE
 40
2.5
  9
$TRACEWID
 40
1.0
  9
$TEXTSTYLE
  7
Standard
  9
$CLAYER
  8
4
  9
$CELTYPE
  6
ByLayer
  9
$CECOLOR
 62
   256
  9
$CELTSCALE
 40
1.0
  9
$DISPSILH
 70
     0
  9
$DIMSCALE
 40
1.0
  9
$DIMASZ
 40
2.5
  9
$DIMEXO
 40
0.625
  9
$DIMDLI
 40
3.75
  9
$DIMRND
 40
0.0
  9
$DIMDLE
 40
0.0
  9
$DIMEXE
 40
1.25
  9
$DIMTP
 40
0.0
  9
$DIMTM
 40
0.0
  9
$DIMTXT
 40
2.5
  9
$DIMCEN
 40
2.5
  9
$DIMTSZ
 40
0.0
  9
$DIMTOL
 70
     0
  9
$DIMLIM
 70
     0
  9
$DIMTIH
 70
     0
  9
$DIMTOH
 70
     0
  9
$DIMSE1
 70
     0
  9
$DIMSE2
 70
     0
  9
$DIMTAD
 70
     1
  9
$DIMZIN
 70
     8
  9
$DIMBLK
  1

  9
$DIMASO
 70
     1
  9
$DIMSHO
 70
     1
  9
$DIMPOST
  1

  9
$DIMAPOST
  1

  9
$DIMALT
 70
     0
  9
$DIMALTD
 70
     3
  9
$DIMALTF
 40
0.03937007874016
  9
$DIMLFAC
 40
1.0
  9
$DIMTOFL
 70
     1
  9
$DIMTVP
 40
0.0
  9
$DIMTIX
 70
     0
  9
$DIMSOXD
 70
     0
  9
$DIMSAH
 70
     0
  9
$DIMBLK1
  1

  9
$DIMBLK2
  1

  9
$DIMSTYLE
  2
ISO-25
  9
$DIMCLRD
 70
     0
  9
$DIMCLRE
 70
     0
  9
$DIMCLRT
 70
     0
  9
$DIMTFAC
 40
1.0
  9
$DIMGAP
 40
0.625
  9
$DIMJUST
 70
     0
  9
$DIMSD1
 70
     0
  9
$DIMSD2
 70
     0
  9
$DIMTOLJ
 70
     0
  9
$DIMTZIN
 70
     8
  9
$DIMALTZ
 70
     0
  9
$DIMALTTZ
 70
     0
  9
$DIMUPT
 70
     0
  9
$DIMDEC
 70
     2
  9
$DIMTDEC
 70
     2
  9
$DIMALTU
 70
     2
  9
$DIMALTTD
 70
     3
  9
$DIMTXSTY
  7
Standard
  9
$DIMAUNIT
 70
     0
  9
$DIMADEC
 70
     0
  9
$DIMALTRND
 40
0.0
  9
$DIMAZIN
 70
     0
  9
$DIMDSEP
 70
    44
  9
$DIMATFIT
 70
     3
  9
$DIMFRAC
 70
     0
  9
$DIMLDRBLK
  1

  9
$DIMLUNIT
 70
     2
  9
$DIMLWD
 70
    -2
  9
$DIMLWE
 70
    -2
  9
$DIMTMOVE
 70
     0
  9
$LUNITS
 70
     2
  9
$LUPREC
 70
     4
  9
$SKETCHINC
 40
1.0
  9
$FILLETRAD
 40
10.0
  9
$AUNITS
 70
     0
  9
$AUPREC
 70
     0
  9
$MENU
  1
.
  9
$ELEVATION
 40
0.0
  9
$PELEVATION
 40
0.0
  9
$THICKNESS
 40
0.0
  9
$LIMCHECK
 70
     0
  9
$CHAMFERA
 40
10.0
  9
$CHAMFERB
 40
10.0
  9
$CHAMFERC
 40
20.0
  9
$CHAMFERD
 40
0.0
  9
$SKPOLY
 70
     0
  9
$TDCREATE
 40
2458765.839571759
  9
$TDUCREATE
 40
2458765.464583322
  9
$TDUPDATE
 40
2458886.491377315
  9
$TDUUPDATE
 40
2458886.116377315
  9
$TDINDWG
 40
0.0485677431
  9
$TDUSRTIMER
 40
2458836.247067674
  9
$USRTIMER
 70
     1
  9
$ANGBASE
 50
0.0
  9
$ANGDIR
 70
     0
  9
$PDMODE
 70
     0
  9
$PDSIZE
 40
0.0
  9
$PLINEWID
 40
0.0
  9
$SPLFRAME
 70
     0
  9
$SPLINETYPE
 70
     6
  9
$SPLINESEGS
 70
     8
  9
$HANDSEED
  5
12D4
  9
$SURFTAB1
 70
     6
  9
$SURFTAB2
 70
     6
  9
$SURFTYPE
 70
     6
  9
$SURFU
 70
     6
  9
$SURFV
 70
     6
  9
$UCSBASE
  2

  9
$UCSNAME
  2

  9
$UCSORG
 10
0.0
 20
0.0
 30
0.0
  9
$UCSXDIR
 10
1.0
 20
0.0
 30
0.0
  9
$UCSYDIR
 10
0.0
 20
1.0
 30
0.0
  9
$UCSORTHOREF
  2

  9
$UCSORTHOVIEW
 70
     0
  9
$UCSORGTOP
 10
0.0
 20
0.0
 30
0.0
  9
$UCSORGBOTTOM
 10
0.0
 20
0.0
 30
0.0
  9
$UCSORGLEFT
 10
0.0
 20
0.0
 30
0.0
  9
$UCSORGRIGHT
 10
0.0
 20
0.0
 30
0.0
  9
$UCSORGFRONT
 10
0.0
 20
0.0
 30
0.0
  9
$UCSORGBACK
 10
0.0
 20
0.0
 30
0.0
  9
$PUCSBASE
  2

  9
$PUCSNAME
  2

  9
$PUCSORG
 10
0.0
 20
0.0
 30
0.0
  9
$PUCSXDIR
 10
1.0
 20
0.0
 30
0.0
  9
$PUCSYDIR
 10
0.0
 20
1.0
 30
0.0
  9
$PUCSORTHOREF
  2

  9
$PUCSORTHOVIEW
 70
     0
  9
$PUCSORGTOP
 10
0.0
 20
0.0
 30
0.0
  9
$PUCSORGBOTTOM
 10
0.0
 20
0.0
 30
0.0
  9
$PUCSORGLEFT
 10
0.0
 20
0.0
 30
0.0
  9
$PUCSORGRIGHT
 10
0.0
 20
0.0
 30
0.0
  9
$PUCSORGFRONT
 10
0.0
 20
0.0
 30
0.0
  9
$PUCSORGBACK
 10
0.0
 20
0.0
 30
0.0
  9
$USERI1
 70
     0
  9
$USERI2
 70
     0
  9
$USERI3
 70
     0
  9
$USERI4
 70
     0
  9
$USERI5
 70
     0
  9
$USERR1
 40
0.0
  9
$USERR2
 40
0.0
  9
$USERR3
 40
0.0
  9
$USERR4
 40
0.0
  9
$USERR5
 40
0.0
  9
$WORLDVIEW
 70
     1
  9
$SHADEDGE
 70
     3
  9
$SHADEDIF
 70
    70
  9
$TILEMODE
 70
     1
  9
$MAXACTVP
 70
    64
  9
$PINSBASE
 10
0.0
 20
0.0
 30
0.0
  9
$PLIMCHECK
 70
     0
  9
$PEXTMIN
 10
1.000000000000000E+20
 20
1.000000000000000E+20
 30
1.000000000000000E+20
  9
$PEXTMAX
 10
-1.000000000000000E+20
 20
-1.000000000000000E+20
 30
-1.000000000000000E+20
  9
$PLIMMIN
 10
0.0
 20
0.0
  9
$PLIMMAX
 10
0.0
 20
0.0
  9
$UNITMODE
 70
     0
  9
$VISRETAIN
 70
     1
  9
$PLINEGEN
 70
     0
  9
$PSLTSCALE
 70
     1
  9
$TREEDEPTH
 70
  3020
  9
$CMLSTYLE
  2
Standard
  9
$CMLJUST
 70
     0
  9
$CMLSCALE
 40
20.0
  9
$PROXYGRAPHICS
 70
     1
  9
$MEASUREMENT
 70
     1
  9
$CELWEIGHT
370
    -1
  9
$ENDCAPS
280
     0
  9
$JOINSTYLE
280
     0
  9
$LWDISPLAY
290
     0
  9
$INSUNITS
 70
     4
  9
$HYPERLINKBASE
  1

  9
$STYLESHEET
  1

  9
$XEDIT
290
     1
  9
$CEPSNTYPE
380
     0
  9
$PSTYLEMODE
290
     1
  9
$FINGERPRINTGUID
  2
{4E574D77-AF2F-4C2B-BABC-C73A7248EB60}
  9
$VERSIONGUID
  2
{0711E8B3-C114-3847-8186-F0291D41170C}
  9
$EXTNAMES
290
     1
  9
$PSVPSCALE
 40
0.0
  9
$OLESTARTUP
290
     0
  0
ENDSEC
  0
SECTION
  2
CLASSES
  0
CLASS
  1
ACDBDICTIONARYWDFLT
  2
AcDbDictionaryWithDefault
  3
ObjectDBX Classes
 90
        0
280
     0
281
     0
  0
CLASS
  1
VISUALSTYLE
  2
AcDbVisualStyle
  3
ObjectDBX Classes
 90
     4095
280
     0
281
     0
  0
CLASS
  1
MATERIAL
  2
AcDbMaterial
  3
ObjectDBX Classes
 90
     1153
280
     0
281
     0
  0
CLASS
  1
SCALE
  2
AcDbScale
  3
ObjectDBX Classes
 90
     1153
280
     0
281
     0
  0
CLASS
  1
DICTIONARYVAR
  2
AcDbDictionaryVar
  3
ObjectDBX Classes
 90
        0
280
     0
281
     0
  0
CLASS
  1
ACDBPLACEHOLDER
  2
AcDbPlaceHolder
  3
ObjectDBX Classes
 90
        0
280
     0
281
     0
  0
CLASS
  1
LAYOUT
  2
AcDbLayout
  3
ObjectDBX Classes
 90
        0
280
     0
281
     0
  0
CLASS
  1
TABLESTYLE
  2
AcDbTableStyle
  3
ObjectDBX Classes
 90
     4095
280
     0
281
     0
  0
CLASS
  1
MLEADERSTYLE
  2
AcDbMLeaderStyle
  3
ACDB_MLEADERSTYLE_CLASS
 90
     4095
280
     0
281
     0
  0
CLASS
  1
SUN
  2
AcDbSun
  3
SCENEOE
 90
    33921
280
     0
281
     0
  0
CLASS
  1
RASTERVARIABLES
  2
AcDbRasterVariables
  3
ISM
 90
        0
280
     0
281
     0
  0
CLASS
  1
DIMASSOC
  2
AcDbDimAssoc
  3
"AcDbDimAssoc|Product Desc:     AcDim ARX App For Dimension|Company:          Autodesk, Inc.|WEB Address:      www.autodesk.com"
 90
        0
280
     0
281
     0
  0
CLASS
  1
ACDBSECTIONVIEWSTYLE
  2
AcDbSectionViewStyle
  3
ObjectDBX Classes
 90
     1025
280
     0
281
     0
  0
CLASS
  1
ACDBDETAILVIEWSTYLE
  2
AcDbDetailViewStyle
  3
ObjectDBX Classes
 90
     1025
280
     0
281
     0
  0
CLASS
  1
EXACXREFPANELOBJECT
  2
ExAcXREFPanelObject
  3
EXAC_ESW
 90
     1025
280
     0
281
     0
  0
CLASS
  1
NPOCOLLECTION
  2
AcDbImpNonPersistentObjectsCollection
  3
ObjectDBX Classes
 90
     1153
280
     0
281
     0
  0
CLASS
  1
CELLSTYLEMAP
  2
AcDbCellStyleMap
  3
ObjectDBX Classes
 90
     1152
280
     0
281
     0
  0
CLASS
  1
SOLID_BACKGROUND
  2
AcDbSolidBackground
  3
SCENEOE
 90
    36863
280
     0
281
     0
  0
ENDSEC
  0
SECTION
  2
TABLES
  0
TABLE
  2
VPORT
  5
8
330
0
100
AcDbSymbolTable
 70
     1
  0
VPORT
  5
29
330
8
100
AcDbSymbolTableRecord
100
AcDbViewportTableRecord
  2
*Active
 70
     0
 10
0.0
 20
0.0
 11
1.0
 21
1.0
 12
26.72940770889289
 22
-6.318180178689715
 13
0.0
 23
0.0
 14
10.0
 24
10.0
 15
10.0
 25
10.0
 16
0.0
 26
0.0
 36
1.0
 17
0.0
 27
0.0
 37
0.0
 40
109.8885936011297
 41
2.283154121863799
 42
50.0
 43
0.0
 44
0.0
 50
0.0
 51
0.0
 71
    16
 72
   100
 73
     1
 74
     3
 75
     0
 76
     0
 77
     0
 78
     0
281
     0
 65
     1
110
0.0
120
0.0
130
0.0
111
1.0
121
0.0
131
0.0
112
0.0
122
1.0
132
0.0
 79
     0
146
0.0
1001
ACAD_NAV_VCDISPLAY
1070
     3
  0
ENDTAB
  0
TABLE
  2
LTYPE
  5
5
330
0
100
AcDbSymbolTable
 70
    10
  0
LTYPE
  5
14
330
5
100
AcDbSymbolTableRecord
100
AcDbLinetypeTableRecord
  2
ByBlock
 70
     0
  3

 72
    65
 73
     0
 40
0.0
  0
LTYPE
  5
15
330
5
100
AcDbSymbolTableRecord
100
AcDbLinetypeTableRecord
  2
ByLayer
 70
     0
  3

 72
    65
 73
     0
 40
0.0
  0
LTYPE
  5
16
330
5
100
AcDbSymbolTableRecord
100
AcDbLinetypeTableRecord
  2
Continuous
 70
     0
  3
Solid line
 72
    65
 73
     0
 40
0.0
  0
LTYPE
  5
45
330
5
100
AcDbSymbolTableRecord
100
AcDbLinetypeTableRecord
  2
phl_thick
 70
     0
  3
THICK
 72
    65
 73
     0
 40
0.0
  0
LTYPE
  5
48
330
5
100
AcDbSymbolTableRecord
100
AcDbLinetypeTableRecord
  2
CUT
 70
     0
  3
THICK
 72
    65
 73
     0
 40
0.0
  0
LTYPE
  5
4B
330
5
100
AcDbSymbolTableRecord
100
AcDbLinetypeTableRecord
  2
SKVIEW1
 70
     0
  3
THICK
 72
    65
 73
     0
 40
0.0
  0
LTYPE
  5
51
330
5
100
AcDbSymbolTableRecord
100
AcDbLinetypeTableRecord
  2
ls_SKVIEW2
 70
     0
  3
THIN
 72
    65
 73
     0
 40
0.0
  0
LTYPE
  5
F9
330
5
100
AcDbSymbolTableRecord
100
AcDbLinetypeTableRecord
  2
ls_SK2
 70
     0
  3
THIN
 72
    65
 73
     0
 40
0.0
  0
LTYPE
  5
13F
330
5
100
AcDbSymbolTableRecord
100
AcDbLinetypeTableRecord
  2
ls1
 70
     0
  3
THICK
 72
    65
 73
     0
 40
0.0
  0
LTYPE
  5
14B
330
5
100
AcDbSymbolTableRecord
100
AcDbLinetypeTableRecord
  2
INFTOTAL
 70
     0
  3
THIN
 72
    65
 73
     0
 40
0.0
  0
LTYPE
  5
677
330
5
100
AcDbSymbolTableRecord
100
AcDbLinetypeTableRecord
  2
CENTER
 70
     0
  3
Center ____ _ ____ _ ____ _ ____ _ ____ _ ____
 72
    65
 73
     4
 40
10.16
 49
6.349999999999997
 74
     0
 49
-1.27
 74
     0
 49
1.27
 74
     0
 49
-1.27
 74
     0
  0
LTYPE
  5
822
330
5
100
AcDbSymbolTableRecord
100
AcDbLinetypeTableRecord
  2
AM_DIN_G_W050
 70
     0
  3
____ . ____ . ____ . ____ . ____ . ____ . ____
 72
    65
 73
     4
 40
13.75
 49
9.75
 74
     0
 49
-1.5
 74
     0
 49
1.0
 74
     0
 49
-1.5
 74
     0
  0
ENDTAB
  0
TABLE
  2
LAYER
  5
2
102
{ACAD_XDICTIONARY
360
470
102
}
330
0
100
AcDbSymbolTable
 70
    12
  0
LAYER
  5
10
102
{ACAD_XDICTIONARY
360
929
102
}
330
2
100
AcDbSymbolTableRecord
100
AcDbLayerTableRecord
  2
0
 70
     0
 62
     7
  6
Continuous
370
    -3
390
F
  0
LAYER
  5
44
102
{ACAD_XDICTIONARY
360
92B
102
}
330
2
100
AcDbSymbolTableRecord
100
AcDbLayerTableRecord
  2
1
 70
     0
 62
     4
  6
Continuous
370
    -3
390
F
  0
LAYER
  5
47
102
{ACAD_XDICTIONARY
360
92D
102
}
330
2
100
AcDbSymbolTableRecord
100
AcDbLayerTableRecord
  2
CUT
 70
     0
 62
     1
  6
Continuous
370
    -3
390
F
  0
LAYER
  5
14A
102
{ACAD_XDICTIONARY
360
92F
102
}
330
2
100
AcDbSymbolTableRecord
100
AcDbLayerTableRecord
  2
INFTOTAL
 70
     0
 62
     9
  6
Continuous
370
    -3
390
F
  0
LAYER
  5
5AF
102
{ACAD_XDICTIONARY
360
5B0
102
}
330
2
100
AcDbSymbolTableRecord
100
AcDbLayerTableRecord
  2
2
 70
     0
 62
     7
  6
Continuous
370
    -3
390
F
  0
LAYER
  5
673
102
{ACAD_XDICTIONARY
360
674
102
}
330
2
100
AcDbSymbolTableRecord
100
AcDbLayerTableRecord
  2
SK4
 70
     0
 62
     2
  6
CENTER
370
    -3
390
F
  0
LAYER
  5
6A0
102
{ACAD_XDICTIONARY
360
6A1
102
}
330
2
100
AcDbSymbolTableRecord
100
AcDbLayerTableRecord
  2
4
 70
     0
 62
     2
  6
CENTER
370
    -3
390
F
  0
LAYER
  5
759
102
{ACAD_XDICTIONARY
360
75A
102
}
330
2
100
AcDbSymbolTableRecord
100
AcDbLayerTableRecord
  2
SK1
 70
     0
 62
     4
  6
Continuous
370
    -3
390
F
  0
LAYER
  5
7B1
102
{ACAD_XDICTIONARY
360
931
102
}
330
2
100
AcDbSymbolTableRecord
100
AcDbLayerTableRecord
  2
SKVIEW1
 70
     0
 62
     4
  6
ByBlock
370
    -3
390
F
  0
LAYER
  5
7E7
102
{ACAD_XDICTIONARY
360
933
102
}
330
2
100
AcDbSymbolTableRecord
100
AcDbLayerTableRecord
  2
SKVIEW2
 70
     0
 62
     7
  6
ByBlock
370
    -3
390
F
  0
LAYER
  5
820
102
{ACAD_XDICTIONARY
360
935
102
}
330
2
100
AcDbSymbolTableRecord
100
AcDbLayerTableRecord
  2
SKVIEW4
 70
     0
 62
     2
  6
CENTER
370
    -3
390
F
  0
ENDTAB
  0
TABLE
  2
STYLE
  5
3
330
0
100
AcDbSymbolTable
 70
     3
  0
STYLE
  5
11
330
3
100
AcDbSymbolTableRecord
100
AcDbTextStyleTableRecord
  2
Standard
 70
     0
 40
0.0
 41
1.0
 50
0.0
 71
     0
 42
2.5
  3
Monospac821 BT
  4

  0
STYLE
  5
442
330
3
100
AcDbSymbolTableRecord
100
AcDbTextStyleTableRecord
  2
BMG_TEXT
 70
     0
 40
3.5
 41
1.0
 50
0.0
 71
     0
 42
2.5
  3
Monos.ttf
  4

1001
ACAD
1000
Monospac821 BT
1071
       49
  0
STYLE
  5
7B5
330
3
100
AcDbSymbolTableRecord
100
AcDbTextStyleTableRecord
  2
MX_NOTE_STANDARD
 70
     0
 40
0.0
 41
1.0
 50
0.0
 71
     0
 42
2.5
  3
txt.shx
  4
extfont.shx
  0
ENDTAB
  0
TABLE
  2
VIEW
  5
6
330
0
100
AcDbSymbolTable
 70
     0
  0
ENDTAB
  0
TABLE
  2
UCS
  5
7
330
0
100
AcDbSymbolTable
 70
     0
  0
ENDTAB
  0
TABLE
  2
APPID
  5
9
330
0
100
AcDbSymbolTable
 70
     8
  0
APPID
  5
12
330
9
100
AcDbSymbolTableRecord
100
AcDbRegAppTableRecord
  2
ACAD
 70
     0
  0
APPID
  5
3F
330
9
100
AcDbSymbolTableRecord
100
AcDbRegAppTableRecord
  2
ccLab
 70
     0
  0
APPID
  5
443
330
9
100
AcDbSymbolTableRecord
100
AcDbRegAppTableRecord
  2
ACAD_NAV_VCDISPLAY
 70
     0
  0
APPID
  5
4F8
330
9
100
AcDbSymbolTableRecord
100
AcDbRegAppTableRecord
  2
ACAD_DSTYLE_DIMRADIAL_EXTENSION
 70
     0
  0
APPID
  5
5B6
330
9
100
AcDbSymbolTableRecord
100
AcDbRegAppTableRecord
  2
ACAD_DSTYLE_DIMINSPECT
 70
     0
  0
APPID
  5
AC6
330
9
100
AcDbSymbolTableRecord
100
AcDbRegAppTableRecord
  2
ACAD_EXEMPT_FROM_CAD_STANDARDS
 70
     0
  0
APPID
  5
CFD
330
9
100
AcDbSymbolTableRecord
100
AcDbRegAppTableRecord
  2
AcadAnnoMonitorAlertIconDisabled
 70
     0
  0
APPID
  5
D7F
330
9
100
AcDbSymbolTableRecord
100
AcDbRegAppTableRecord
  2
ACAD_MLEADERVER
 70
     0
  0
ENDTAB
  0
TABLE
  2
DIMSTYLE
  5
A
330
0
100
AcDbSymbolTable
 70
     2
100
AcDbDimStyleTable
 71
     1
340
27
  0
DIMSTYLE
105
27
102
{ACAD_REACTORS
330
6DE
330
705
330
714
330
CCB
330
1058
330
106A
102
}
330
A
100
AcDbSymbolTableRecord
100
AcDbDimStyleTableRecord
  2
ISO-25
 70
     0
 41
2.5
 42
0.625
 43
3.75
 44
1.25
 73
     0
 74
     0
 77
     1
 78
     8
140
2.5
141
2.5
143
0.03937007874016
147
0.625
171
     3
172
     1
271
     2
272
     2
274
     3
278
    44
283
     0
284
     8
340
11
  0
DIMSTYLE
105
7B4
330
A
100
AcDbSymbolTableRecord
100
AcDbDimStyleTableRecord
  2
MXDIMSTYLE
 70
     0
 41
2.5
 42
0.5
 43
3.75
 44
1.0
 73
     0
 74
     0
 77
     1
 78
     8
140
3.0
141
2.5
143
0.03937
147
1.0
171
     4
172
     1
173
     1
271
     2
272
     2
274
     4
283
     0
288
     1
340
7B5
341
7B6
343
7B6
344
7B6
  0
ENDTAB
  0
TABLE
  2
BLOCK_RECORD
  5
1
330
0
100
AcDbSymbolTable
 70
    25
  0
BLOCK_RECORD
  5
1F
330
1
100
AcDbSymbolTableRecord
100
AcDbBlockTableRecord
  2
*Model_Space
340
22
  0
BLOCK_RECORD
  5
1B
330
1
100
AcDbSymbolTableRecord
100
AcDbBlockTableRecord
  2
*Paper_Space
340
1E
  0
BLOCK_RECORD
  5
23
330
1
100
AcDbSymbolTableRecord
100
AcDbBlockTableRecord
  2
*Paper_Space0
340
26
  0
BLOCK_RECORD
  5
3DF
330
1
100
AcDbSymbolTableRecord
100
AcDbBlockTableRecord
  2
*D1
340
0
  0
BLOCK_RECORD
  5
4CC
330
1
100
AcDbSymbolTableRecord
100
AcDbBlockTableRecord
  2
*D2
340
0
  0
BLOCK_RECORD
  5
4DB
330
1
100
AcDbSymbolTableRecord
100
AcDbBlockTableRecord
  2
*D3
340
0
  0
BLOCK_RECORD
  5
4EC
330
1
100
AcDbSymbolTableRecord
100
AcDbBlockTableRecord
  2
*D4
340
0
  0
BLOCK_RECORD
  5
4FC
330
1
100
AcDbSymbolTableRecord
100
AcDbBlockTableRecord
  2
*D5
340
0
  0
BLOCK_RECORD
  5
508
330
1
100
AcDbSymbolTableRecord
100
AcDbBlockTableRecord
  2
*D6
340
0
  0
BLOCK_RECORD
  5
5D7
330
1
100
AcDbSymbolTableRecord
100
AcDbBlockTableRecord
  2
*D7
340
0
  0
BLOCK_RECORD
  5
5E8
330
1
100
AcDbSymbolTableRecord
100
AcDbBlockTableRecord
  2
*D8
340
0
  0
BLOCK_RECORD
  5
620
330
1
100
AcDbSymbolTableRecord
100
AcDbBlockTableRecord
  2
*D9
340
0
  0
BLOCK_RECORD
  5
630
330
1
100
AcDbSymbolTableRecord
100
AcDbBlockTableRecord
  2
*D10
340
0
  0
BLOCK_RECORD
  5
6D0
330
1
100
AcDbSymbolTableRecord
100
AcDbBlockTableRecord
  2
*D11
340
0
  0
BLOCK_RECORD
  5
6E1
330
1
100
AcDbSymbolTableRecord
100
AcDbBlockTableRecord
  2
*D12
340
0
  0
BLOCK_RECORD
  5
6F0
330
1
100
AcDbSymbolTableRecord
100
AcDbBlockTableRecord
  2
*D13
340
0
  0
BLOCK_RECORD
  5
6FC
330
1
100
AcDbSymbolTableRecord
100
AcDbBlockTableRecord
  2
*D14
340
0
  0
BLOCK_RECORD
  5
708
330
1
100
AcDbSymbolTableRecord
100
AcDbBlockTableRecord
  2
*D15
340
0
  0
BLOCK_RECORD
  5
717
330
1
100
AcDbSymbolTableRecord
100
AcDbBlockTableRecord
  2
*D16
340
0
  0
BLOCK_RECORD
  5
7B6
330
1
100
AcDbSymbolTableRecord
100
AcDbBlockTableRecord
  2
_OPEN30
340
0
  0
BLOCK_RECORD
  5
BBF
330
1
100
AcDbSymbolTableRecord
100
AcDbBlockTableRecord
  2
*D18
340
0
  0
BLOCK_RECORD
  5
BF4
330
1
100
AcDbSymbolTableRecord
100
AcDbBlockTableRecord
  2
*D19
340
0
  0
BLOCK_RECORD
  5
C10
330
1
100
AcDbSymbolTableRecord
100
AcDbBlockTableRecord
  2
*D20
340
0
  0
BLOCK_RECORD
  5
C9A
330
1
100
AcDbSymbolTableRecord
100
AcDbBlockTableRecord
  2
*D21
340
0
  0
BLOCK_RECORD
  5
CCC
330
1
100
AcDbSymbolTableRecord
100
AcDbBlockTableRecord
  2
*D22
340
0
  0
BLOCK_RECORD
  5
1059
330
1
100
AcDbSymbolTableRecord
100
AcDbBlockTableRecord
  2
*D23
340
0
  0
BLOCK_RECORD
  5
106B
330
1
100
AcDbSymbolTableRecord
100
AcDbBlockTableRecord
  2
*D24
340
0
  0
ENDTAB
  0
ENDSEC
  0
SECTION
  2
BLOCKS
  0
BLOCK
  5
20
330
1F
100
AcDbEntity
  8
0
100
AcDbBlockBegin
  2
*Model_Space
 70
     0
 10
0.0
 20
0.0
 30
0.0
  3
*Model_Space
  1

  0
ENDBLK
  5
21
330
1F
100
AcDbEntity
  8
0
100
AcDbBlockEnd
  0
BLOCK
  5
1C
330
1B
100
AcDbEntity
 67
     1
  8
0
100
AcDbBlockBegin
  2
*Paper_Space
 70
     0
 10
0.0
 20
0.0
 30
0.0
  3
*Paper_Space
  1

  0
ENDBLK
  5
1D
330
1B
100
AcDbEntity
 67
     1
  8
0
100
AcDbBlockEnd
  0
BLOCK
  5
24
330
23
100
AcDbEntity
 67
     1
  8
0
100
AcDbBlockBegin
  2
*Paper_Space0
 70
     0
 10
0.0
 20
0.0
 30
0.0
  3
*Paper_Space0
  1

  0
ENDBLK
  5
25
330
23
100
AcDbEntity
 67
     1
  8
0
100
AcDbBlockEnd
  0
BLOCK
  5
3E0
330
3DF
100
AcDbEntity
  8
0
100
AcDbBlockBegin
  2
*D1
 70
     1
 10
0.0
 20
0.0
 30
0.0
  3
*D1
  1

  0
LINE
  5
3E2
330
3DF
100
AcDbEntity
  8
0
 62
     0
370
    -2
100
AcDbLine
 10
21.30099661597363
 20
5.276711841531747
 30
0.0
 11
21.30099661597363
 21
13.64718688895714
 31
0.0
  0
LINE
  5
3E3
330
3DF
100
AcDbEntity
  8
0
 62
     0
370
    -2
100
AcDbLine
 10
18.70000000000001
 20
5.189434722714266
 30
0.0
 11
18.70000000000001
 21
13.64718688895714
 31
0.0
  0
LINE
  5
3E4
330
3DF
100
AcDbEntity
  8
0
 62
     0
370
    -2
100
AcDbLine
 10
21.30099661597363
 20
12.39718688895714
 30
0.0
 11
33.64349661597363
 21
12.39718688895714
 31
0.0
  0
LINE
  5
3E5
330
3DF
100
AcDbEntity
  8
0
 62
     0
370
    -2
100
AcDbLine
 10
21.30099661597363
 20
12.39718688895714
 30
0.0
 11
18.70000000000001
 21
12.39718688895714
 31
0.0
  0
LINE
  5
3E6
330
3DF
100
AcDbEntity
  8
0
 62
     0
370
    -2
100
AcDbLine
 10
23.80099661597363
 20
12.39718688895714
 30
0.0
 11
26.30099661597363
 21
12.39718688895714
 31
0.0
  0
LINE
  5
3E7
330
3DF
100
AcDbEntity
  8
0
 62
     0
370
    -2
100
AcDbLine
 10
16.20000000000001
 20
12.39718688895714
 30
0.0
 11
13.70000000000001
 21
12.39718688895714
 31
0.0
  0
SOLID
  5
3E8
330
3DF
100
AcDbEntity
  8
0
 62
     0
100
AcDbTrace
 10
23.80099661597363
 20
12.8138535556238
 30
0.0
 11
23.80099661597363
 21
11.98052022229047
 31
0.0
 12
21.30099661597363
 22
12.39718688895714
 32
0.0
 13
21.30099661597363
 23
12.39718688895714
 33
0.0
  0
SOLID
  5
3E9
330
3DF
100
AcDbEntity
  8
0
 62
     0
100
AcDbTrace
 10
16.20000000000001
 20
11.98052022229047
 30
0.0
 11
16.20000000000001
 21
12.8138535556238
 31
0.0
 12
18.70000000000001
 22
12.39718688895714
 32
0.0
 13
18.70000000000001
 23
12.39718688895714
 33
0.0
  0
MTEXT
  5
3EA
330
3DF
100
AcDbEntity
  8
0
 62
     0
100
AcDbMText
 10
29.97224661597363
 20
14.64343688895714
 30
0.0
 40
2.5
 41
0.0
 71
     5
 72
     1
  1
2,6
 73
     1
 44
1.0
1001
ACAD
1000
MTEXTBEGIN
1070
    73
1070
     1
1070
    44
1040
1.0
1070
    74
1070
     0
1000
MTEXTEND
  0
ENDBLK
  5
3E1
330
3DF
100
AcDbEntity
  8
0
100
AcDbBlockEnd
  0
BLOCK
  5
4CD
330
4CC
100
AcDbEntity
  8
0
100
AcDbBlockBegin
  2
*D2
 70
     1
 10
0.0
 20
0.0
 30
0.0
  3
*D2
  1

  0
LINE
  5
4CF
330
4CC
100
AcDbEntity
  8
0
 62
     0
370
    -2
100
AcDbLine
 10
-4.375
 20
-4.99999999999991
 30
0.0
 11
5.807327035936522
 21
-4.999999999999911
 31
0.0
  0
LINE
  5
4D0
330
4CC
100
AcDbEntity
  8
0
 62
     0
370
    -2
100
AcDbLine
 10
-4.374999999999999
 20
4.999999999999769
 30
0.0
 11
5.807327035936522
 21
4.999999999999766
 31
0.0
  0
LINE
  5
4D1
330
4CC
100
AcDbEntity
  8
0
 62
     0
370
    -2
100
AcDbLine
 10
4.557327035936523
 20
-2.499999999999911
 30
0.0
 11
4.557327035936523
 21
2.499999999999765
 31
0.0
  0
SOLID
  5
4D2
330
4CC
100
AcDbEntity
  8
0
 62
     0
100
AcDbTrace
 10
4.140660369269856
 20
-2.499999999999911
 30
0.0
 11
4.97399370260319
 21
-2.499999999999911
 31
0.0
 12
4.557327035936523
 22
-4.999999999999911
 32
0.0
 13
4.557327035936523
 23
-4.999999999999911
 33
0.0
  0
SOLID
  5
4D3
330
4CC
100
AcDbEntity
  8
0
 62
     0
100
AcDbTrace
 10
4.97399370260319
 20
2.499999999999765
 30
0.0
 11
4.140660369269856
 21
2.499999999999765
 31
0.0
 12
4.557327035936525
 22
4.999999999999766
 32
0.0
 13
4.557327035936525
 23
4.999999999999766
 33
0.0
  0
MTEXT
  5
4D4
330
4CC
100
AcDbEntity
  8
0
 62
     0
100
AcDbMText
 10
2.602327035936522
 20
-0.0000000000000716
 30
0.0
 40
2.5
 41
0.0
 71
     5
 72
     1
  1
%%c10
 11
0.0000000000000002
 21
1.0
 31
0.0
 73
     1
 44
1.0
1001
ACAD
1000
MTEXTBEGIN
1070
    73
1070
     1
1070
    44
1040
1.0
1070
    74
1070
     0
1000
MTEXTEND
  0
ENDBLK
  5
4CE
330
4CC
100
AcDbEntity
  8
0
100
AcDbBlockEnd
  0
BLOCK
  5
4DC
330
4DB
100
AcDbEntity
  8
0
100
AcDbBlockBegin
  2
*D3
 70
     1
 10
0.0
 20
0.0
 30
0.0
  3
*D3
  1

  0
LINE
  5
4DE
330
4DB
100
AcDbEntity
  8
0
 62
     0
370
    -2
100
AcDbLine
 10
0.0000000000000048
 20
-4.04140786500004
 30
0.0
 11
0.0000000000000055
 21
-8.357876414791547
 31
0.0
  0
LINE
  5
4DF
330
4DB
100
AcDbEntity
  8
0
 62
     0
370
    -2
100
AcDbLine
 10
-4.999999999999839
 20
-5.624948220013672
 30
0.0
 11
-4.999999999999839
 21
-8.357876414791547
 31
0.0
  0
LINE
  5
4E0
330
4DB
100
AcDbEntity
  8
0
 62
     0
370
    -2
100
AcDbLine
 10
0.0000000000000053
 20
-7.107876414791547
 30
0.0
 11
7.990000000000001
 21
-7.107876414791547
 31
0.0
  0
LINE
  5
4E1
330
4DB
100
AcDbEntity
  8
0
 62
     0
370
    -2
100
AcDbLine
 10
0.0000000000000053
 20
-7.107876414791547
 30
0.0
 11
-4.999999999999839
 21
-7.107876414791547
 31
0.0
  0
LINE
  5
4E2
330
4DB
100
AcDbEntity
  8
0
 62
     0
370
    -2
100
AcDbLine
 10
2.500000000000003
 20
-7.107876414791547
 30
0.0
 11
5.000000000000004
 21
-7.107876414791547
 31
0.0
  0
LINE
  5
4E3
330
4DB
100
AcDbEntity
  8
0
 62
     0
370
    -2
100
AcDbLine
 10
-7.49999999999984
 20
-7.107876414791547
 30
0.0
 11
-9.99999999999984
 21
-7.107876414791547
 31
0.0
  0
SOLID
  5
4E4
330
4DB
100
AcDbEntity
  8
0
 62
     0
100
AcDbTrace
 10
2.500000000000003
 20
-6.691209748124884
 30
0.0
 11
2.500000000000003
 21
-7.524543081458218
 31
0.0
 12
0.0000000000000053
 22
-7.107876414791547
 32
0.0
 13
0.0000000000000053
 23
-7.107876414791547
 33
0.0
  0
SOLID
  5
4E5
330
4DB
100
AcDbEntity
  8
0
 62
     0
100
AcDbTrace
 10
-7.49999999999984
 20
-7.524543081458213
 30
0.0
 11
-7.49999999999984
 21
-6.69120974812488
 31
0.0
 12
-4.999999999999839
 22
-7.107876414791547
 32
0.0
 13
-4.999999999999839
 23
-7.107876414791547
 33
0.0
  0
MTEXT
  5
4E6
330
4DB
100
AcDbEntity
  8
0
 62
     0
100
AcDbMText
 10
6.495000000000002
 20
-5.196626414791547
 30
0.0
 40
2.5
 41
0.0
 71
     5
 72
     1
  1
5
 73
     1
 44
1.0
1001
ACAD
1000
MTEXTBEGIN
1070
    73
1070
     1
1070
    44
1040
1.0
1070
    74
1070
     0
1000
MTEXTEND
  0
ENDBLK
  5
4DD
330
4DB
100
AcDbEntity
  8
0
100
AcDbBlockEnd
  0
BLOCK
  5
4ED
330
4EC
100
AcDbEntity
  8
0
100
AcDbBlockBegin
  2
*D4
 70
     1
 10
0.0
 20
0.0
 30
0.0
  3
*D4
  1

  0
LINE
  5
4EF
330
4EC
100
AcDbEntity
  8
0
 62
     0
370
    -2
100
AcDbLine
 10
0.0000000000000004
 20
4.041407864999959
 30
0.0
 11
-0.0000000000000001
 21
10.29710097817105
 31
0.0
  0
LINE
  5
4F0
330
4EC
100
AcDbEntity
  8
0
 62
     0
370
    -2
100
AcDbLine
 10
-8.5
 20
5.210952145799961
 30
0.0
 11
-8.5
 21
10.29710097817105
 31
0.0
  0
LINE
  5
4F1
330
4EC
100
AcDbEntity
  8
0
 62
     0
370
    -2
100
AcDbLine
 10
0.0
 20
9.047100978171052
 30
0.0
 11
-18.29
 21
9.047100978171055
 31
0.0
  0
LINE
  5
4F2
330
4EC
100
AcDbEntity
  8
0
 62
     0
370
    -2
100
AcDbLine
 10
-2.5
 20
9.047100978171052
 30
0.0
 11
-6.0
 21
9.047100978171052
 31
0.0
  0
SOLID
  5
4F3
330
4EC
100
AcDbEntity
  8
0
 62
     0
100
AcDbTrace
 10
-2.5
 20
8.630434311504386
 30
0.0
 11
-2.5
 21
9.463767644837716
 31
0.0
 12
0.0
 22
9.047100978171052
 32
0.0
 13
0.0
 23
9.047100978171052
 33
0.0
  0
SOLID
  5
4F4
330
4EC
100
AcDbEntity
  8
0
 62
     0
100
AcDbTrace
 10
-6.0
 20
9.463767644837719
 30
0.0
 11
-6.0
 21
8.630434311504387
 31
0.0
 12
-8.5
 22
9.047100978171052
 32
0.0
 13
-8.5
 23
9.047100978171052
 33
0.0
  0
MTEXT
  5
4F5
330
4EC
100
AcDbEntity
  8
0
 62
     0
100
AcDbMText
 10
-14.645
 20
11.29335097817106
 30
0.0
 40
2.5
 41
0.0
 71
     5
 72
     1
  1
8,5
 73
     1
 44
1.0
1001
ACAD
1000
MTEXTBEGIN
1070
    73
1070
     1
1070
    44
1040
1.0
1070
    74
1070
     0
1000
MTEXTEND
  0
ENDBLK
  5
4EE
330
4EC
100
AcDbEntity
  8
0
100
AcDbBlockEnd
  0
BLOCK
  5
4FD
330
4FC
100
AcDbEntity
  8
0
100
AcDbBlockBegin
  2
*D5
 70
     1
 10
0.0
 20
0.0
 30
0.0
  3
*D5
  1

  0
LINE
  5
4FF
330
4FC
100
AcDbEntity
  8
0
 62
     0
370
    -2
100
AcDbLine
 10
-3.368950475502207
 20
7.423824994792527
 30
0.0
 11
-2.324732578948998
 21
18.57877131229665
 31
0.0
  0
MTEXT
  5
500
330
4FC
100
AcDbEntity
  8
0
 62
     0
100
AcDbMText
 10
-4.57217526759971
 20
15.1570952630146
 30
0.0
 40
2.5
 41
0.0
 71
     5
 72
     1
  1
R15
 11
0.0932028299661956
 21
0.9956471425591962
 31
0.0
 73
     1
 44
1.0
1001
ACAD
1000
MTEXTBEGIN
1070
    73
1070
     1
1070
    44
1040
1.0
1070
    74
1070
     0
1000
MTEXTEND
  0
LINE
  5
501
330
4FC
100
AcDbEntity
  8
0
 62
     0
370
    -2
100
AcDbLine
 10
-4.999999999910615
 20
-9.999999999993235
 30
0.0
 11
-3.601957550417696
 21
4.934707138394538
 31
0.0
  0
SOLID
  5
502
330
4FC
100
AcDbEntity
  8
0
 62
     0
100
AcDbTrace
 10
-3.783803451568537
 20
7.462659507278442
 30
0.0
 11
-2.954097499435876
 21
7.384990482306612
 31
0.0
 12
-3.601957550417696
 22
4.934707138394538
 32
0.0
 13
-3.601957550417696
 23
4.934707138394538
 33
0.0
  0
ARC
  5
5A4
330
4FC
100
AcDbEntity
  8
0
 62
     0
370
    -2
100
AcDbCircle
 10
-4.999999999910615
 20
-9.999999999993235
 30
0.0
 40
14.99999999999983
100
AcDbArc
 50
285.8808956961851
 51
89.42814034161058
  0
ENDBLK
  5
4FE
330
4FC
100
AcDbEntity
  8
0
100
AcDbBlockEnd
  0
BLOCK
  5
509
330
508
100
AcDbEntity
  8
0
100
AcDbBlockBegin
  2
*D6
 70
     1
 10
0.0
 20
0.0
 30
0.0
  3
*D6
  1

  0
LINE
  5
50B
330
508
100
AcDbEntity
  8
0
 62
     0
370
    -2
100
AcDbLine
 10
1.16381567289585
 20
6.167389823131227
 30
0.0
 11
5.710034541466817
 21
11.94725649190162
 31
0.0
  0
MTEXT
  5
50C
330
508
100
AcDbEntity
  8
0
 62
     0
100
AcDbMText
 10
2.844784423476508
 20
11.34946926064243
 30
0.0
 40
2.5
 41
0.0
 71
     5
 72
     1
  1
R1
 11
0.6182330493935635
 21
0.7859948451723687
 31
0.0
 73
     1
 44
1.0
1001
ACAD
1000
MTEXTBEGIN
1070
    73
1070
     1
1070
    44
1040
1.0
1070
    74
1070
     0
1000
MTEXTEND
  0
LINE
  5
50D
330
508
100
AcDbEntity
  8
0
 62
     0
370
    -2
100
AcDbLine
 10
-0.9999999999816248
 20
3.416407865027935
 30
0.0
 11
-0.3817669505880584
 21
4.202402710200304
 31
0.0
  0
SOLID
  5
50E
330
508
100
AcDbEntity
  8
0
 62
     0
100
AcDbTrace
 10
0.8363178207406967
 20
6.424986927045214
 30
0.0
 11
1.491313525051004
 21
5.909792719217244
 31
0.0
 12
-0.3817669505880584
 22
4.202402710200304
 32
0.0
 13
-0.3817669505880584
 23
4.202402710200304
 33
0.0
  0
ARC
  5
5A7
330
508
100
AcDbEntity
  8
0
 62
     0
370
    -2
100
AcDbCircle
 10
-0.9999999999816248
 20
3.416407865027935
 30
0.0
 40
1.000000000000005
100
AcDbArc
 50
334.4484082116892
 51
143.5800862717375
  0
ENDBLK
  5
50A
330
508
100
AcDbEntity
  8
0
100
AcDbBlockEnd
  0
BLOCK
  5
5D8
330
5D7
100
AcDbEntity
  8
0
100
AcDbBlockBegin
  2
*D7
 70
     1
 10
0.0
 20
0.0
 30
0.0
  3
*D7
  1

  0
LINE
  5
5D9
330
5D7
100
AcDbEntity
  8
2
 62
     0
370
    -2
100
AcDbLine
 10
-0.0000000000121929
 20
-0.625000000011739
 30
0.0
 11
-0.0000000000121929
 21
-13.27444247487102
 31
0.0
  0
LINE
  5
5DA
330
5D7
100
AcDbEntity
  8
2
 62
     0
370
    -2
100
AcDbLine
 10
8.5
 20
0.5445442807999941
 30
0.0
 11
8.5
 21
-13.27444247487102
 31
0.0
  0
LINE
  5
5DB
330
5D7
100
AcDbEntity
  8
2
 62
     0
370
    -2
100
AcDbLine
 10
-0.0000000000121929
 20
-12.02444247487102
 30
0.0
 11
-24.0019962403495
 21
-12.02444247487102
 31
0.0
  0
LINE
  5
5DC
330
5D7
100
AcDbEntity
  8
2
 62
     0
370
    -2
100
AcDbLine
 10
2.499999999987806
 20
-12.02444247487102
 30
0.0
 11
6.0
 21
-12.02444247487102
 31
0.0
  0
SOLID
  5
5DD
330
5D7
100
AcDbEntity
  8
2
 62
     0
100
AcDbTrace
 10
2.499999999987806
 20
-11.60777580820436
 30
0.0
 11
2.499999999987806
 21
-12.44110914153769
 31
0.0
 12
-0.0000000000121929
 22
-12.02444247487102
 32
0.0
 13
-0.0000000000121929
 23
-12.02444247487102
 33
0.0
  0
SOLID
  5
5DE
330
5D7
100
AcDbEntity
  8
2
 62
     0
100
AcDbTrace
 10
6.0
 20
-12.44110914153769
 30
0.0
 11
6.0
 21
-11.60777580820436
 31
0.0
 12
8.5
 22
-12.02444247487102
 32
0.0
 13
8.5
 23
-12.02444247487102
 33
0.0
  0
MTEXT
  5
5DF
330
5D7
100
AcDbEntity
  8
2
 62
     0
100
AcDbMText
 10
-19.2682462403495
 20
-9.778192474871023
 30
0.0
 40
2.5
 41
0.0
 71
     5
 72
     1
  1
\A1;8,50
 73
     1
 44
1.0
1001
ACAD
1000
MTEXTBEGIN
1070
    73
1070
     1
1070
    44
1040
1.0
1070
    74
1070
     0
1000
MTEXTEND
  0
ENDBLK
  5
5E0
330
5D7
100
AcDbEntity
  8
0
100
AcDbBlockEnd
  0
BLOCK
  5
5E9
330
5E8
100
AcDbEntity
  8
0
100
AcDbBlockBegin
  2
*D8
 70
     1
 10
0.0
 20
0.0
 30
0.0
  3
*D8
  1

  0
LINE
  5
AE5
330
5E8
100
AcDbEntity
  8
SKVIEW2
 62
     0
370
    -2
100
AcDbLine
 10
31.66270099092738
 20
8.468360071673856
 30
0.0
 11
31.66270099092738
 21
16.45221607702704
 31
0.0
  0
LINE
  5
AE6
330
5E8
100
AcDbEntity
  8
SKVIEW2
 62
     0
370
    -2
100
AcDbLine
 10
36.66270099092736
 20
9.400579139061202
 30
0.0
 11
36.66270099092736
 21
16.45221607702704
 31
0.0
  0
LINE
  5
AE7
330
5E8
100
AcDbEntity
  8
SKVIEW2
 62
     0
370
    -2
100
AcDbLine
 10
29.16270099092738
 20
15.20221607702704
 30
0.0
 11
26.66270099092738
 21
15.20221607702704
 31
0.0
  0
LINE
  5
AE8
330
5E8
100
AcDbEntity
  8
SKVIEW2
 62
     0
370
    -2
100
AcDbLine
 10
39.16270099092736
 20
15.20221607702704
 30
0.0
 11
54.46786613498917
 21
15.20221607702704
 31
0.0
  0
LINE
  5
AE9
330
5E8
100
AcDbEntity
  8
SKVIEW2
 62
     0
370
    -2
100
AcDbLine
 10
31.66270099092738
 20
15.20221607702704
 30
0.0
 11
36.66270099092736
 21
15.20221607702704
 31
0.0
  0
SOLID
  5
AEA
330
5E8
100
AcDbEntity
  8
SKVIEW2
 62
     0
100
AcDbTrace
 10
29.16270099092738
 20
15.6188827436937
 30
0.0
 11
29.16270099092738
 21
14.78554941036037
 31
0.0
 12
31.66270099092738
 22
15.20221607702704
 32
0.0
 13
31.66270099092738
 23
15.20221607702704
 33
0.0
  0
SOLID
  5
AEB
330
5E8
100
AcDbEntity
  8
SKVIEW2
 62
     0
100
AcDbTrace
 10
39.16270099092736
 20
15.6188827436937
 30
0.0
 11
39.16270099092736
 21
14.78554941036037
 31
0.0
 12
36.66270099092736
 22
15.20221607702704
 32
0.0
 13
36.66270099092736
 23
15.20221607702704
 33
0.0
  0
MTEXT
  5
AEC
330
5E8
100
AcDbEntity
  8
SKVIEW2
 62
     0
100
AcDbMText
 10
48.06528356295827
 20
18.09741987182676
 30
0.0
 40
3.5
 41
0.0
 71
     5
 72
     1
  1
\A1;5,00
  7
BMG_TEXT
 73
     1
 44
1.0
1001
ACAD
1000
MTEXTBEGIN
1070
    73
1070
     1
1070
    44
1040
1.0
1070
    74
1070
     0
1000
MTEXTEND
  0
ENDBLK
  5
5EA
330
5E8
100
AcDbEntity
  8
0
100
AcDbBlockEnd
  0
BLOCK
  5
621
330
620
100
AcDbEntity
  8
0
100
AcDbBlockBegin
  2
*D9
 70
     1
 10
0.0
 20
0.0
 30
0.0
  3
*D9
  1

  0
ENDBLK
  5
628
330
620
100
AcDbEntity
  8
0
100
AcDbBlockEnd
  0
BLOCK
  5
631
330
630
100
AcDbEntity
  8
0
100
AcDbBlockBegin
  2
*D10
 70
     1
 10
0.0
 20
0.0
 30
0.0
  3
*D10
  1

  0
ENDBLK
  5
632
330
630
100
AcDbEntity
  8
0
100
AcDbBlockEnd
  0
BLOCK
  5
6D1
330
6D0
100
AcDbEntity
  8
0
100
AcDbBlockBegin
  2
*D11
 70
     1
 10
0.0
 20
0.0
 30
0.0
  3
*D11
  1

  0
LINE
  5
6D3
330
6D0
100
AcDbEntity
  8
0
 62
     0
370
    -2
100
AcDbLine
 10
0.0000000000183802
 20
4.041407865033225
 30
0.0
 11
0.0000000000183799
 21
11.2868084874276
 31
0.0
  0
LINE
  5
6D4
330
6D0
100
AcDbEntity
  8
0
 62
     0
370
    -2
100
AcDbLine
 10
-4.999999999999833
 20
5.624948220013679
 30
0.0
 11
-4.999999999999833
 21
11.2868084874276
 31
0.0
  0
LINE
  5
6D5
330
6D0
100
AcDbEntity
  8
0
 62
     0
370
    -2
100
AcDbLine
 10
0.00000000001838
 20
10.0368084874276
 30
0.0
 11
-4.999999999999833
 21
10.0368084874276
 31
0.0
  0
LINE
  5
6D6
330
6D0
100
AcDbEntity
  8
0
 62
     0
370
    -2
100
AcDbLine
 10
2.500000000018375
 20
10.0368084874276
 30
0.0
 11
5.000000000018379
 21
10.0368084874276
 31
0.0
  0
LINE
  5
6D7
330
6D0
100
AcDbEntity
  8
0
 62
     0
370
    -2
100
AcDbLine
 10
-7.499999999999837
 20
10.0368084874276
 30
0.0
 11
-9.999999999999838
 21
10.0368084874276
 31
0.0
  0
SOLID
  5
6D8
330
6D0
100
AcDbEntity
  8
0
 62
     0
100
AcDbTrace
 10
2.500000000018375
 20
10.45347515409427
 30
0.0
 11
2.500000000018375
 21
9.620141820760935
 31
0.0
 12
0.00000000001838
 22
10.0368084874276
 32
0.0
 13
0.00000000001838
 23
10.0368084874276
 33
0.0
  0
SOLID
  5
6D9
330
6D0
100
AcDbEntity
  8
0
 62
     0
100
AcDbTrace
 10
-7.499999999999837
 20
9.620141820760935
 30
0.0
 11
-7.499999999999837
 21
10.45347515409427
 31
0.0
 12
-4.999999999999833
 22
10.0368084874276
 32
0.0
 13
-4.999999999999833
 23
10.0368084874276
 33
0.0
  0
MTEXT
  5
6DA
330
6D0
100
AcDbEntity
  8
0
 62
     0
100
AcDbMText
 10
-2.499999999990729
 20
12.4625584874276
 30
0.0
 40
3.5
 41
0.0
 71
     5
 72
     1
  1
5
  7
BMG_TEXT
 73
     1
 44
1.0
1001
ACAD
1000
MTEXTBEGIN
1070
    73
1070
     1
1070
    44
1040
1.0
1070
    74
1070
     0
1000
MTEXTEND
  0
ENDBLK
  5
6D2
330
6D0
100
AcDbEntity
  8
0
100
AcDbBlockEnd
  0
BLOCK
  5
6E2
330
6E1
100
AcDbEntity
  8
0
100
AcDbBlockBegin
  2
*D12
 70
     1
 10
0.0
 20
0.0
 30
0.0
  3
*D12
  1

  0
LINE
  5
1287
330
6E1
100
AcDbEntity
  8
2
 62
     0
370
    -2
100
AcDbLine
 10
12.70329836389781
 20
10.00000000252954
 30
0.0
 11
31.16849658699443
 21
10.00000000252954
 31
0.0
  0
LINE
  5
1288
330
6E1
100
AcDbEntity
  8
2
 62
     0
370
    -2
100
AcDbLine
 10
12.70329836388679
 20
-10.00169704343901
 30
0.0
 11
31.16849658699444
 21
-10.00169704343901
 31
0.0
  0
LINE
  5
1289
330
6E1
100
AcDbEntity
  8
2
 62
     0
370
    -2
100
AcDbLine
 10
29.91849658699443
 20
-7.501697043439011
 30
0.0
 11
29.91849658699443
 21
7.500000002529543
 31
0.0
  0
LINE
  5
128A
330
6E1
100
AcDbEntity
  8
2
 62
     0
370
    -2
100
AcDbLine
 10
29.91849658699443
 20
10.00000000252954
 30
0.0
 11
29.91849658699442
 21
31.77463838200658
 31
0.0
  0
SOLID
  5
128B
330
6E1
100
AcDbEntity
  8
2
 62
     0
100
AcDbTrace
 10
29.50182992032776
 20
-7.501697043439011
 30
0.0
 11
30.3351632536611
 21
-7.50169704343901
 31
0.0
 12
29.91849658699443
 22
-10.00169704343901
 32
0.0
 13
29.91849658699443
 23
-10.00169704343901
 33
0.0
  0
SOLID
  5
128C
330
6E1
100
AcDbEntity
  8
2
 62
     0
100
AcDbTrace
 10
29.50182992032776
 20
7.500000002529543
 30
0.0
 11
30.3351632536611
 21
7.500000002529544
 31
0.0
 12
29.91849658699443
 22
10.00000000252954
 32
0.0
 13
29.91849658699443
 23
10.00000000252954
 33
0.0
  0
MTEXT
  5
128D
330
6E1
100
AcDbEntity
  8
2
 62
     0
100
AcDbMText
 10
26.97656053639709
 20
22.27296937287094
 30
0.0
 40
3.5
 41
0.0
 71
     5
 72
     1
  1
%%c20,00
  7
BMG_TEXT
 11
0.0000000000000001
 21
1.0
 31
0.0
 73
     1
 44
1.0
1001
ACAD
1000
MTEXTBEGIN
1070
    73
1070
     1
1070
    44
1040
1.0
1070
    74
1070
     0
1000
MTEXTEND
  0
ENDBLK
  5
6E3
330
6E1
100
AcDbEntity
  8
0
100
AcDbBlockEnd
  0
BLOCK
  5
6F1
330
6F0
100
AcDbEntity
  8
0
100
AcDbBlockBegin
  2
*D13
 70
     1
 10
0.0
 20
0.0
 30
0.0
  3
*D13
  1

  0
LINE
  5
6F3
330
6F0
100
AcDbEntity
  8
2
 62
     0
370
    -2
100
AcDbLine
 10
2.222108790613098
 20
7.453280323680512
 30
0.0
 11
1.336676227155676
 21
19.54640892737812
 31
0.0
  0
MTEXT
  5
6F4
330
6F0
100
AcDbEntity
  8
2
 62
     0
100
AcDbMText
 10
4.117860518981828
 20
14.92440821773955
 30
0.0
 40
3.5
 41
0.0
 71
     5
 72
     1
  1
R15
  7
BMG_TEXT
 11
0.0730223548272171
 21
-0.9973303042099384
 31
0.0
 73
     1
 44
1.0
1001
ACAD
1000
MTEXTBEGIN
1070
    73
1070
     1
1070
    44
1040
1.0
1070
    74
1070
     0
1000
MTEXTEND
  0
LINE
  5
6F5
330
6F0
100
AcDbEntity
  8
2
 62
     0
370
    -2
100
AcDbLine
 10
3.500000000089383
 20
-9.999999999993235
 30
0.0
 11
2.404664677681141
 21
4.959954563155669
 31
0.0
  0
SOLID
  5
6F6
330
6F0
100
AcDbEntity
  8
2
 62
     0
100
AcDbTrace
 10
1.80655449719229
 20
7.422854342502508
 30
0.0
 11
2.637663084033904
 21
7.483706304858522
 31
0.0
 12
2.404664677681141
 22
4.959954563155669
 32
0.0
 13
2.404664677681141
 23
4.959954563155669
 33
0.0
  0
ENDBLK
  5
6F2
330
6F0
100
AcDbEntity
  8
0
100
AcDbBlockEnd
  0
BLOCK
  5
6FD
330
6FC
100
AcDbEntity
  8
0
100
AcDbBlockBegin
  2
*D14
 70
     1
 10
0.0
 20
0.0
 30
0.0
  3
*D14
  1

  0
LINE
  5
6FF
330
6FC
100
AcDbEntity
  8
2
 62
     0
370
    -2
100
AcDbLine
 10
9.658515575599738
 20
6.171550422133227
 30
0.0
 11
14.7621714743779
 21
12.68588820251175
 31
0.0
  0
MTEXT
  5
700
330
6FC
100
AcDbEntity
  8
2
 62
     0
100
AcDbMText
 10
11.10341549627511
 20
11.88388134144562
 30
0.0
 40
3.5
 41
0.0
 71
     5
 72
     1
  1
R1
  7
BMG_TEXT
 11
0.6167187358803891
 21
0.7871835877443682
 31
0.0
 73
     1
 44
1.0
1001
ACAD
1000
MTEXTBEGIN
1070
    73
1070
     1
1070
    44
1040
1.0
1070
    74
1070
     0
1000
MTEXTEND
  0
LINE
  5
701
330
6FC
100
AcDbEntity
  8
2
 62
     0
370
    -2
100
AcDbLine
 10
7.500000000018372
 20
3.416407865027935
 30
0.0
 11
8.116718735898766
 21
4.203591452772307
 31
0.0
  0
SOLID
  5
702
330
6FC
100
AcDbEntity
  8
2
 62
     0
100
AcDbTrace
 10
9.330522414039585
 20
6.428516562083387
 30
0.0
 11
9.986508737159892
 21
5.914584282183063
 31
0.0
 12
8.116718735898766
 22
4.203591452772307
 32
0.0
 13
8.116718735898766
 23
4.203591452772307
 33
0.0
  0
ENDBLK
  5
6FE
330
6FC
100
AcDbEntity
  8
0
100
AcDbBlockEnd
  0
BLOCK
  5
709
330
708
100
AcDbEntity
  8
0
100
AcDbBlockBegin
  2
*D15
 70
     1
 10
0.0
 20
0.0
 30
0.0
  3
*D15
  1

  0
LINE
  5
BDF
330
708
100
AcDbEntity
  8
2
 62
     0
370
    -2
100
AcDbLine
 10
-0.0000000000000071
 20
-5.167401293153922
 30
0.0
 11
-0.0000000000000084
 21
-25.54719465562812
 31
0.0
  0
LINE
  5
BE0
330
708
100
AcDbEntity
  8
2
 62
     0
370
    -2
100
AcDbLine
 10
14.99999754939788
 20
-0.6250000172704448
 30
0.0
 11
14.99999754939788
 21
-25.54719465562812
 31
0.0
  0
LINE
  5
BE1
330
708
100
AcDbEntity
  8
2
 62
     0
370
    -2
100
AcDbLine
 10
2.49999999999999
 20
-24.29719465562812
 30
0.0
 11
12.49999754939788
 21
-24.29719465562812
 31
0.0
  0
LINE
  5
BE2
330
708
100
AcDbEntity
  8
2
 62
     0
370
    -2
100
AcDbLine
 10
14.99999754939788
 20
-24.29719465562812
 30
0.0
 11
32.99595679043795
 21
-24.29719465562812
 31
0.0
  0
SOLID
  5
BE3
330
708
100
AcDbEntity
  8
2
 62
     0
100
AcDbTrace
 10
2.49999999999999
 20
-23.88052798896145
 30
0.0
 11
2.49999999999999
 21
-24.71386132229479
 31
0.0
 12
-0.0000000000000083
 22
-24.29719465562812
 32
0.0
 13
-0.0000000000000083
 23
-24.29719465562812
 33
0.0
  0
SOLID
  5
BE4
330
708
100
AcDbEntity
  8
2
 62
     0
100
AcDbTrace
 10
12.49999754939788
 20
-23.88052798896145
 30
0.0
 11
12.49999754939788
 21
-24.71386132229479
 31
0.0
 12
14.99999754939788
 22
-24.29719465562812
 32
0.0
 13
14.99999754939788
 23
-24.29719465562812
 33
0.0
  0
MTEXT
  5
BE5
330
708
100
AcDbEntity
  8
2
 62
     0
100
AcDbMText
 10
25.24797716991792
 20
-21.4019908608284
 30
0.0
 40
3.5
 41
0.0
 71
     5
 72
     1
  1
15,00
  7
BMG_TEXT
 73
     1
 44
1.0
1001
ACAD
1000
MTEXTBEGIN
1070
    73
1070
     1
1070
    44
1040
1.0
1070
    74
1070
     0
1000
MTEXTEND
  0
ENDBLK
  5
70A
330
708
100
AcDbEntity
  8
0
100
AcDbBlockEnd
  0
BLOCK
  5
718
330
717
100
AcDbEntity
  8
0
100
AcDbBlockBegin
  2
*D16
 70
     1
 10
0.0
 20
0.0
 30
0.0
  3
*D16
  1

  0
LINE
  5
104E
330
717
100
AcDbEntity
  8
2
 62
     0
370
    -2
100
AcDbLine
 10
8.299997549397886
 20
-10.55946662422444
 30
0.0
 11
8.299997549397886
 21
-17.65627287142997
 31
0.0
  0
LINE
  5
104F
330
717
100
AcDbEntity
  8
2
 62
     0
370
    -2
100
AcDbLine
 10
14.99999754939788
 20
-0.6250000172704448
 30
0.0
 11
14.99999754939788
 21
-17.65627287142997
 31
0.0
  0
LINE
  5
1050
330
717
100
AcDbEntity
  8
2
 62
     0
370
    -2
100
AcDbLine
 10
10.79999754939788
 20
-16.40627287142997
 30
0.0
 11
12.49999754939788
 21
-16.40627287142997
 31
0.0
  0
LINE
  5
1051
330
717
100
AcDbEntity
  8
2
 62
     0
370
    -2
100
AcDbLine
 10
14.99999754939788
 20
-16.40627287142997
 30
0.0
 11
31.63580218748645
 21
-16.40627287142997
 31
0.0
  0
SOLID
  5
1052
330
717
100
AcDbEntity
  8
2
 62
     0
100
AcDbTrace
 10
10.79999754939788
 20
-15.9896062047633
 30
0.0
 11
10.79999754939788
 21
-16.82293953809663
 31
0.0
 12
8.299997549397886
 22
-16.40627287142997
 32
0.0
 13
8.299997549397886
 23
-16.40627287142997
 33
0.0
  0
SOLID
  5
1053
330
717
100
AcDbEntity
  8
2
 62
     0
100
AcDbTrace
 10
12.49999754939788
 20
-15.9896062047633
 30
0.0
 11
12.49999754939788
 21
-16.82293953809663
 31
0.0
 12
14.99999754939788
 22
-16.40627287142997
 32
0.0
 13
14.99999754939788
 23
-16.40627287142997
 33
0.0
  0
MTEXT
  5
1054
330
717
100
AcDbEntity
  8
2
 62
     0
100
AcDbMText
 10
25.24797716991792
 20
-13.51106907663025
 30
0.0
 40
3.5
 41
0.0
 71
     5
 72
     1
  1
6,70
  7
BMG_TEXT
 73
     1
 44
1.0
1001
ACAD
1000
MTEXTBEGIN
1070
    73
1070
     1
1070
    44
1040
1.0
1070
    74
1070
     0
1000
MTEXTEND
  0
ENDBLK
  5
719
330
717
100
AcDbEntity
  8
0
100
AcDbBlockEnd
  0
BLOCK
  5
7B7
330
7B6
100
AcDbEntity
  8
0
  6
ByBlock
 62
     0
100
AcDbBlockBegin
  2
_OPEN30
 70
     0
 10
0.0
 20
0.0
 30
0.0
  3
_OPEN30
  1

  0
LINE
  5
7B8
330
7B6
100
AcDbEntity
  8
0
  6
ByBlock
 62
     0
100
AcDbLine
 10
-1.0
 20
0.267949
 30
0.0
 11
0.0
 21
0.0
 31
0.0
  0
LINE
  5
7B9
330
7B6
100
AcDbEntity
  8
0
  6
ByBlock
 62
     0
100
AcDbLine
 10
0.0
 20
0.0
 30
0.0
 11
-1.0
 21
-0.267949
 31
0.0
  0
LINE
  5
7BA
330
7B6
100
AcDbEntity
  8
0
  6
ByBlock
 62
     0
100
AcDbLine
 10
0.0
 20
0.0
 30
0.0
 11
-1.0
 21
0.0
 31
0.0
  0
ENDBLK
  5
7BB
330
7B6
100
AcDbEntity
  8
0
  6
ByBlock
 62
     0
100
AcDbBlockEnd
  0
BLOCK
  5
BC0
330
BBF
100
AcDbEntity
  8
0
100
AcDbBlockBegin
  2
*D18
 70
     1
 10
0.0
 20
0.0
 30
0.0
  3
*D18
  1

  0
LINE
  5
BD6
330
BBF
100
AcDbEntity
  8
0
 62
     0
370
    -2
100
AcDbLine
 10
59.12500000000003
 20
34.99987909325577
 30
0.0
 11
74.51726638468013
 21
34.99987909325577
 31
0.0
  0
LINE
  5
BD7
330
BBF
100
AcDbEntity
  8
0
 62
     0
370
    -2
100
AcDbLine
 10
59.12500000000003
 20
-30.00000000000002
 30
0.0
 11
74.51726638468014
 21
-30.00000000000001
 31
0.0
  0
LINE
  5
BD8
330
BBF
100
AcDbEntity
  8
0
 62
     0
370
    -2
100
AcDbLine
 10
73.26726638468013
 20
32.49987909325577
 30
0.0
 11
73.26726638468014
 21
-27.50000000000001
 31
0.0
  0
SOLID
  5
BD9
330
BBF
100
AcDbEntity
  8
0
 62
     0
100
AcDbTrace
 10
72.85059971801345
 20
32.49987909325577
 30
0.0
 11
73.6839330513468
 21
32.49987909325577
 31
0.0
 12
73.26726638468013
 22
34.99987909325577
 32
0.0
 13
73.26726638468013
 23
34.99987909325577
 33
0.0
  0
SOLID
  5
BDA
330
BBF
100
AcDbEntity
  8
0
 62
     0
100
AcDbTrace
 10
72.85059971801347
 20
-27.50000000000001
 30
0.0
 11
73.68393305134681
 21
-27.50000000000001
 31
0.0
 12
73.26726638468014
 22
-30.00000000000001
 32
0.0
 13
73.26726638468014
 23
-30.00000000000001
 33
0.0
  0
MTEXT
  5
BDB
330
BBF
100
AcDbEntity
  8
0
 62
     0
100
AcDbMText
 10
71.34834509163723
 20
2.499939546627854
 30
0.0
 40
2.5
 41
0.0
 71
     5
 72
     1
  1
65
 11
0.0000000000000001
 21
1.0
 31
0.0
 73
     1
 44
1.0
1001
ACAD
1000
MTEXTBEGIN
1070
    73
1070
     1
1070
    44
1040
1.0
1070
    74
1070
     0
1000
MTEXTEND
  0
ENDBLK
  5
BC1
330
BBF
100
AcDbEntity
  8
0
100
AcDbBlockEnd
  0
BLOCK
  5
BF5
330
BF4
100
AcDbEntity
  8
0
100
AcDbBlockBegin
  2
*D19
 70
     1
 10
0.0
 20
0.0
 30
0.0
  3
*D19
  1

  0
LINE
  5
102E
330
BF4
100
AcDbEntity
  8
2
 62
     0
370
    -2
100
AcDbLine
 10
19.41936105670384
 20
25.10817334954885
 30
0.0
 11
14.49133130592969
 21
11.07851044913701
 31
0.0
  0
MTEXT
  5
102F
330
BF4
100
AcDbEntity
  8
2
 62
     0
100
AcDbMText
 10
16.07781485598167
 20
22.79488949321197
 30
0.0
 40
3.5
 41
0.0
 71
     5
 72
     1
  1
R2
  7
BMG_TEXT
 11
0.3314075014515158
 21
0.9434877148016628
 31
0.0
 73
     1
 44
1.0
1001
ACAD
1000
MTEXTBEGIN
1070
    73
1070
     1
1070
    44
1040
1.0
1070
    74
1070
     0
1000
MTEXTEND
  0
LINE
  5
1030
330
BF4
100
AcDbEntity
  8
2
 62
     0
370
    -2
100
AcDbLine
 10
12.99999754939787
 20
6.832815732529526
 30
0.0
 11
13.6628125523009
 21
8.719791162132851
 31
0.0
  0
SOLID
  5
1031
330
BF4
100
AcDbEntity
  8
2
 62
     0
100
AcDbTrace
 10
14.09821142476233
 20
11.21659690807514
 30
0.0
 11
14.88445118709704
 21
10.94042399019887
 31
0.0
 12
13.6628125523009
 22
8.719791162132851
 32
0.0
 13
13.6628125523009
 23
8.719791162132851
 33
0.0
  0
ENDBLK
  5
BF6
330
BF4
100
AcDbEntity
  8
0
100
AcDbBlockEnd
  0
BLOCK
  5
C11
330
C10
100
AcDbEntity
  8
0
100
AcDbBlockBegin
  2
*D20
 70
     1
 10
0.0
 20
0.0
 30
0.0
  3
*D20
  1

  0
LINE
  5
1034
330
C10
100
AcDbEntity
  8
2
 62
     0
370
    -2
100
AcDbLine
 10
0.9129254579343619
 20
26.8647577148522
 30
0.0
 11
2.176392154173981
 21
12.37711001210376
 31
0.0
  0
MTEXT
  5
1035
330
C10
100
AcDbEntity
  8
2
 62
     0
100
AcDbMText
 10
3.759270925777747
 20
22.27115496635661
 30
0.0
 40
3.5
 41
0.0
 71
     5
 72
     1
  1
R30
  7
BMG_TEXT
 11
0.0868801660068884
 21
-0.9962187695253565
 31
0.0
 73
     1
 44
1.0
1001
ACAD
1000
MTEXTBEGIN
1070
    73
1070
     1
1070
    44
1040
1.0
1070
    74
1070
     0
1000
MTEXTEND
  0
LINE
  5
1036
330
C10
100
AcDbEntity
  8
2
 62
     0
370
    -2
100
AcDbLine
 10
4.999997549397873
 20
-19.99999999747043
 30
0.0
 11
2.393592569191203
 21
9.886563088290373
 31
0.0
  0
SOLID
  5
1037
330
C10
100
AcDbEntity
  8
2
 62
     0
100
AcDbTrace
 10
2.591483308142876
 20
12.4133100812733
 30
0.0
 11
1.761301000205081
 21
12.34090994293423
 31
0.0
 12
2.393592569191203
 22
9.886563088290373
 32
0.0
 13
2.393592569191203
 23
9.886563088290373
 33
0.0
  0
ENDBLK
  5
C12
330
C10
100
AcDbEntity
  8
0
100
AcDbBlockEnd
  0
BLOCK
  5
C9B
330
C9A
100
AcDbEntity
  8
0
100
AcDbBlockBegin
  2
*D21
 70
     1
 10
0.0
 20
0.0
 30
0.0
  3
*D21
  1

  0
LINE
  5
CC0
330
C9A
100
AcDbEntity
  8
0
 62
     0
370
    -2
100
AcDbLine
 10
33.66270099092738
 20
9.34916887815563
 30
0.0
 11
33.66270099092738
 21
15.34289047175758
 31
0.0
  0
LINE
  5
CC1
330
C9A
100
AcDbEntity
  8
0
 62
     0
370
    -2
100
AcDbLine
 10
38.66270099092736
 20
10.08553399247593
 30
0.0
 11
38.66270099092736
 21
15.34289047175758
 31
0.0
  0
LINE
  5
CC2
330
C9A
100
AcDbEntity
  8
0
 62
     0
370
    -2
100
AcDbLine
 10
31.16270099092738
 20
14.09289047175758
 30
0.0
 11
28.66270099092738
 21
14.09289047175758
 31
0.0
  0
LINE
  5
CC3
330
C9A
100
AcDbEntity
  8
0
 62
     0
370
    -2
100
AcDbLine
 10
41.16270099092735
 20
14.09289047175758
 30
0.0
 11
43.66270099092736
 21
14.09289047175758
 31
0.0
  0
LINE
  5
CC4
330
C9A
100
AcDbEntity
  8
0
 62
     0
370
    -2
100
AcDbLine
 10
33.66270099092738
 20
14.09289047175758
 30
0.0
 11
38.66270099092736
 21
14.09289047175758
 31
0.0
  0
SOLID
  5
CC5
330
C9A
100
AcDbEntity
  8
0
 62
     0
100
AcDbTrace
 10
31.16270099092738
 20
14.50955713842425
 30
0.0
 11
31.16270099092738
 21
13.67622380509092
 31
0.0
 12
33.66270099092738
 22
14.09289047175758
 32
0.0
 13
33.66270099092738
 23
14.09289047175758
 33
0.0
  0
SOLID
  5
CC6
330
C9A
100
AcDbEntity
  8
0
 62
     0
100
AcDbTrace
 10
41.16270099092735
 20
14.50955713842425
 30
0.0
 11
41.16270099092735
 21
13.67622380509092
 31
0.0
 12
38.66270099092736
 22
14.09289047175758
 32
0.0
 13
38.66270099092736
 23
14.09289047175758
 33
0.0
  0
MTEXT
  5
CC7
330
C9A
100
AcDbEntity
  8
0
 62
     0
100
AcDbMText
 10
36.16270099092737
 20
16.5183121161708
 30
0.0
 40
3.5
 41
0.0
 71
     5
 72
     1
  1
5
  7
BMG_TEXT
 73
     1
 44
1.0
1001
ACAD
1000
MTEXTBEGIN
1070
    73
1070
     1
1070
    44
1040
1.0
1070
    74
1070
     0
1000
MTEXTEND
  0
ENDBLK
  5
C9C
330
C9A
100
AcDbEntity
  8
0
100
AcDbBlockEnd
  0
BLOCK
  5
CCD
330
CCC
100
AcDbEntity
  8
0
100
AcDbBlockBegin
  2
*D22
 70
     1
 10
0.0
 20
0.0
 30
0.0
  3
*D22
  1

  0
LINE
  5
1043
330
CCC
100
AcDbEntity
  8
SKVIEW2
 62
     0
370
    -2
100
AcDbLine
 10
36.72344708010167
 20
9.64991602335564
 30
0.0
 11
36.72344708010167
 21
15.58703819685644
 31
0.0
  0
LINE
  5
1044
330
CCC
100
AcDbEntity
  8
SKVIEW2
 62
     0
370
    -2
100
AcDbLine
 10
41.7234470801016
 20
9.667758316282892
 30
0.0
 11
41.7234470801016
 21
15.58703819685644
 31
0.0
  0
LINE
  5
1045
330
CCC
100
AcDbEntity
  8
SKVIEW2
 62
     0
370
    -2
100
AcDbLine
 10
34.22344708010167
 20
14.33703819685644
 30
0.0
 11
31.72344708010167
 21
14.33703819685644
 31
0.0
  0
LINE
  5
1046
330
CCC
100
AcDbEntity
  8
SKVIEW2
 62
     0
370
    -2
100
AcDbLine
 10
44.2234470801016
 20
14.33703819685644
 30
0.0
 11
46.7234470801016
 21
14.33703819685644
 31
0.0
  0
LINE
  5
1047
330
CCC
100
AcDbEntity
  8
SKVIEW2
 62
     0
370
    -2
100
AcDbLine
 10
36.72344708010167
 20
14.33703819685644
 30
0.0
 11
41.7234470801016
 21
14.33703819685644
 31
0.0
  0
SOLID
  5
1048
330
CCC
100
AcDbEntity
  8
SKVIEW2
 62
     0
100
AcDbTrace
 10
34.22344708010167
 20
14.7537048635231
 30
0.0
 11
34.22344708010167
 21
13.92037153018977
 31
0.0
 12
36.72344708010167
 22
14.33703819685644
 32
0.0
 13
36.72344708010167
 23
14.33703819685644
 33
0.0
  0
SOLID
  5
1049
330
CCC
100
AcDbEntity
  8
SKVIEW2
 62
     0
100
AcDbTrace
 10
44.2234470801016
 20
14.7537048635231
 30
0.0
 11
44.2234470801016
 21
13.92037153018977
 31
0.0
 12
41.7234470801016
 22
14.33703819685644
 32
0.0
 13
41.7234470801016
 23
14.33703819685644
 33
0.0
  0
MTEXT
  5
104A
330
CCC
100
AcDbEntity
  8
SKVIEW2
 62
     0
100
AcDbMText
 10
39.22344708010164
 20
17.23224199165615
 30
0.0
 40
3.5
 41
0.0
 71
     5
 72
     1
  1
5,00
  7
BMG_TEXT
 73
     1
 44
1.0
1001
ACAD
1000
MTEXTBEGIN
1070
    73
1070
     1
1070
    44
1040
1.0
1070
    74
1070
     0
1000
MTEXTEND
  0
ENDBLK
  5
CCE
330
CCC
100
AcDbEntity
  8
0
100
AcDbBlockEnd
  0
BLOCK
  5
105A
330
1059
100
AcDbEntity
  8
0
100
AcDbBlockBegin
  2
*D23
 70
     1
 10
0.0
 20
0.0
 30
0.0
  3
*D23
  1

  0
LINE
  5
10BE
330
1059
100
AcDbEntity
  8
2
 62
     0
370
    -2
100
AcDbLine
 10
18.56666136740637
 20
19.92961976844673
 30
0.0
 11
14.22835502808746
 21
11.95313247447803
 31
0.0
  0
MTEXT
  5
10BF
330
1059
100
AcDbEntity
  8
2
 62
     0
100
AcDbMText
 10
14.89864759409036
 20
18.1795088661569
 30
0.0
 40
3.5
 41
0.0
 71
     5
 72
     1
  1
R2
  7
BMG_TEXT
 11
0.4777903698199255
 21
0.878473882655221
 31
0.0
 73
     1
 44
1.0
1001
ACAD
1000
MTEXTBEGIN
1070
    73
1070
     1
1070
    44
1040
1.0
1070
    74
1070
     0
1000
MTEXTEND
  0
LINE
  5
10C0
330
1059
100
AcDbEntity
  8
2
 62
     0
370
    -2
100
AcDbLine
 10
12.0782983638978
 20
8.000000002529541
 30
0.0
 11
13.03387910353765
 21
9.756947767839982
 31
0.0
  0
SOLID
  5
10C1
330
1059
100
AcDbEntity
  8
2
 62
     0
100
AcDbTrace
 10
13.86232424364779
 20
12.15221179523634
 30
0.0
 11
14.59438581252714
 21
11.75405315371973
 31
0.0
 12
13.03387910353765
 22
9.756947767839982
 32
0.0
 13
13.03387910353765
 23
9.756947767839982
 33
0.0
  0
ENDBLK
  5
105B
330
1059
100
AcDbEntity
  8
0
100
AcDbBlockEnd
  0
BLOCK
  5
106C
330
106B
100
AcDbEntity
  8
0
100
AcDbBlockBegin
  2
*D24
 70
     1
 10
0.0
 20
0.0
 30
0.0
  3
*D24
  1

  0
LINE
  5
10EC
330
106B
100
AcDbEntity
  8
2
 62
     0
370
    -2
100
AcDbLine
 10
29.42794476695109
 20
5.292742052820846
 30
0.0
 11
17.3405067976796
 21
4.090814294699254
 31
0.0
  0
MTEXT
  5
10ED
330
106B
100
AcDbEntity
  8
2
 62
     0
100
AcDbMText
 10
24.38700540710899
 20
7.239996300137697
 30
0.0
 40
3.5
 41
0.0
 71
     5
 72
     1
  1
R30
  7
BMG_TEXT
 11
0.9950925922548606
 21
0.0989481320667639
 31
0.0
 73
     1
 44
1.0
1001
ACAD
1000
MTEXTBEGIN
1070
    73
1070
     1
1070
    44
1040
1.0
1070
    74
1070
     0
1000
MTEXTEND
  0
LINE
  5
10EE
330
106B
100
AcDbEntity
  8
2
 62
     0
370
    -2
100
AcDbLine
 10
-15.0000024506022
 20
0.8750000025295403
 30
0.0
 11
14.85277531704245
 21
3.843443964532344
 31
0.0
  0
SOLID
  5
10EF
330
106B
100
AcDbEntity
  8
2
 62
     0
100
AcDbTrace
 10
17.29927840931845
 20
4.50543620813878
 30
0.0
 11
17.38173518604076
 21
3.676192381259728
 31
0.0
 12
14.85277531704245
 22
3.843443964532344
 32
0.0
 13
14.85277531704245
 23
3.843443964532344
 33
0.0
  0
ENDBLK
  5
106D
330
106B
100
AcDbEntity
  8
0
100
AcDbBlockEnd
  0
ENDSEC
  0
SECTION
  2
ENTITIES
  0
LINE
  5
53D
330
1F
100
AcDbEntity
  8
INFTOTAL
100
AcDbLine
 10
-36.5
 20
-30.0
 30
0.0
 11
63.5
 21
-30.0
 31
0.0
  0
LINE
  5
53E
330
1F
100
AcDbEntity
  8
INFTOTAL
100
AcDbLine
 10
63.5
 20
-30.0
 30
0.0
 11
63.5
 21
34.99987909325575
 31
0.0
  0
LINE
  5
53F
330
1F
100
AcDbEntity
  8
INFTOTAL
100
AcDbLine
 10
63.5
 20
34.99987909325575
 30
0.0
 11
-36.5
 21
34.99987909325575
 31
0.0
  0
LINE
  5
540
330
1F
100
AcDbEntity
  8
INFTOTAL
100
AcDbLine
 10
-36.5
 20
34.99987909325575
 30
0.0
 11
-36.5
 21
-30.0
 31
0.0
  0
CIRCLE
  5
66D
330
1F
100
AcDbEntity
  8
SK1
100
AcDbCircle
 10
0.0
 20
-0.0000000000000355
 30
0.0
 40
1.75
  0
LINE
  5
66E
330
1F
100
AcDbEntity
  8
SK1
100
AcDbLine
 10
-0.0000024505913588
 20
-1.752374116708389
 30
0.0
 11
-0.0000024506128456
 21
1.747625883291608
 31
0.0
  0
LINE
  5
66F
330
1F
100
AcDbEntity
  8
SK1
100
AcDbLine
 10
-1.749999999999968
 20
-0.0000000000000347
 30
0.0
 11
1.75
 21
-0.0000000000000363
 31
0.0
  0
HATCH
  5
670
330
1F
100
AcDbEntity
  8
SK1
  6
Continuous
100
AcDbHatch
 10
0.0
 20
0.0
 30
0.0
210
0.0
220
0.0
230
1.0
  2
_U
 70
     0
 71
     0
 91
        1
 92
        1
 93
        3
 72
     1
 10
-1.749999999999988
 20
-0.0000000000000355
 11
0.0
 21
-0.0000000000000355
 72
     1
 10
0.0
 20
-0.0000000000000355
 11
0.0000000000115676
 21
1.749999999999964
 72
     2
 10
0.0
 20
-0.0000000000000355
 40
1.75
 50
89.99999999962124
 51
179.9999999999999
 73
     1
 97
        0
 75
     0
 76
     0
 52
45.0
 41
0.3200000000000001
 77
     0
 78
     1
 53
45.0
 43
-79.99999999996695
 44
-0.0000000000000355
 45
-0.2262741699796952
 46
0.2262741699796952
 79
     0
 98
        1
 10
-79.99999999996695
 20
-0.0000000000000355
  0
HATCH
  5
671
330
1F
100
AcDbEntity
  8
SK1
  6
Continuous
100
AcDbHatch
 10
0.0
 20
0.0
 30
0.0
210
0.0
220
0.0
230
1.0
  2
_U
 70
     0
 71
     0
 91
        1
 92
        1
 93
        3
 72
     1
 10
-0.000002450624399
 20
-0.0023741167083879
 11
-0.0000024505913445
 21
-1.752374116708385
 72
     2
 10
-0.000002450624399
 20
-0.0023741167083879
 40
1.75
 50
270.0000000010821
 51
359.9999999999998
 73
     1
 72
     1
 10
1.749997549375585
 20
-0.0023741167083895
 11
-0.000002450624399
 21
-0.0023741167083879
 97
        0
 75
     0
 76
     0
 52
45.0
 41
0.3
 77
     0
 78
     1
 53
45.0
 43
-80.00000245059132
 44
-0.0023741167083879
 45
-0.2121320343559642
 46
0.2121320343559642
 79
     0
 98
        1
 10
-80.00000245059132
 20
-0.0023741167083879
  0
LINE
  5
6CB
330
1F
100
AcDbEntity
  8
SKVIEW4
100
AcDbLine
 10
31.72344708010167
 20
-0.0239167561443594
 30
0.0
 11
46.72344708010164
 21
-0.0239167561443594
 31
0.0
  0
LINE
  5
6CC
330
1F
100
AcDbEntity
  8
SK4
100
AcDbLine
 10
5.000000000013044
 20
-14.85834442987826
 30
0.0
 11
5.000000000029417
 21
14.85834443493761
 31
0.0
  0
DIMENSION
  5
6DE
330
1F
100
AcDbEntity
  8
2
100
AcDbDimension
  2
*D12
 10
29.91849658699443
 20
-10.00169704343901
 30
0.0
 11
29.91849658699442
 21
22.27296937287093
 31
0.0
 70
   160
  1
%%c<>
 71
     5
 42
20.00169704596855
  3
ISO-25
100
AcDbAlignedDimension
 13
12.0782983638978
 23
10.00000000252954
 33
0.0
 14
12.07829836388678
 24
-10.00169704343901
 34
0.0
 50
90.0
100
AcDbRotatedDimension
1001
ACAD
1000
DSTYLE
1002
{
1070
    78
1070
     0
1070
   340
1005
442
1002
}
  0
DIMENSION
  5
705
330
1F
100
AcDbEntity
  8
2
100
AcDbDimension
  2
*D15
 10
14.99999754939788
 20
-24.29719465562812
 30
0.0
 11
25.24797716991792
 21
-24.29719465562812
 31
0.0
 70
   160
 71
     5
 42
14.99999754939789
  3
ISO-25
100
AcDbAlignedDimension
 13
-0.0000000000000071
 23
-4.542401293153922
 33
0.0
 14
14.99999754939788
 24
-0.0000000172704446
 34
0.0
100
AcDbRotatedDimension
1001
ACAD
1000
DSTYLE
1002
{
1070
    78
1070
     0
1070
   340
1005
442
1002
}
  0
DIMENSION
  5
714
330
1F
100
AcDbEntity
  8
2
100
AcDbDimension
  2
*D16
 10
14.99999754939788
 20
-16.40627287142997
 30
0.0
 11
25.24797716991792
 21
-16.40627287142997
 31
0.0
 70
   160
  1
<>
 71
     5
 42
6.699999999999991
  3
ISO-25
100
AcDbAlignedDimension
 13
8.299997549397886
 23
-9.934466624224443
 33
0.0
 14
14.99999754939788
 24
-0.0000000172704446
 34
0.0
100
AcDbRotatedDimension
1001
ACAD
1000
DSTYLE
1002
{
1070
    78
1070
     0
1070
   340
1005
442
1002
}
  0
LINE
  5
876
330
1F
100
AcDbEntity
  8
SK4
100
AcDbLine
 10
-4.999999958544585
 20
0.0006438586491146
 30
0.0
 11
19.9999968861103
 21
-0.002575434217008
 31
0.0
  0
DIMENSION
  5
CCB
330
1F
100
AcDbEntity
  8
SKVIEW2
100
AcDbDimension
  2
*D22
 10
41.7234470801016
 20
14.33703819685644
 30
0.0
 11
39.22344708010164
 21
14.33703819685644
 31
0.0
 70
   160
  1
<>,00
 71
     5
 42
4.999999999999943
  3
ISO-25
100
AcDbAlignedDimension
 13
36.72344708010167
 23
9.02491602335564
 33
0.0
 14
41.7234470801016
 24
9.042758316282892
 34
0.0
100
AcDbRotatedDimension
1001
ACAD
1000
DSTYLE
1002
{
1070
   340
1005
442
1002
}
  0
LINE
  5
ED4
330
1F
100
AcDbEntity
  8
CUT
100
AcDbLine
 10
8.299997549397801
 20
10.00000000252954
 30
0.0
 11
-0.00000245060221
 21
9.710157615729556
 31
0.0
  0
LINE
  5
ED5
330
1F
100
AcDbEntity
  8
CUT
100
AcDbLine
 10
12.0782983638978
 20
10.00000000252954
 30
0.0
 11
8.299997549397801
 21
10.00000000252954
 31
0.0
  0
ARC
  5
ED6
102
{ACAD_REACTORS
330
1069
102
}
330
1F
100
AcDbEntity
  8
CUT
100
AcDbCircle
 10
12.0782983638978
 20
8.000000002529539
 30
0.0
 40
2.000000000000003
100
AcDbArc
 50
14.74184389109969
 51
90.0
  0
ARC
  5
ED7
102
{ACAD_REACTORS
330
107B
102
}
330
1F
100
AcDbEntity
  8
CUT
100
AcDbCircle
 10
-15.00000245060221
 20
0.8750000025295392
 30
0.0
 40
29.99999999999885
100
AcDbArc
 50
0.0
 51
14.74184389109989
  0
LINE
  5
ED8
330
1F
100
AcDbEntity
  8
CUT
100
AcDbLine
 10
-0.00000245060221
 20
9.710157615729556
 30
0.0
 11
-0.00000245060221
 21
0.0000000025295392
 31
0.0
  0
LINE
  5
ED9
330
1F
100
AcDbEntity
  8
CUT
100
AcDbLine
 10
-0.00000245060221
 20
0.0000000025295392
 30
0.0
 11
14.99999754939779
 21
-0.0000000022704612
 31
0.0
  0
LINE
  5
EDA
330
1F
100
AcDbEntity
  8
CUT
100
AcDbLine
 10
14.99999754939779
 20
-0.0000000022704612
 30
0.0
 11
14.99999754939668
 21
0.8750000025295392
 31
0.0
  0
SPLINE
  5
F22
330
1F
100
AcDbEntity
  8
SKVIEW1
  6
Continuous
370
    25
100
AcDbSpline
210
0.0
220
0.0
230
1.0
 70
     8
 71
     3
 72
    14
 73
    10
 74
     0
 42
0.000000001
 43
0.0000000001
 40
0.0
 40
0.0
 40
0.0
 40
0.0
 40
0.000241026887621
 40
0.000241026887621
 40
0.000241026887621
 40
0.0010076813350166
 40
0.0010076813350166
 40
0.0010076813350166
 40
0.0015728085432388
 40
0.0015728085432388
 40
0.0015728085432388
 40
0.0015728085432388
 10
39.28424546079208
 20
-8.098196849083606
 30
0.0
 10
39.36278055069678
 20
-8.113247540431466
 30
0.0
 10
39.44131814171998
 20
-8.128295344079463
 30
0.0
 10
39.51985820387036
 20
-8.14334027172759
 30
0.0
 10
39.76967710178428
 20
-8.191194922479636
 30
0.0
 10
40.01952109898378
 20
-8.239020493654717
 30
0.0
 10
40.26938925350757
 20
-8.286817373133619
 30
0.0
 10
40.4535756402257
 20
-8.322050092342673
 30
0.0
 10
40.63777522420116
 20
-8.357267235245886
 30
0.0
 10
40.82198764008817
 20
-8.392468962577217
 30
0.0
  0
SPLINE
  5
F23
330
1F
100
AcDbEntity
  8
SKVIEW1
  6
Continuous
370
    25
100
AcDbSpline
210
0.0
220
0.0
230
1.0
 70
     8
 71
     3
 72
    10
 73
     6
 74
     0
 42
0.000000001
 43
0.0000000001
 40
0.1718393694524489
 40
0.1718393694524489
 40
0.1718393694524489
 40
0.1718393694524489
 40
0.4156593980161861
 40
0.4156593980161861
 40
0.8313187960323718
 40
0.8313187960323718
 40
0.8313187960323718
 40
0.8313187960323718
 10
39.28424546079208
 20
-8.098196849083652
 30
0.0
 10
39.16738890726721
 20
-7.316588876764011
 30
0.0
 10
39.04595114594274
 20
-6.532276077911681
 30
0.0
 10
38.70538684651073
 20
-4.403506407533519
 30
0.0
 10
38.47702131784912
 20
-3.054465865934336
 30
0.0
 10
38.23690920826036
 20
-1.696895131063349
 30
0.0
  0
SPLINE
  5
F24
330
1F
100
AcDbEntity
  8
SKVIEW1
  6
Continuous
370
    25
100
AcDbSpline
210
0.0
220
0.0
230
1.0
 70
     8
 71
     3
 72
     8
 73
     4
 74
     0
 42
0.000000001
 43
0.0000000001
 40
0.4156801150762954
 40
0.4156801150762954
 40
0.4156801150762954
 40
0.4156801150762954
 40
0.8313187960323718
 40
0.8313187960323718
 40
0.8313187960323718
 40
0.8313187960323718
 10
39.73690920826036
 20
-1.696895131063349
 30
0.0
 10
39.97983912824168
 20
-3.074619169694686
 30
0.0
 10
40.20929848253492
 20
-4.443585327859722
 30
0.0
 10
40.42540675083421
 20
-5.803871291141025
 30
0.0
  0
SPLINE
  5
F25
330
1F
100
AcDbEntity
  8
SKVIEW1
  6
Continuous
370
    25
100
AcDbSpline
210
0.0
220
0.0
230
1.0
 70
     8
 71
     3
 72
    12
 73
     8
 74
     0
 42
0.000000001
 43
0.0000000001
 40
0.1509461814217652
 40
0.1509461814217652
 40
0.1509461814217652
 40
0.1509461814217652
 40
0.2078296990080931
 40
0.2078296990080931
 40
0.4156593980161861
 40
0.4156593980161861
 40
0.4156801150762955
 40
0.4156801150762955
 40
0.4156801150762955
 40
0.4156801150762955
 10
40.82198848185202
 20
-8.392468870906006
 30
0.0
 10
40.79476599959501
 20
-8.207832972145297
 30
0.0
 10
40.76728726427535
 20
-8.023030470680144
 30
0.0
 10
40.63822645238196
 20
-7.162262390751862
 30
0.0
 10
40.53349792027029
 20
-6.484251146975088
 30
0.0
 10
40.42542829416642
 20
-5.804006895082028
 30
0.0
 10
40.42541752251689
 20
-5.803939093122306
 30
0.0
 10
40.42540675083421
 20
-5.803871291141025
 30
0.0
  0
SPLINE
  5
F26
330
1F
100
AcDbEntity
  8
SKVIEW1
  6
Continuous
370
    25
100
AcDbSpline
210
0.0
220
0.0
230
1.0
 70
     8
 71
     3
 72
     8
 73
     4
 74
     0
 42
0.000000001
 43
0.0000000001
 40
0.4156801150762954
 40
0.4156801150762954
 40
0.4156801150762954
 40
0.4156801150762954
 40
0.8313187960323718
 40
0.8313187960323718
 40
0.8313187960323718
 40
0.8313187960323718
 10
38.02148740936902
 20
5.756037778852353
 30
0.0
 10
38.23759567766828
 20
4.395751815571053
 30
0.0
 10
38.46705503196155
 20
3.026785657406016
 30
0.0
 10
38.70998495194287
 20
1.649061618774678
 30
0.0
  0
SPLINE
  5
F27
330
1F
100
AcDbEntity
  8
SKVIEW1
  6
Continuous
370
    25
100
AcDbSpline
210
0.0
220
0.0
230
1.0
 70
     8
 71
     3
 72
    12
 73
     8
 74
     0
 42
0.000000001
 43
0.0000000001
 40
0.1509461814217643
 40
0.1509461814217643
 40
0.1509461814217643
 40
0.1509461814217643
 40
0.2078296990080931
 40
0.2078296990080931
 40
0.4156593980161861
 40
0.4156593980161861
 40
0.4156801150762954
 40
0.4156801150762954
 40
0.4156801150762954
 40
0.4156801150762954
 10
37.62490567835119
 20
8.344635358617342
 30
0.0
 10
37.65212816060822
 20
8.15999945985663
 30
0.0
 10
37.67960689592786
 20
7.975196958391472
 30
0.0
 10
37.80866770782126
 20
7.114428878463192
 30
0.0
 10
37.91339623993292
 20
6.436417634686414
 30
0.0
 10
38.02146586603682
 20
5.756173382793356
 30
0.0
 10
38.02147663768632
 20
5.756105580833636
 30
0.0
 10
38.02148740936902
 20
5.756037778852353
 30
0.0
  0
SPLINE
  5
F28
330
1F
100
AcDbEntity
  8
SKVIEW1
  6
Continuous
370
    25
100
AcDbSpline
210
0.0
220
0.0
230
1.0
 70
     8
 71
     3
 72
    14
 73
    10
 74
     0
 42
0.000000001
 43
0.0000000001
 40
0.0
 40
0.0
 40
0.0
 40
0.0
 40
0.000241026887621
 40
0.000241026887621
 40
0.000241026887621
 40
0.0010076813350166
 40
0.0010076813350166
 40
0.0010076813350166
 40
0.0015728085432388
 40
0.0015728085432388
 40
0.0015728085432388
 40
0.0015728085432388
 10
39.16264869941115
 20
8.050363336794937
 30
0.0
 10
39.08411360950646
 20
8.065414028142797
 30
0.0
 10
39.00557601848325
 20
8.080461831790792
 30
0.0
 10
38.92703595633287
 20
8.095506759438922
 30
0.0
 10
38.67721705841896
 20
8.143361410190966
 30
0.0
 10
38.42737306121944
 20
8.191186981366048
 30
0.0
 10
38.17750490669565
 20
8.23898386084495
 30
0.0
 10
37.99331851997752
 20
8.274216580054002
 30
0.0
 10
37.80911893600204
 20
8.309433722957219
 30
0.0
 10
37.62490652011505
 20
8.344635450288553
 30
0.0
  0
SPLINE
  5
F29
330
1F
100
AcDbEntity
  8
SKVIEW1
  6
Continuous
370
    25
100
AcDbSpline
210
0.0
220
0.0
230
1.0
 70
     8
 71
     3
 72
    10
 73
     6
 74
     0
 42
0.000000001
 43
0.0000000001
 40
0.1718393694524489
 40
0.1718393694524489
 40
0.1718393694524489
 40
0.1718393694524489
 40
0.4156593980161861
 40
0.4156593980161861
 40
0.8313187960323718
 40
0.8313187960323718
 40
0.8313187960323718
 40
0.8313187960323718
 10
39.16264869941114
 20
8.05036333679498
 30
0.0
 10
39.27950525293603
 20
7.268755364475338
 30
0.0
 10
39.40094301426048
 20
6.484442565623012
 30
0.0
 10
39.74150731369249
 20
4.35567289524485
 30
0.0
 10
39.96987284235411
 20
3.006632353645669
 30
0.0
 10
40.20998495194286
 20
1.649061618774678
 30
0.0
  0
SPLINE
  5
F2A
330
1F
100
AcDbEntity
  8
SKVIEW1
  6
Continuous
370
    25
100
AcDbSpline
210
0.0
220
0.0
230
1.0
 70
     8
 71
     3
 72
     8
 73
     4
 74
     0
 42
0.000000001
 43
0.0000000001
 40
0.0
 40
0.0
 40
0.0
 40
0.0
 40
1.0
 40
1.0
 40
1.0
 40
1.0
 10
39.28578577045896
 20
-8.18825387889119
 30
0.0
 10
39.28948303084685
 20
-8.158504395150089
 30
0.0
 10
39.28877209035885
 20
-8.128473711188426
 30
0.0
 10
39.28424546079208
 20
-8.098196849083606
 30
0.0
  0
SPLINE
  5
F2B
330
1F
100
AcDbEntity
  8
SKVIEW1
  6
Continuous
370
    25
100
AcDbSpline
210
0.0
220
0.0
230
1.0
 70
     8
 71
     3
 72
    11
 73
     7
 74
     0
 42
0.000000001
 43
0.0000000001
 40
0.0
 40
0.0
 40
0.0
 40
0.0
 40
0.0017693601534305
 40
0.0017693601534305
 40
0.0017693601534305
 40
0.002782868000989
 40
0.002782868000989
 40
0.002782868000989
 40
0.002782868000989
 10
36.72344708010161
 20
-7.274450798464551
 30
0.0
 10
37.26558286015003
 20
-7.468220248385882
 30
0.0
 10
37.80833030073721
 20
-7.661930519791852
 30
0.0
 10
38.35162650170898
 20
-7.855568453976506
 30
0.0
 10
38.66283403760828
 20
-7.966486925790686
 30
0.0
 10
38.97422410510083
 20
-8.077382621915997
 30
0.0
 10
39.28578577045904
 20
-8.188253878891082
 30
0.0
  0
SPLINE
  5
F2C
330
1F
100
AcDbEntity
  8
SKVIEW1
  6
Continuous
370
    25
100
AcDbSpline
210
0.0
220
0.0
230
1.0
 70
    24
 71
     3
 72
    10
 73
     6
 74
     0
 42
0.000000001
 43
0.0000000001
 40
0.0
 40
0.0
 40
0.0
 40
0.0
 40
0.5
 40
0.5
 40
1.0
 40
1.0
 40
1.0
 40
1.0
 10
36.72344708010161
 20
-1.696895131063349
 30
0.0
 10
36.72344708010161
 20
-2.635500314026726
 30
0.0
 10
36.72344708010161
 20
-3.570988553200693
 30
0.0
 10
36.72344708010161
 20
-5.433250857950628
 30
0.0
 10
36.72344708010161
 20
-6.359416088331731
 30
0.0
 10
36.72344708010161
 20
-7.274450798464561
 30
0.0
  0
SPLINE
  5
F2D
330
1F
100
AcDbEntity
  8
SKVIEW1
  6
Continuous
370
    25
100
AcDbSpline
210
0.0
220
0.0
230
1.0
 70
    24
 71
     3
 72
    10
 73
     6
 74
     0
 42
0.000000001
 43
0.0000000001
 40
0.0
 40
0.0
 40
0.0
 40
0.0
 40
0.5000000000000001
 40
0.5000000000000001
 40
1.0
 40
1.0
 40
1.0
 40
1.0
 10
41.7234470801016
 20
1.649061618774678
 30
0.0
 10
41.7234470801016
 20
2.587666801738051
 30
0.0
 10
41.7234470801016
 20
3.523155040912023
 30
0.0
 10
41.7234470801016
 20
5.385417345661958
 30
0.0
 10
41.72344708010162
 20
6.311582576043057
 30
0.0
 10
41.72344708010162
 20
7.226617286175891
 30
0.0
  0
SPLINE
  5
F2E
330
1F
100
AcDbEntity
  8
SKVIEW1
  6
Continuous
370
    25
100
AcDbSpline
210
0.0
220
0.0
230
1.0
 70
     8
 71
     3
 72
     8
 73
     4
 74
     0
 42
0.000000001
 43
0.0000000001
 40
0.0
 40
0.0
 40
0.0
 40
0.0
 40
1.0
 40
1.0
 40
1.0
 40
1.0
 10
39.16110838974426
 20
8.140420366602517
 30
0.0
 10
39.15741112935638
 20
8.110670882861441
 30
0.0
 10
39.1581220698444
 20
8.080640198899736
 30
0.0
 10
39.16264869941115
 20
8.050363336794937
 30
0.0
  0
SPLINE
  5
F2F
330
1F
100
AcDbEntity
  8
SKVIEW1
  6
Continuous
370
    25
100
AcDbSpline
210
0.0
220
0.0
230
1.0
 70
     8
 71
     3
 72
    11
 73
     7
 74
     0
 42
0.000000001
 43
0.0000000001
 40
0.0
 40
0.0
 40
0.0
 40
0.0
 40
0.0017693601534305
 40
0.0017693601534305
 40
0.0017693601534305
 40
0.0027828680009889
 40
0.0027828680009889
 40
0.0027828680009889
 40
0.0027828680009889
 10
41.7234470801016
 20
7.22661728617588
 30
0.0
 10
41.18131130005319
 20
7.420386736097213
 30
0.0
 10
40.63856385946603
 20
7.614097007503183
 30
0.0
 10
40.09526765849424
 20
7.807734941687835
 30
0.0
 10
39.78406012259495
 20
7.918653413502017
 30
0.0
 10
39.4726700551024
 20
8.029549109627316
 30
0.0
 10
39.16110838974418
 20
8.140420366602405
 30
0.0
  0
SPLINE
  5
F30
330
1F
100
AcDbEntity
  8
SKVIEW1
  6
Continuous
370
    25
100
AcDbSpline
210
0.0
220
0.0
230
1.0
 70
     8
 71
     3
 72
    14
 73
    10
 74
     0
 42
0.000000001
 43
0.0000000001
 40
0.0
 40
0.0
 40
0.0
 40
0.0
 40
0.0007615701569833
 40
0.0007615701569833
 40
0.0007615701569833
 40
0.001436464259388
 40
0.001436464259388
 40
0.001436464259388
 40
0.0015487853016726
 40
0.0015487853016726
 40
0.0015487853016726
 40
0.0015487853016726
 10
40.86024871610788
 20
-9.889050369969003
 30
0.0
 10
40.61129859693797
 20
-9.846183796982773
 30
0.0
 10
40.36236509517896
 20
-9.803326252462378
 30
0.0
 10
40.11344891578789
 20
-9.760477936610572
 30
0.0
 10
39.89286244898493
 20
-9.722506284364703
 30
0.0
 10
39.67228948815172
 20
-9.684541862845552
 30
0.0
 10
39.45173054245895
 20
-9.646584815577151
 30
0.0
 10
39.41502342688913
 20
-9.640267711927632
 30
0.0
 10
39.37831669802662
 20
-9.633950812277673
 30
0.0
 10
39.34161035826697
 20
-9.627634117299747
 30
0.0
  0
SPLINE
  5
F31
330
1F
100
AcDbEntity
  8
SKVIEW1
  6
Continuous
370
    25
100
AcDbSpline
210
0.0
220
0.0
230
1.0
 70
     8
 71
     3
 72
     8
 73
     4
 74
     0
 42
0.000000001
 43
0.0000000001
 40
0.0
 40
0.0
 40
0.0
 40
0.0
 40
1.0
 40
1.0
 40
1.0
 40
1.0
 10
39.34161035826699
 20
-9.627634117299747
 30
0.0
 10
39.34581595819175
 20
-9.626944522622599
 30
0.0
 10
39.34460583030207
 20
-9.624408405200815
 30
0.0
 10
39.3376886966348
 20
-9.619926737137754
 30
0.0
  0
SPLINE
  5
F32
330
1F
100
AcDbEntity
  8
SKVIEW1
  6
Continuous
370
    25
100
AcDbSpline
210
0.0
220
0.0
230
1.0
 70
     8
 71
     3
 72
    14
 73
    10
 74
     0
 42
0.000000001
 43
0.0000000001
 40
0.0
 40
0.0
 40
0.0
 40
0.0
 40
0.2500000000000002
 40
0.2500000000000002
 40
0.5000000000000001
 40
0.5000000000000001
 40
0.7500000000000001
 40
0.7500000000000001
 40
1.0
 40
1.0
 40
1.0
 40
1.0
 10
39.33768869663719
 20
-9.619926737138996
 30
0.0
 10
39.29880848422833
 20
-9.59473592623082
 30
0.0
 10
39.27032286441072
 20
-9.542876649855543
 30
0.0
 10
39.22996615279468
 20
-9.385616192959359
 30
0.0
 10
39.21888086662799
 20
-9.281518803810847
 30
0.0
 10
39.21312516092739
 20
-9.030003028537427
 30
0.0
 10
39.21860277993867
 20
-8.881497355520441
 30
0.0
 10
39.24305736144427
 20
-8.556630414573383
 30
0.0
 10
39.26236282799894
 20
-8.376723278592629
 30
0.0
 10
39.28578577045757
 20
-8.188253878890764
 30
0.0
  0
SPLINE
  5
F33
330
1F
100
AcDbEntity
  8
SKVIEW1
  6
Continuous
370
    25
100
AcDbSpline
210
0.0
220
0.0
230
1.0
 70
     8
 71
     3
 72
    14
 73
    10
 74
     0
 42
0.000000001
 43
0.0000000001
 40
0.0
 40
0.0
 40
0.0
 40
0.0
 40
0.2500000000000001
 40
0.2500000000000001
 40
0.5000000000000001
 40
0.5000000000000001
 40
0.7500000000000002
 40
0.7500000000000002
 40
1.0
 40
1.0
 40
1.0
 40
1.0
 10
40.82198848288029
 20
-8.392468872243378
 30
0.0
 10
40.852505161543
 20
-8.599447566274092
 30
0.0
 10
40.87721000187815
 20
-8.794646008847887
 30
0.0
 10
40.91413856607704
 20
-9.159744411448466
 30
0.0
 10
40.92540458418892
 20
-9.320507977192876
 30
0.0
 10
40.93272353176895
 20
-9.593215309599107
 30
0.0
 10
40.92856222782613
 20
-9.699285082538423
 30
0.0
 10
40.9048883023357
 20
-9.846387207842225
 30
0.0
 10
40.88583581333845
 20
-9.88480520016707
 30
0.0
 10
40.86024871610776
 20
-9.889050369968977
 30
0.0
  0
SPLINE
  5
F34
330
1F
100
AcDbEntity
  8
SKVIEW1
  6
Continuous
370
    25
100
AcDbSpline
210
0.0
220
0.0
230
1.0
 70
     8
 71
     3
 72
    14
 73
    10
 74
     0
 42
0.000000001
 43
0.0000000001
 40
0.0
 40
0.0
 40
0.0
 40
0.0
 40
0.0007615701569833
 40
0.0007615701569833
 40
0.0007615701569833
 40
0.001436464259388
 40
0.001436464259388
 40
0.001436464259388
 40
0.0015487853016726
 40
0.0015487853016726
 40
0.0015487853016726
 40
0.0015487853016726
 10
37.58664544409531
 20
9.841216857680331
 30
0.0
 10
37.83559556326526
 20
9.798350284694102
 30
0.0
 10
38.08452906502426
 20
9.755492740173707
 30
0.0
 10
38.33344524441532
 20
9.712644424321901
 30
0.0
 10
38.55403171121828
 20
9.674672772076036
 30
0.0
 10
38.7746046720515
 20
9.636708350556881
 30
0.0
 10
38.99516361774427
 20
9.59875130328848
 30
0.0
 10
39.03187073331409
 20
9.592434199638962
 30
0.0
 10
39.06857746217659
 20
9.586117299988998
 30
0.0
 10
39.10528380193624
 20
9.579800605011076
 30
0.0
  0
SPLINE
  5
F35
330
1F
100
AcDbEntity
  8
SKVIEW1
  6
Continuous
370
    25
100
AcDbSpline
210
0.0
220
0.0
230
1.0
 70
     8
 71
     3
 72
     8
 73
     4
 74
     0
 42
0.000000001
 43
0.0000000001
 40
0.0
 40
0.0
 40
0.0
 40
0.0
 40
1.0
 40
1.0
 40
1.0
 40
1.0
 10
39.10528380193624
 20
9.579800605011076
 30
0.0
 10
39.10107820201148
 20
9.579111010333932
 30
0.0
 10
39.10228832990117
 20
9.576574892912141
 30
0.0
 10
39.10920546356843
 20
9.572093224849083
 30
0.0
  0
SPLINE
  5
F36
330
1F
100
AcDbEntity
  8
SKVIEW1
  6
Continuous
370
    25
100
AcDbSpline
210
0.0
220
0.0
230
1.0
 70
     8
 71
     3
 72
    14
 73
    10
 74
     0
 42
0.000000001
 43
0.0000000001
 40
0.0
 40
0.0
 40
0.0
 40
0.0
 40
0.25
 40
0.25
 40
0.5
 40
0.5
 40
0.75
 40
0.75
 40
1.0
 40
1.0
 40
1.0
 40
1.0
 10
39.10920546356604
 20
9.572093224850323
 30
0.0
 10
39.14808567597488
 20
9.546902413942149
 30
0.0
 10
39.1765712957925
 20
9.495043137566867
 30
0.0
 10
39.21692800740856
 20
9.337782680670674
 30
0.0
 10
39.22801329357525
 20
9.233685291522164
 30
0.0
 10
39.23376899927582
 20
8.982169516248726
 30
0.0
 10
39.22829138026455
 20
8.833663843231748
 30
0.0
 10
39.20383679875893
 20
8.508796902284677
 30
0.0
 10
39.18453133220427
 20
8.328889766303968
 30
0.0
 10
39.16110838974565
 20
8.140420366602096
 30
0.0
  0
SPLINE
  5
F37
330
1F
100
AcDbEntity
  8
SKVIEW1
  6
Continuous
370
    25
100
AcDbSpline
210
0.0
220
0.0
230
1.0
 70
     8
 71
     3
 72
    14
 73
    10
 74
     0
 42
0.000000001
 43
0.0000000001
 40
0.0
 40
0.0
 40
0.0
 40
0.0
 40
0.25
 40
0.25
 40
0.5
 40
0.5
 40
0.75
 40
0.75
 40
1.0
 40
1.0
 40
1.0
 40
1.0
 10
37.62490567732291
 20
8.344635359954711
 30
0.0
 10
37.59438899866021
 20
8.551614053985421
 30
0.0
 10
37.56968415832508
 20
8.746812496559215
 30
0.0
 10
37.53275559412619
 20
9.1119108991598
 30
0.0
 10
37.52148957601431
 20
9.272674464904206
 30
0.0
 10
37.51417062843427
 20
9.545381797310431
 30
0.0
 10
37.5183319323771
 20
9.651451570249754
 30
0.0
 10
37.54200585786752
 20
9.798553695553554
 30
0.0
 10
37.56105834686476
 20
9.836971687878396
 30
0.0
 10
37.58664544409547
 20
9.841216857680306
 30
0.0
  0
SPLINE
  5
F38
330
1F
100
AcDbEntity
  8
SKVIEW1
  6
Continuous
370
    25
100
AcDbSpline
210
0.0
220
0.0
230
1.0
 70
     8
 71
     3
 72
    11
 73
     7
 74
     0
 42
0.000000001
 43
0.0000000001
 40
0.0000181850660883
 40
0.0000181850660883
 40
0.0000181850660883
 40
0.0000181850660883
 40
0.0011486064680271
 40
0.0011486064680271
 40
0.0011486064680271
 40
0.0028391485721682
 40
0.0028391485721682
 40
0.0028391485721682
 40
0.0028391485721682
 10
39.33768869663732
 20
-9.619926737138641
 30
0.0
 10
38.9880362179544
 20
-9.504416571244243
 30
0.0
 10
38.63855663362944
 20
-9.389008482209199
 30
0.0
 10
38.28926331969622
 20
-9.273708134610117
 30
0.0
 10
37.76689838767018
 20
-9.101277527342057
 30
0.0
 10
37.24494328807919
 20
-8.929085644138865
 30
0.0
 10
36.72344708010161
 20
-8.757153020672022
 30
0.0
  0
SPLINE
  5
F39
330
1F
100
AcDbEntity
  8
SKVIEW1
  6
Continuous
370
    25
100
AcDbSpline
210
0.0
220
0.0
230
1.0
 70
    24
 71
     3
 72
    14
 73
    10
 74
     0
 42
0.000000001
 43
0.0000000001
 40
0.0
 40
0.0
 40
0.0
 40
0.0
 40
0.25
 40
0.25
 40
0.5
 40
0.5
 40
0.75
 40
0.75
 40
1.0
 40
1.0
 40
1.0
 40
1.0
 10
36.72344708010161
 20
-8.757153020672022
 30
0.0
 10
36.72344708010161
 20
-8.744754977542012
 30
0.0
 10
36.72344708010161
 20
-8.701233371975586
 30
0.0
 10
36.72344708010161
 20
-8.549048954108101
 30
0.0
 10
36.72344708010161
 20
-8.443591699196991
 30
0.0
 10
36.72344708010161
 20
-8.176621098173878
 30
0.0
 10
36.72344708010161
 20
-8.019253255107232
 30
0.0
 10
36.72344708010161
 20
-7.666829754144496
 30
0.0
 10
36.72344708010161
 20
-7.475278205585567
 30
0.0
 10
36.72344708010161
 20
-7.274450798464551
 30
0.0
  0
SPLINE
  5
F3A
330
1F
100
AcDbEntity
  8
SKVIEW1
  6
Continuous
370
    25
100
AcDbSpline
210
0.0
220
0.0
230
1.0
 70
     8
 71
     3
 72
    11
 73
     7
 74
     0
 42
0.000000001
 43
0.0000000001
 40
0.0000181850660883
 40
0.0000181850660883
 40
0.0000181850660883
 40
0.0000181850660883
 40
0.0011486064680271
 40
0.0011486064680271
 40
0.0011486064680271
 40
0.0028391485721682
 40
0.0028391485721682
 40
0.0028391485721682
 40
0.0028391485721682
 10
39.1092054635659
 20
9.572093224849972
 30
0.0
 10
39.45885794224883
 20
9.456583058955573
 30
0.0
 10
39.80833752657378
 20
9.341174969920528
 30
0.0
 10
40.15763084050695
 20
9.225874622321443
 30
0.0
 10
40.67999577253305
 20
9.053444015053386
 30
0.0
 10
41.20195087212404
 20
8.881252131850192
 30
0.0
 10
41.7234470801016
 20
8.709319508383352
 30
0.0
  0
SPLINE
  5
F3B
330
1F
100
AcDbEntity
  8
SKVIEW1
  6
Continuous
370
    25
100
AcDbSpline
210
0.0
220
0.0
230
1.0
 70
    24
 71
     3
 72
    14
 73
    10
 74
     0
 42
0.000000001
 43
0.0000000001
 40
0.0
 40
0.0
 40
0.0
 40
0.0
 40
0.25
 40
0.25
 40
0.5
 40
0.5
 40
0.75
 40
0.75
 40
1.0
 40
1.0
 40
1.0
 40
1.0
 10
41.7234470801016
 20
8.709319508383352
 30
0.0
 10
41.7234470801016
 20
8.696921465253346
 30
0.0
 10
41.7234470801016
 20
8.653399859686912
 30
0.0
 10
41.7234470801016
 20
8.501215441819432
 30
0.0
 10
41.7234470801016
 20
8.395758186908324
 30
0.0
 10
41.7234470801016
 20
8.128787585885206
 30
0.0
 10
41.7234470801016
 20
7.971419742818563
 30
0.0
 10
41.7234470801016
 20
7.618996241855827
 30
0.0
 10
41.7234470801016
 20
7.427444693296897
 30
0.0
 10
41.7234470801016
 20
7.22661728617588
 30
0.0
  0
SPLINE
  5
F3C
330
1F
100
AcDbEntity
  8
SKVIEW1
  6
Continuous
370
    25
100
AcDbSpline
210
0.0
220
0.0
230
1.0
 70
     8
 71
     3
 72
     8
 73
     4
 74
     0
 42
0.000000001
 43
0.0000000001
 40
0.0
 40
0.0
 40
0.0
 40
0.0
 40
0.7115191632564004
 40
0.7115191632564004
 40
0.7115191632564004
 40
0.7115191632564004
 10
38.86641376461661
 20
-9.693892911835622
 30
0.0
 10
39.02527835614804
 20
-9.675615439848659
 30
0.0
 10
39.18376825922801
 20
-9.653515578511999
 30
0.0
 10
39.34161035826699
 20
-9.627634117299747
 30
0.0
  0
SPLINE
  5
F3D
330
1F
100
AcDbEntity
  8
SKVIEW1
  6
Continuous
370
    25
100
AcDbSpline
210
0.0
220
0.0
230
1.0
 70
     8
 71
     3
 72
     8
 73
     4
 74
     0
 42
0.000000001
 43
0.0000000001
 40
0.0
 40
0.0
 40
0.0
 40
0.0
 40
0.7395296532757194
 40
0.7395296532757194
 40
0.7395296532757194
 40
0.7395296532757194
 10
40.36641376461661
 20
-9.958383382898322
 30
0.0
 10
40.53153240422616
 20
-9.939386378714466
 30
0.0
 10
40.69624627386028
 20
-9.916260108103527
 30
0.0
 10
40.86024871610788
 20
-9.889050369969003
 30
0.0
  0
SPLINE
  5
F3E
330
1F
100
AcDbEntity
  8
SKVIEW1
  6
Continuous
370
    25
100
AcDbSpline
210
0.0
220
0.0
230
1.0
 70
     8
 71
     3
 72
     8
 73
     4
 74
     0
 42
0.000000001
 43
0.0000000001
 40
0.0
 40
0.0
 40
0.0
 40
0.0
 40
0.7115191632564004
 40
0.7115191632564004
 40
0.7115191632564004
 40
0.7115191632564004
 10
39.58048039558661
 20
9.646059399546953
 30
0.0
 10
39.42161580405518
 20
9.62778192755999
 30
0.0
 10
39.26312590097521
 20
9.605682066223328
 30
0.0
 10
39.10528380193624
 20
9.579800605011076
 30
0.0
  0
SPLINE
  5
F3F
330
1F
100
AcDbEntity
  8
SKVIEW1
  6
Continuous
370
    25
100
AcDbSpline
210
0.0
220
0.0
230
1.0
 70
     8
 71
     3
 72
     8
 73
     4
 74
     0
 42
0.000000001
 43
0.0000000001
 40
0.0
 40
0.0
 40
0.0
 40
0.0
 40
0.7395296532757194
 40
0.7395296532757194
 40
0.7395296532757194
 40
0.7395296532757194
 10
38.08048039558661
 20
9.910549870609651
 30
0.0
 10
37.91536175597707
 20
9.891552866425795
 30
0.0
 10
37.75064788634296
 20
9.868426595814854
 30
0.0
 10
37.58664544409531
 20
9.841216857680331
 30
0.0
  0
SPLINE
  5
F40
330
1F
100
AcDbEntity
  8
SKVIEW1
  6
Continuous
370
    25
100
AcDbSpline
210
0.0
220
0.0
230
1.0
 70
    24
 71
     3
 72
    14
 73
    10
 74
     0
 42
0.000000001
 43
0.0000000001
 40
0.002115487113879
 40
0.002115487113879
 40
0.002115487113879
 40
0.002115487113879
 40
0.0027765321960958
 40
0.0027765321960958
 40
0.0027765321960958
 40
0.0041648144089183
 40
0.0041648144089183
 40
0.0041648144089183
 40
0.0055531016021398
 40
0.0055531016021398
 40
0.0055531016021398
 40
0.0055531016021398
 10
36.72344708010161
 20
-8.757153020672022
 30
0.0
 10
36.72344708010161
 20
-8.770414678482167
 30
0.0
 10
36.72344708010161
 20
-8.783577459336802
 30
0.0
 10
36.72344708010161
 20
-8.796641295946553
 30
0.0
 10
36.72344708010161
 20
-8.824077091096286
 30
0.0
 10
36.72344708010161
 20
-8.851076552670285
 30
0.0
 10
36.72344708010161
 20
-8.877638510985706
 30
0.0
 10
36.72344708010161
 20
-8.904200564537433
 30
0.0
 10
36.72344708010161
 20
-8.930325136331001
 30
0.0
 10
36.72344708010161
 20
-8.956010307997303
 30
0.0
  0
SPLINE
  5
F41
330
1F
100
AcDbEntity
  8
SKVIEW1
  6
Continuous
370
    25
100
AcDbSpline
210
0.0
220
0.0
230
1.0
 70
    24
 71
     3
 72
    14
 73
    10
 74
     0
 42
0.000000001
 43
0.0000000001
 40
0.002115487113879
 40
0.002115487113879
 40
0.002115487113879
 40
0.002115487113879
 40
0.0027765321960958
 40
0.0027765321960958
 40
0.0027765321960958
 40
0.0041648144089183
 40
0.0041648144089183
 40
0.0041648144089183
 40
0.0055531016021398
 40
0.0055531016021398
 40
0.0055531016021398
 40
0.0055531016021398
 10
41.7234470801016
 20
8.709319508383352
 30
0.0
 10
41.7234470801016
 20
8.722581166193499
 30
0.0
 10
41.7234470801016
 20
8.735743947048131
 30
0.0
 10
41.7234470801016
 20
8.748807783657881
 30
0.0
 10
41.7234470801016
 20
8.776243578807617
 30
0.0
 10
41.7234470801016
 20
8.803243040381618
 30
0.0
 10
41.7234470801016
 20
8.829804998697039
 30
0.0
 10
41.7234470801016
 20
8.856367052248771
 30
0.0
 10
41.7234470801016
 20
8.88249162404233
 30
0.0
 10
41.7234470801016
 20
8.908176795708632
 30
0.0
  0
SPLINE
  5
F42
330
1F
100
AcDbEntity
  8
SKVIEW1
  6
Continuous
370
    25
100
AcDbSpline
210
0.0
220
0.0
230
1.0
 70
     8
 71
     3
 72
     8
 73
     4
 74
     0
 42
0.000000001
 43
0.0000000001
 40
0.0
 40
0.0
 40
0.0
 40
0.0
 40
1.0
 40
1.0
 40
1.0
 40
1.0
 10
37.88603553440093
 20
-9.49090313627857
 30
0.0
 10
38.20906841024735
 20
-9.572799967580575
 30
0.0
 10
38.53653612737902
 20
-9.640603228662106
 30
0.0
 10
38.86641376461661
 20
-9.693892911835622
 30
0.0
  0
SPLINE
  5
F43
330
1F
100
AcDbEntity
  8
SKVIEW1
  6
Continuous
370
    25
100
AcDbSpline
210
0.0
220
0.0
230
1.0
 70
    24
 71
     3
 72
    14
 73
    10
 74
     0
 42
0.000000001
 43
0.0000000001
 40
0.0
 40
0.0
 40
0.0
 40
0.0
 40
0.0025434835211261
 40
0.0025434835211261
 40
0.0025434835211261
 40
0.0050976358946245
 40
0.0050976358946245
 40
0.0050976358946245
 40
0.0076518269297632
 40
0.0076518269297632
 40
0.0076518269297632
 40
0.0076518269297632
 10
36.72344708010161
 20
-8.956010307997303
 30
0.0
 10
36.72344708010161
 20
-8.97569932921235
 30
0.0
 10
36.72344708010161
 20
-8.993853765807585
 30
0.0
 10
36.72344708010161
 20
-9.010424252104902
 30
0.0
 10
36.72344708010161
 20
-9.027064243083492
 30
0.0
 10
36.72344708010161
 20
-9.042107152412393
 30
0.0
 10
36.72344708010161
 20
-9.055491159582116
 30
0.0
 10
36.72344708010161
 20
-9.068875367943194
 30
0.0
 10
36.72344708010161
 20
-9.080600830033002
 30
0.0
 10
36.72344708010161
 20
-9.090591828571556
 30
0.0
  0
SPLINE
  5
F44
330
1F
100
AcDbEntity
  8
SKVIEW1
  6
Continuous
370
    25
100
AcDbSpline
210
0.0
220
0.0
230
1.0
 70
     8
 71
     3
 72
     8
 73
     4
 74
     0
 42
0.000000001
 43
0.0000000001
 40
0.0
 40
0.0
 40
0.0
 40
0.0
 40
1.0
 40
1.0
 40
1.0
 40
1.0
 10
40.56085862580228
 20
9.443069623989901
 30
0.0
 10
40.23782574995588
 20
9.524966455291906
 30
0.0
 10
39.91035803282422
 20
9.592769716373439
 30
0.0
 10
39.58048039558661
 20
9.646059399546953
 30
0.0
  0
SPLINE
  5
F45
330
1F
100
AcDbEntity
  8
SKVIEW1
  6
Continuous
370
    25
100
AcDbSpline
210
0.0
220
0.0
230
1.0
 70
    24
 71
     3
 72
    14
 73
    10
 74
     0
 42
0.000000001
 43
0.0000000001
 40
0.0
 40
0.0
 40
0.0
 40
0.0
 40
0.0025434835211261
 40
0.0025434835211261
 40
0.0025434835211261
 40
0.0050976358946245
 40
0.0050976358946245
 40
0.0050976358946245
 40
0.0076518269297632
 40
0.0076518269297632
 40
0.0076518269297632
 40
0.0076518269297632
 10
41.7234470801016
 20
8.908176795708632
 30
0.0
 10
41.7234470801016
 20
8.927865816923677
 30
0.0
 10
41.7234470801016
 20
8.946020253518916
 30
0.0
 10
41.7234470801016
 20
8.962590739816226
 30
0.0
 10
41.7234470801016
 20
8.979230730794821
 30
0.0
 10
41.7234470801016
 20
8.994273640123722
 30
0.0
 10
41.7234470801016
 20
9.007657647293456
 30
0.0
 10
41.7234470801016
 20
9.021041855654523
 30
0.0
 10
41.7234470801016
 20
9.032767317744331
 30
0.0
 10
41.7234470801016
 20
9.042758316282892
 30
0.0
  0
LINE
  5
F46
330
1F
100
AcDbEntity
  8
SKVIEW1
  6
Continuous
370
    25
100
AcDbLine
 10
38.71272200090166
 20
-9.66798443804436
 30
0.0
 11
40.21272200090165
 21
-9.932474909144355
 31
0.0
  0
LINE
  5
F47
330
1F
100
AcDbEntity
  8
SKVIEW1
  6
Continuous
370
    25
100
AcDbLine
 10
39.73417215930167
 20
9.620150925755639
 30
0.0
 11
38.23417215930167
 21
9.88464139685564
 31
0.0
  0
LINE
  5
F48
330
1F
100
AcDbEntity
  8
SKVIEW1
  6
Continuous
370
    25
100
AcDbLine
 10
36.72344708010167
 20
-1.696895131044358
 30
0.0
 11
39.73690920830168
 21
-1.696895131044358
 31
0.0
  0
LINE
  5
F49
330
1F
100
AcDbEntity
  8
SKVIEW1
  6
Continuous
370
    25
100
AcDbLine
 10
39.06085862580167
 20
-0.2880440624443601
 30
0.0
 11
39.01428585540168
 21
-0.0239167561443594
 31
0.0
  0
LINE
  5
F4A
330
1F
100
AcDbEntity
  8
SKVIEW1
  6
Continuous
370
    25
100
AcDbLine
 10
39.44191798260167
 20
-0.0239167561443594
 30
0.0
 11
39.00497617760166
 21
-0.0239167561443594
 31
0.0
  0
LINE
  5
F4B
330
1F
100
AcDbEntity
  8
SKVIEW1
  6
Continuous
370
    25
100
AcDbLine
 10
38.23690920830168
 20
-1.696895131044358
 30
0.0
 11
38.03334398570166
 21
-0.5424193854443598
 31
0.0
  0
LINE
  5
F4C
330
1F
100
AcDbEntity
  8
SKVIEW1
  6
Continuous
370
    25
100
AcDbLine
 10
38.03334398570166
 20
-0.5424193854443598
 30
0.0
 11
38.70445601610166
 21
-0.4227052292443594
 31
0.0
  0
LINE
  5
F4D
330
1F
100
AcDbEntity
  8
SKVIEW1
  6
Continuous
370
    25
100
AcDbLine
 10
38.70445601610166
 20
-0.4227052292443594
 30
0.0
 11
39.06085862580167
 21
-0.2880440624443601
 31
0.0
  0
LINE
  5
F4E
330
1F
100
AcDbEntity
  8
SKVIEW1
  6
Continuous
370
    25
100
AcDbLine
 10
39.73690920830168
 20
-1.696895131044358
 30
0.0
 11
39.44191798260167
 21
-0.0239167561443594
 31
0.0
  0
LINE
  5
F4F
330
1F
100
AcDbEntity
  8
SKVIEW1
  6
Continuous
370
    25
100
AcDbLine
 10
40.41355017450166
 20
0.494585873155641
 30
0.0
 11
39.74243814410167
 21
0.3748717169556404
 31
0.0
  0
LINE
  5
F50
330
1F
100
AcDbEntity
  8
SKVIEW1
  6
Continuous
370
    25
100
AcDbLine
 10
39.74243814410167
 20
0.3748717169556404
 30
0.0
 11
39.38603553440166
 21
0.2402105501556413
 31
0.0
  0
LINE
  5
F51
330
1F
100
AcDbEntity
  8
SKVIEW1
  6
Continuous
370
    25
100
AcDbLine
 10
38.70998495190166
 20
1.649061618755639
 30
0.0
 11
39.00497617760166
 21
-0.0239167561443594
 31
0.0
  0
LINE
  5
F52
330
1F
100
AcDbEntity
  8
SKVIEW1
  6
Continuous
370
    25
100
AcDbLine
 10
41.72344708010164
 20
1.649061618755639
 30
0.0
 11
38.70998495190166
 21
1.649061618755639
 31
0.0
  0
LINE
  5
F53
330
1F
100
AcDbEntity
  8
SKVIEW1
  6
Continuous
370
    25
100
AcDbLine
 10
40.20998495190165
 20
1.649061618755639
 30
0.0
 11
40.41355017450166
 21
0.494585873155641
 31
0.0
  0
LINE
  5
F54
330
1F
100
AcDbEntity
  8
SKVIEW1
  6
Continuous
370
    25
100
AcDbLine
 10
39.38603553440166
 20
0.2402105501556413
 30
0.0
 11
39.43260830480165
 21
-0.0239167561443594
 31
0.0
  0
LINE
  5
F55
330
1F
100
AcDbEntity
  8
SKVIEW1
  6
Continuous
370
    25
100
AcDbLine
 10
39.74243814410167
 20
-1.72877302804436
 30
0.0
 11
39.74243814410167
 21
0.3748717169556404
 31
0.0
  0
LINE
  5
F56
330
1F
100
AcDbEntity
  8
SKVIEW1
  6
Continuous
370
    25
100
AcDbLine
 10
38.70445601610166
 20
1.680760393955639
 30
0.0
 11
38.70445601610166
 21
-0.4227052292443594
 31
0.0
  0
LINE
  5
F57
330
1F
100
AcDbEntity
  8
SKVIEW1
  6
Continuous
370
    25
100
AcDbLine
 10
41.72344708010164
 20
-9.072749535644359
 30
0.0
 11
41.28365686690165
 21
-9.515151319744353
 31
0.0
  0
LINE
  5
F58
330
1F
100
AcDbEntity
  8
SKVIEW1
  6
Continuous
370
    25
100
AcDbLine
 10
41.28365686690165
 20
-9.515151319744353
 30
0.0
 11
40.92948158410165
 21
-9.587009007944358
 31
0.0
  0
LINE
  5
F59
330
1F
100
AcDbEntity
  8
SKVIEW1
  6
Continuous
370
    25
100
AcDbLine
 10
41.72344708010164
 20
0.5757920823556404
 30
0.0
 11
40.41355017450166
 21
0.494585873155641
 31
0.0
  0
LINE
  5
F5A
330
1F
100
AcDbEntity
  8
SKVIEW1
  6
Continuous
370
    25
100
AcDbLine
 10
41.72344708010164
 20
-9.072749535644359
 30
0.0
 11
41.72344708010164
 21
1.649061618755639
 31
0.0
  0
LINE
  5
F5B
330
1F
100
AcDbEntity
  8
SKVIEW1
  6
Continuous
370
    25
100
AcDbLine
 10
36.72344708010167
 20
9.02491602335564
 30
0.0
 11
37.16323729330166
 21
9.467317807455644
 31
0.0
  0
LINE
  5
F5C
330
1F
100
AcDbEntity
  8
SKVIEW1
  6
Continuous
370
    25
100
AcDbLine
 10
37.16323729330166
 20
9.467317807455644
 30
0.0
 11
37.51741257610166
 21
9.539175495655641
 31
0.0
  0
LINE
  5
F5D
330
1F
100
AcDbEntity
  8
SKVIEW1
  6
Continuous
370
    25
100
AcDbLine
 10
36.72344708010167
 20
-0.6236255946443592
 30
0.0
 11
38.03334398570166
 21
-0.5424193854443598
 31
0.0
  0
LINE
  5
F5E
330
1F
100
AcDbEntity
  8
SKVIEW1
  6
Continuous
370
    25
100
AcDbLine
 10
36.72344708010167
 20
9.02491602335564
 30
0.0
 11
36.72344708010167
 21
-1.696895131044358
 31
0.0
  0
LINE
  5
F5F
330
1F
100
AcDbEntity
  8
SKVIEW1
  6
Continuous
370
    25
100
AcDbLine
 10
38.86641376460165
 20
-9.693892911844359
 30
0.0
 11
40.36641376460165
 21
-9.958383382944351
 31
0.0
  0
LINE
  5
F60
330
1F
100
AcDbEntity
  8
SKVIEW1
  6
Continuous
370
    25
100
AcDbLine
 10
39.58048039560168
 20
9.646059399555639
 30
0.0
 11
38.08048039560168
 21
9.910549870655639
 31
0.0
  0
LINE
  5
F61
330
1F
100
AcDbEntity
  8
SKVIEW1
  6
Continuous
370
    25
100
AcDbLine
 10
36.72344708010167
 20
-8.956010308044357
 30
0.0
 11
38.86641376460165
 21
-9.693892911844359
 31
0.0
  0
LINE
  5
F62
330
1F
100
AcDbEntity
  8
SKVIEW1
  6
Continuous
370
    25
100
AcDbLine
 10
41.72344708010164
 20
8.90817679575564
 30
0.0
 11
39.58048039560168
 21
9.646059399555639
 31
0.0
  0
LINE
  5
F63
330
1F
100
AcDbEntity
  8
SKVIEW1
  6
Continuous
370
    25
100
AcDbLine
 10
36.72344708010167
 20
-9.090591828544358
 30
0.0
 11
37.88603553440167
 21
-9.490903136244359
 31
0.0
  0
LINE
  5
F64
330
1F
100
AcDbEntity
  8
SKVIEW1
  6
Continuous
370
    25
100
AcDbLine
 10
41.72344708010164
 20
9.042758316255644
 30
0.0
 11
40.56085862580167
 21
9.44306962395564
 31
0.0
  0
SPLINE
  5
FA0
330
1F
100
AcDbEntity
  8
1
  6
Continuous
370
    25
100
AcDbSpline
210
0.0
220
0.0
230
1.0
 70
     8
 71
     3
 72
    11
 73
     7
 74
     0
 42
0.000000001
 43
0.0000000001
 40
0.0000181850660883
 40
0.0000181850660883
 40
0.0000181850660883
 40
0.0000181850660883
 40
0.0011486064680271
 40
0.0011486064680271
 40
0.0011486064680271
 40
0.0028391485721682
 40
0.0028391485721682
 40
0.0028391485721682
 40
0.0028391485721682
 10
12.34754931261912
 20
-9.596009978464767
 30
0.0
 10
12.26764836034616
 20
-9.480499812570373
 30
0.0
 10
12.18683739465413
 20
-9.365091723535323
 30
0.0
 10
12.1050839413125
 20
-9.249791375936244
 30
0.0
 10
11.9828224052504
 20
-9.077360768668178
 30
0.0
 10
11.85845182624742
 20
-8.905168885464991
 30
0.0
 10
11.73185720635175
 20
-8.73323626199815
 30
0.0
  0
SPLINE
  5
FA1
330
1F
100
AcDbEntity
  8
1
  6
Continuous
370
    25
100
AcDbSpline
210
0.0
220
0.0
230
1.0
 70
     8
 71
     3
 72
    14
 73
    10
 74
     0
 42
0.000000001
 43
0.0000000001
 40
0.0
 40
0.0
 40
0.0
 40
0.0
 40
0.25
 40
0.25
 40
0.5
 40
0.5
 40
0.75
 40
0.75
 40
1.0
 40
1.0
 40
1.0
 40
1.0
 10
11.73185720635175
 20
-8.73323626199815
 30
0.0
 10
11.93748301112825
 20
-8.720838218868141
 30
0.0
 10
12.13597259286817
 20
-8.677316613301712
 30
0.0
 10
12.51801573541279
 20
-8.525132195434226
 30
0.0
 10
12.6926965306607
 20
-8.419674940523117
 30
0.0
 10
13.00425333918937
 20
-8.152704339500006
 30
0.0
 10
13.13583953273571
 20
-7.995336496433361
 30
0.0
 10
13.34517942981668
 20
-7.642912995470621
 30
0.0
 10
13.420812603174
 20
-7.451361446911692
 30
0.0
 10
13.46658429551674
 20
-7.250534039790673
 30
0.0
  0
SPLINE
  5
FA2
330
1F
100
AcDbEntity
  8
1
  6
Continuous
370
    25
100
AcDbSpline
210
0.0
220
0.0
230
1.0
 70
     8
 71
     3
 72
    11
 73
     7
 74
     0
 42
0.000000001
 43
0.0000000001
 40
0.0
 40
0.0
 40
0.0
 40
0.0
 40
0.0017693601534305
 40
0.0017693601534305
 40
0.0017693601534305
 40
0.002782868000989
 40
0.002782868000989
 40
0.002782868000989
 40
0.002782868000989
 10
13.46658429551674
 20
-7.250534039790673
 30
0.0
 10
13.59460995221799
 20
-7.444303489712008
 30
0.0
 10
13.72015745671143
 20
-7.638013761117978
 30
0.0
 10
13.84337255708331
 20
-7.831651695302634
 30
0.0
 10
13.91395186116041
 20
-7.942570167116812
 30
0.0
 10
13.98376619830382
 20
-8.053465863242115
 30
0.0
 10
14.05284129519192
 20
-8.164337120217206
 30
0.0
  0
SPLINE
  5
FA3
330
1F
100
AcDbEntity
  8
1
  6
Continuous
370
    25
100
AcDbSpline
210
0.0
220
0.0
230
1.0
 70
     8
 71
     3
 72
    14
 73
    10
 74
     0
 42
0.000000001
 43
0.0000000001
 40
0.0
 40
0.0
 40
0.0
 40
0.0
 40
0.2500000000000002
 40
0.2500000000000002
 40
0.5000000000000001
 40
0.5000000000000001
 40
0.7500000000000001
 40
0.7500000000000001
 40
1.0
 40
1.0
 40
1.0
 40
1.0
 10
12.34754931261918
 20
-9.596009978465119
 30
0.0
 10
12.54061475468914
 20
-9.570819167556944
 30
0.0
 10
12.72723361070748
 20
-9.518959891181667
 30
0.0
 10
13.0868887995199
 20
-9.361699434285487
 30
0.0
 10
13.2553374977918
 20
-9.257602045136971
 30
0.0
 10
13.55704771581773
 20
-9.006086269863557
 30
0.0
 10
13.69092892799979
 20
-8.857580596846569
 30
0.0
 10
13.90861264482235
 20
-8.532713655899508
 30
0.0
 10
13.99494811144881
 20
-8.352806519918757
 30
0.0
 10
14.05284129519154
 20
-8.164337120216892
 30
0.0
  0
SPLINE
  5
FA4
330
1F
100
AcDbEntity
  8
1
  6
Continuous
370
    25
100
AcDbSpline
210
0.0
220
0.0
230
1.0
 70
     8
 71
     3
 72
    14
 73
    10
 74
     0
 42
0.000000001
 43
0.0000000001
 40
0.0
 40
0.0
 40
0.0
 40
0.0
 40
0.0025434835211261
 40
0.0025434835211261
 40
0.0025434835211261
 40
0.0050976358946245
 40
0.0050976358946245
 40
0.0050976358946245
 40
0.0076518269297632
 40
0.0076518269297632
 40
0.0076518269297632
 40
0.0076518269297632
 10
8.299997549397872
 20
-8.932093549323429
 30
0.0
 10
7.452398357940535
 20
-8.951782570538476
 30
0.0
 10
6.604762039335867
 20
-8.969937007133712
 30
0.0
 10
5.757096146486915
 20
-8.986507493431025
 30
0.0
 10
4.905874730483318
 20
-9.00314748440962
 30
0.0
 10
4.054620478068684
 20
-9.018190393738516
 30
0.0
 10
3.203341642013767
 20
-9.031574400908247
 30
0.0
 10
2.352050009348372
 20
-9.044958609269317
 30
0.0
 10
1.500730531473464
 20
-9.056684071359123
 30
0.0
 10
0.6493923138256436
 20
-9.066675069897684
 30
0.0
  0
SPLINE
  5
FA5
330
1F
100
AcDbEntity
  8
1
  6
Continuous
370
    25
100
AcDbSpline
210
0.0
220
0.0
230
1.0
 70
     8
 71
     3
 72
    10
 73
     6
 74
     0
 42
0.000000001
 43
0.0000000001
 40
0.0
 40
0.0
 40
0.0
 40
0.0
 40
0.5
 40
0.5
 40
1.0
 40
1.0
 40
1.0
 40
1.0
 10
14.214380275942
 20
-1.672978372389474
 30
0.0
 10
14.16535678499727
 20
-2.611583555352851
 30
0.0
 10
14.08608260986788
 20
-3.547071794526818
 30
0.0
 10
13.8429611228272
 20
-5.409334099276755
 30
0.0
 10
13.67513495020842
 20
-6.335499329657857
 30
0.0
 10
13.46658429551672
 20
-7.250534039790686
 30
0.0
  0
SPLINE
  5
FA6
330
1F
100
AcDbEntity
  8
1
  6
Continuous
370
    25
100
AcDbSpline
210
0.0
220
0.0
230
1.0
 70
     8
 71
     3
 72
    14
 73
    10
 74
     0
 42
0.000000001
 43
0.0000000001
 40
0.002115487113879
 40
0.002115487113879
 40
0.002115487113879
 40
0.002115487113879
 40
0.0027765321960958
 40
0.0027765321960958
 40
0.0027765321960958
 40
0.0041648144089183
 40
0.0041648144089183
 40
0.0041648144089183
 40
0.0055531016021398
 40
0.0055531016021398
 40
0.0055531016021398
 40
0.0055531016021398
 10
11.73185720635175
 20
-8.73323626199815
 30
0.0
 10
11.51190805540219
 20
-8.746497919808295
 30
0.0
 10
11.29195292041288
 20
-8.759660700662925
 30
0.0
 10
11.07199193127086
 20
-8.772724537272678
 30
0.0
 10
10.61004458614491
 20
-8.800160332422413
 30
0.0
 10
10.1480711186178
 20
-8.827159793996411
 30
0.0
 10
9.686072704232143
 20
-8.853721752311834
 30
0.0
 10
9.224072633378897
 20
-8.880283805863566
 30
0.0
 10
8.762047200532649
 20
-8.906408377657122
 30
0.0
 10
8.299997549397872
 20
-8.932093549323429
 30
0.0
  0
CIRCLE
  5
FA7
330
1F
100
AcDbEntity
  8
1
  6
Continuous
370
    25
100
AcDbCircle
 10
4.999997549397886
 20
0.0000000025295392
 30
0.0
 40
2.615470053837923
  0
SPLINE
  5
FA8
330
1F
100
AcDbEntity
  8
1
  6
Continuous
370
    25
100
AcDbSpline
210
0.0
220
0.0
230
1.0
 70
     8
 71
     3
 72
    10
 73
     6
 74
     0
 42
0.000000001
 43
0.0000000001
 40
0.1718393694524489
 40
0.1718393694524489
 40
0.1718393694524489
 40
0.1718393694524489
 40
0.4156593980161861
 40
0.4156593980161861
 40
0.8313187960323718
 40
0.8313187960323718
 40
0.8313187960323718
 40
0.8313187960323718
 10
14.07632727117359
 20
-8.074280090409777
 30
0.0
 10
14.24610768387029
 20
-7.292672118090137
 30
0.0
 10
14.38264581809528
 20
-6.508359319237808
 30
0.0
 10
14.66446733504759
 20
-4.379589648859646
 30
0.0
 10
14.7414663213913
 20
-3.030549107260466
 30
0.0
 10
14.7355070783352
 20
-1.672978372389474
 30
0.0
  0
SPLINE
  5
FA9
330
1F
100
AcDbEntity
  8
1
  6
Continuous
370
    25
100
AcDbSpline
210
0.0
220
0.0
230
1.0
 70
     8
 71
     3
 72
     8
 73
     4
 74
     0
 42
0.000000001
 43
0.0000000001
 40
0.0
 40
0.0
 40
0.0
 40
0.0
 40
1.0
 40
1.0
 40
1.0
 40
1.0
 10
14.05284129519209
 20
-8.164337120217313
 30
0.0
 10
14.06197960799619
 20
-8.134587636476215
 30
0.0
 10
14.0697505494341
 20
-8.104556952514547
 30
0.0
 10
14.07632727117361
 20
-8.074280090409731
 30
0.0
  0
SPLINE
  5
FAA
330
1F
100
AcDbEntity
  8
1
  6
Continuous
370
    25
100
AcDbSpline
210
0.0
220
0.0
230
1.0
 70
     8
 71
     3
 72
     8
 73
     4
 74
     0
 42
0.000000001
 43
0.0000000001
 40
0.0
 40
0.0
 40
0.0
 40
0.0
 40
0.7115191632564004
 40
0.7115191632564004
 40
0.7115191632564004
 40
0.7115191632564004
 10
8.299997549397872
 20
-9.669976153161748
 30
0.0
 10
9.612813095582254
 20
-9.651698681174787
 30
0.0
 10
10.9280528166837
 20
-9.629598819838124
 30
0.0
 10
12.24344637873857
 20
-9.603717358625873
 30
0.0
  0
SPLINE
  5
FAB
330
1F
100
AcDbEntity
  8
1
  6
Continuous
370
    25
100
AcDbSpline
210
0.0
220
0.0
230
1.0
 70
     8
 71
     3
 72
     8
 73
     4
 74
     0
 42
0.000000001
 43
0.0000000001
 40
0.0
 40
0.0
 40
0.0
 40
0.0
 40
1.0
 40
1.0
 40
1.0
 40
1.0
 10
12.24344637873857
 20
-9.603717358625873
 30
0.0
 10
12.27849418347061
 20
-9.603027763948723
 30
0.0
 10
12.31320126288992
 20
-9.60049164652694
 30
0.0
 10
12.34754931261945
 20
-9.596009978463877
 30
0.0
  0
SPLINE
  5
FAC
330
1F
100
AcDbEntity
  8
1
  6
Continuous
370
    25
100
AcDbSpline
210
0.0
220
0.0
230
1.0
 70
     8
 71
     3
 72
     8
 73
     4
 74
     0
 42
0.000000001
 43
0.0000000001
 40
0.0
 40
0.0
 40
0.0
 40
0.0
 40
1.0
 40
1.0
 40
1.0
 40
1.0
 10
0.6493923138256436
 20
-9.466986377604696
 30
0.0
 10
3.148813626955941
 20
-9.548883208906699
 30
0.0
 10
5.704282330111141
 20
-9.616686469988227
 30
0.0
 10
8.299997549397872
 20
-9.669976153161748
 30
0.0
  0
CIRCLE
  5
FAD
330
1F
100
AcDbEntity
  8
1
  6
Continuous
370
    25
100
AcDbCircle
 10
4.999997549397886
 20
0.0000000025295392
 30
0.0
 40
2.5
  0
SPLINE
  5
FAE
330
1F
100
AcDbEntity
  8
1
  6
Continuous
370
    25
100
AcDbSpline
210
0.0
220
0.0
230
1.0
 70
     8
 71
     3
 72
     8
 73
     4
 74
     0
 42
0.000000001
 43
0.0000000001
 40
0.0000167091981695
 40
0.0000167091981695
 40
0.0000167091981695
 40
0.0000167091981695
 40
0.0006777012050895
 40
0.0006777012050895
 40
0.0006777012050895
 40
0.0006777012050895
 10
0.6493923138253594
 20
9.731476853726723
 30
0.0
 10
0.4326885277214956
 20
9.724563403593675
 30
0.0
 10
0.2161988007605373
 20
9.717442904037511
 30
0.0
 10
-0.0000024506024801
 20
9.710070270687532
 30
0.0
  0
LWPOLYLINE
  5
FAF
330
1F
100
AcDbEntity
  8
1
  6
Continuous
370
    25
100
AcDbPolyline
 90
        3
 70
   128
 43
0.0
 10
0.4193702193978909
 20
9.710943858229539
 10
0.53209448769789
 20
9.722765022129539
 10
0.6493923137978898
 20
9.731476853729539
  0
SPLINE
  5
FB0
330
1F
100
AcDbEntity
  8
1
  6
Continuous
370
    25
100
AcDbSpline
210
0.0
220
0.0
230
1.0
 70
     8
 71
     3
 72
     8
 73
     4
 74
     0
 42
0.000000001
 43
0.0000000001
 40
0.4156801150762954
 40
0.4156801150762954
 40
0.4156801150762954
 40
0.4156801150762954
 40
0.8313187960323718
 40
0.8313187960323718
 40
0.8313187960323718
 40
0.8313187960323718
 10
14.71106526434391
 20
5.779954537526226
 30
0.0
 10
14.90340119741951
 20
4.419668574244925
 30
0.0
 10
14.99999754939789
 20
3.050702416079891
 30
0.0
 10
14.99999754939789
 20
1.672978377448551
 30
0.0
  0
SPLINE
  5
FB1
330
1F
100
AcDbEntity
  8
1
  6
Continuous
370
    25
100
AcDbSpline
210
0.0
220
0.0
230
1.0
 70
     8
 71
     3
 72
     8
 73
     4
 74
     0
 42
0.000000001
 43
0.0000000001
 40
0.0
 40
0.0
 40
0.0
 40
0.0
 40
1.0
 40
1.0
 40
1.0
 40
1.0
 10
0.6493923138256436
 20
9.731476853726473
 30
0.0
 10
3.148813626955941
 20
9.81337368502848
 30
0.0
 10
5.704282330111141
 20
9.881176946110004
 30
0.0
 10
8.299997549397872
 20
9.934466629283527
 30
0.0
  0
SPLINE
  5
FB2
330
1F
100
AcDbEntity
  8
1
  6
Continuous
370
    25
100
AcDbSpline
210
0.0
220
0.0
230
1.0
 70
     8
 71
     3
 72
     8
 73
     4
 74
     0
 42
0.000000001
 43
0.0000000001
 40
0.0
 40
0.0
 40
0.0
 40
0.0
 40
0.7395296532757194
 40
0.7395296532757194
 40
0.7395296532757194
 40
0.7395296532757194
 10
8.299997549397872
 20
9.934466629283527
 30
0.0
 10
9.664494917594323
 20
9.915469625099671
 30
0.0
 10
11.03161108340209
 20
9.892343354488732
 30
0.0
 10
12.39879688902084
 20
9.865133616354206
 30
0.0
  0
SPLINE
  5
FB3
330
1F
100
AcDbEntity
  8
1
  6
Continuous
370
    25
100
AcDbSpline
210
0.0
220
0.0
230
1.0
 70
     8
 71
     3
 72
    14
 73
    10
 74
     0
 42
0.000000001
 43
0.0000000001
 40
0.0
 40
0.0
 40
0.0
 40
0.0
 40
0.25
 40
0.25
 40
0.5
 40
0.5
 40
0.75
 40
0.75
 40
1.0
 40
1.0
 40
1.0
 40
1.0
 10
14.22625069775885
 20
8.368552118628585
 30
0.0
 10
14.17782218580299
 20
8.575530812659295
 30
0.0
 10
14.09914503978795
 20
8.770729255233092
 30
0.0
 10
13.87683079816632
 20
9.135827657833676
 30
0.0
 10
13.73848495531142
 20
9.296591223578083
 30
0.0
 10
13.40829782443873
 20
9.569298555984305
 30
0.0
 10
13.22311030036886
 20
9.675368328923626
 30
0.0
 10
12.82128139510448
 20
9.822470454227426
 30
0.0
 10
12.61210051829209
 20
9.860888446552266
 30
0.0
 10
12.39879688902084
 20
9.865133616354183
 30
0.0
  0
SPLINE
  5
FB4
330
1F
100
AcDbEntity
  8
1
  6
Continuous
370
    25
100
AcDbSpline
210
0.0
220
0.0
230
1.0
 70
     8
 71
     3
 72
    12
 73
     8
 74
     0
 42
0.000000001
 43
0.0000000001
 40
0.1509461814217643
 40
0.1509461814217643
 40
0.1509461814217643
 40
0.1509461814217643
 40
0.2078296990080931
 40
0.2078296990080931
 40
0.4156593980161861
 40
0.4156593980161861
 40
0.4156801150762954
 40
0.4156801150762954
 40
0.4156801150762954
 40
0.4156801150762954
 10
14.22625069134069
 20
8.368552117291216
 30
0.0
 10
14.26945149738871
 20
8.183916218530503
 30
0.0
 10
14.31081473305829
 20
7.999113717065347
 30
0.0
 10
14.49479996141109
 20
7.138345637137067
 30
0.0
 10
14.61485897110267
 20
6.46033439336029
 30
0.0
 10
14.71104609055331
 20
5.78009014146723
 30
0.0
 10
14.71105567756754
 20
5.780022339507513
 30
0.0
 10
14.71106526434391
 20
5.779954537526226
 30
0.0
  0
SPLINE
  5
FB5
330
1F
100
AcDbEntity
  8
1
  6
Continuous
370
    25
100
AcDbSpline
210
0.0
220
0.0
230
1.0
 70
     8
 71
     3
 72
     8
 73
     4
 74
     0
 42
0.000000001
 43
0.0000000001
 40
0.0
 40
0.0
 40
0.0
 40
0.0
 40
1.0
 40
1.0
 40
1.0
 40
1.0
 10
0.6493923138256436
 20
-9.731476848667394
 30
0.0
 10
3.148813626955941
 20
-9.8133736799694
 30
0.0
 10
5.704282330111141
 20
-9.881176941050927
 30
0.0
 10
8.299997549397872
 20
-9.934466624224443
 30
0.0
  0
SPLINE
  5
FB6
330
1F
100
AcDbEntity
  8
1
  6
Continuous
370
    25
100
AcDbSpline
210
0.0
220
0.0
230
1.0
 70
     8
 71
     3
 72
     8
 73
     4
 74
     0
 42
0.000000001
 43
0.0000000001
 40
0.0000167091981694
 40
0.0000167091981694
 40
0.0000167091981694
 40
0.0000167091981694
 40
0.0006777012050895
 40
0.0006777012050895
 40
0.0006777012050895
 40
0.0006777012050895
 10
0.6493923138253877
 20
-9.731476848667648
 30
0.0
 10
0.4326885277214956
 20
-9.724563398534595
 30
0.0
 10
0.2161988007605373
 20
-9.717442898978431
 30
0.0
 10
-0.0000024506024801
 20
-9.710070265628457
 30
0.0
  0
SPLINE
  5
FB7
330
1F
100
AcDbEntity
  8
1
  6
Continuous
370
    25
100
AcDbSpline
210
0.0
220
0.0
230
1.0
 70
     8
 71
     3
 72
     8
 73
     4
 74
     0
 42
0.000000001
 43
0.0000000001
 40
0.4156801150762954
 40
0.4156801150762954
 40
0.4156801150762954
 40
0.4156801150762954
 40
0.8313187960323718
 40
0.8313187960323718
 40
0.8313187960323718
 40
0.8313187960323718
 10
14.99999754939789
 20
-1.672978372389474
 30
0.0
 10
14.99999754939789
 20
-3.050702411020813
 30
0.0
 10
14.90340119741951
 20
-4.419668569185846
 30
0.0
 10
14.71106526434391
 20
-5.779954532467145
 30
0.0
  0
SPLINE
  5
FB8
330
1F
100
AcDbEntity
  8
1
  6
Continuous
370
    25
100
AcDbSpline
210
0.0
220
0.0
230
1.0
 70
     8
 71
     3
 72
    12
 73
     8
 74
     0
 42
0.000000001
 43
0.0000000001
 40
0.1509461814217652
 40
0.1509461814217652
 40
0.1509461814217652
 40
0.1509461814217652
 40
0.2078296990080931
 40
0.2078296990080931
 40
0.4156593980161861
 40
0.4156593980161861
 40
0.4156801150762955
 40
0.4156801150762955
 40
0.4156801150762955
 40
0.4156801150762955
 10
14.22625069134069
 20
-8.368552112232134
 30
0.0
 10
14.26945149738871
 20
-8.183916213471423
 30
0.0
 10
14.31081473305829
 20
-7.999113712006267
 30
0.0
 10
14.49479996141109
 20
-7.138345632077987
 30
0.0
 10
14.61485897110267
 20
-6.46033438830121
 30
0.0
 10
14.71104609055331
 20
-5.780090136408152
 30
0.0
 10
14.71105567756754
 20
-5.780022334448434
 30
0.0
 10
14.71106526434391
 20
-5.779954532467145
 30
0.0
  0
SPLINE
  5
FB9
330
1F
100
AcDbEntity
  8
1
  6
Continuous
370
    25
100
AcDbSpline
210
0.0
220
0.0
230
1.0
 70
     8
 71
     3
 72
    14
 73
    10
 74
     0
 42
0.000000001
 43
0.0000000001
 40
0.0
 40
0.0
 40
0.0
 40
0.0
 40
0.000241026887621
 40
0.000241026887621
 40
0.000241026887621
 40
0.0010076813350166
 40
0.0010076813350166
 40
0.0010076813350166
 40
0.0015728085432388
 40
0.0015728085432388
 40
0.0015728085432388
 40
0.0015728085432388
 10
14.07632727117359
 20
-8.074280090409731
 30
0.0
 10
14.08411192594209
 20
-8.089330781757588
 30
0.0
 10
14.09187695666242
 20
-8.104378585405589
 30
0.0
 10
14.09962249058381
 20
-8.119423513053718
 30
0.0
 10
14.12425935354295
 20
-8.167278163805761
 30
0.0
 10
14.14869897893959
 20
-8.215103734980845
 30
0.0
 10
14.17294538149637
 20
-8.262900614459747
 30
0.0
 10
14.19081823642804
 20
-8.298133333668799
 30
0.0
 10
14.20858610472186
 20
-8.333350476572009
 30
0.0
 10
14.22625055276087
 20
-8.368552203903343
 30
0.0
  0
SPLINE
  5
FBA
330
1F
100
AcDbEntity
  8
1
  6
Continuous
370
    25
100
AcDbSpline
210
0.0
220
0.0
230
1.0
 70
     8
 71
     3
 72
    14
 73
    10
 74
     0
 42
0.000000001
 43
0.0000000001
 40
0.0
 40
0.0
 40
0.0
 40
0.0
 40
0.0007615701569833
 40
0.0007615701569833
 40
0.0007615701569833
 40
0.001436464259388
 40
0.001436464259388
 40
0.001436464259388
 40
0.0015487853016726
 40
0.0015487853016726
 40
0.0015487853016726
 40
0.0015487853016726
 10
12.39879688902084
 20
-9.865133611295131
 30
0.0
 10
12.37370647522771
 20
-9.822267038308901
 30
0.0
 10
12.34843507222656
 20
-9.779409493788508
 30
0.0
 10
12.32297940007583
 20
-9.7365611779367
 30
0.0
 10
12.30042089546774
 20
-9.698589525690827
 30
0.0
 10
12.27771766782241
 20
-9.660625104171675
 30
0.0
 10
12.25486737507565
 20
-9.622668056903275
 30
0.0
 10
12.25106445366602
 20
-9.616350953253755
 30
0.0
 10
12.24725745853681
 20
-9.610034053603797
 30
0.0
 10
12.24344637873857
 20
-9.603717358625873
 30
0.0
  0
SPLINE
  5
FBB
330
1F
100
AcDbEntity
  8
1
  6
Continuous
370
    25
100
AcDbSpline
210
0.0
220
0.0
230
1.0
 70
     8
 71
     3
 72
     8
 73
     4
 74
     0
 42
0.000000001
 43
0.0000000001
 40
0.0
 40
0.0
 40
0.0
 40
0.0
 40
0.7395296532757194
 40
0.7395296532757194
 40
0.7395296532757194
 40
0.7395296532757194
 10
8.299997549397872
 20
-9.934466624224443
 30
0.0
 10
9.664494917594323
 20
-9.915469620040594
 30
0.0
 10
11.03161108340209
 20
-9.892343349429657
 30
0.0
 10
12.39879688902084
 20
-9.865133611295131
 30
0.0
  0
SPLINE
  5
FBC
330
1F
100
AcDbEntity
  8
1
  6
Continuous
370
    25
100
AcDbSpline
210
0.0
220
0.0
230
1.0
 70
     8
 71
     3
 72
    14
 73
    10
 74
     0
 42
0.000000001
 43
0.0000000001
 40
0.0
 40
0.0
 40
0.0
 40
0.0
 40
0.2500000000000001
 40
0.2500000000000001
 40
0.5000000000000001
 40
0.5000000000000001
 40
0.7500000000000002
 40
0.7500000000000002
 40
1.0
 40
1.0
 40
1.0
 40
1.0
 10
14.22625069775885
 20
-8.368552113569505
 30
0.0
 10
14.17782218580299
 20
-8.575530807600213
 30
0.0
 10
14.09914503978795
 20
-8.770729250174012
 30
0.0
 10
13.87683079816632
 20
-9.135827652774596
 30
0.0
 10
13.73848495531142
 20
-9.296591218519008
 30
0.0
 10
13.40829782443873
 20
-9.569298550925234
 30
0.0
 10
13.22311030036886
 20
-9.675368323864546
 30
0.0
 10
12.82128139510448
 20
-9.822470449168347
 30
0.0
 10
12.61210051829209
 20
-9.860888441493193
 30
0.0
 10
12.39879688902084
 20
-9.865133611295103
 30
0.0
  0
LINE
  5
FBD
330
1F
100
AcDbEntity
  8
1
  6
Continuous
370
    25
100
AcDbLine
 10
0.6493923137978898
 20
-9.066675069870461
 30
0.0
 11
0.4999975493978896
 21
-9.066675069870461
 31
0.0
  0
LINE
  5
FBE
330
1F
100
AcDbEntity
  8
1
  6
Continuous
370
    25
100
AcDbLine
 10
0.4999975493978896
 20
9.048832782029537
 30
0.0
 11
0.4999975493978896
 21
-9.066675069870461
 31
0.0
  0
LINE
  5
FBF
330
1F
100
AcDbEntity
  8
1
  6
Continuous
370
    25
100
AcDbLine
 10
0.4999975493978896
 20
9.048832782029537
 30
0.0
 11
14.27954302919789
 21
-0.5997088359704607
 31
0.0
  0
LINE
  5
FC0
330
1F
100
AcDbEntity
  8
1
  6
Continuous
370
    25
100
AcDbLine
 10
14.27954302919789
 20
-0.5997088359704607
 30
0.0
 11
14.21438027589789
 21
-1.67297837237046
 31
0.0
  0
LINE
  5
FC1
330
1F
100
AcDbEntity
  8
1
  6
Continuous
370
    25
100
AcDbLine
 10
14.21438027589789
 20
-1.67297837237046
 30
0.0
 11
14.99999754939789
 21
-1.67297837237046
 31
0.0
  0
LINE
  5
FC2
330
1F
100
AcDbEntity
  8
1
  6
Continuous
370
    25
100
AcDbLine
 10
8.299997549397886
 20
-8.932093549370462
 30
0.0
 11
8.299997549397886
 21
-9.934466624270459
 31
0.0
  0
LINE
  5
FC3
330
1F
100
AcDbEntity
  8
1
  6
Continuous
370
    25
100
AcDbLine
 10
0.6493923137978898
 20
-9.066675069870461
 30
0.0
 11
0.6493923137978898
 21
-9.73147684867046
 31
0.0
  0
LINE
  5
FC4
330
1F
100
AcDbEntity
  8
1
  6
Continuous
370
    25
100
AcDbLine
 10
14.27954302919789
 20
-0.5997088359704607
 30
0.0
 11
14.73550707829788
 21
-0.5185026267704611
 31
0.0
  0
LINE
  5
FC5
330
1F
100
AcDbEntity
  8
1
  6
Continuous
370
    25
100
AcDbLine
 10
14.73550707829788
 20
-1.67297837237046
 30
0.0
 11
14.73550707829788
 21
-0.5185026267704611
 31
0.0
  0
LINE
  5
FC6
330
1F
100
AcDbEntity
  8
1
  6
Continuous
370
    25
100
AcDbLine
 10
0.4999975493978896
 20
9.048832782029537
 30
0.0
 11
0.060207336197891
 21
9.491234566129536
 31
0.0
  0
LINE
  5
FC7
330
1F
100
AcDbEntity
  8
1
  6
Continuous
370
    25
100
AcDbLine
 10
0.4193702193978909
 20
9.710943858229539
 30
0.0
 11
14.85756429359789
 21
-0.3987884705704605
 31
0.0
  0
LINE
  5
FC8
330
1F
100
AcDbEntity
  8
1
  6
Continuous
370
    25
100
AcDbLine
 10
14.73550707829788
 20
-0.5185026267704611
 30
0.0
 11
14.85756429359789
 21
-0.3987884705704605
 31
0.0
  0
LINE
  5
FC9
330
1F
100
AcDbEntity
  8
1
  6
Continuous
370
    25
100
AcDbLine
 10
-0.0000024506021106
 20
-9.710070265670459
 30
0.0
 11
-0.0000024506021106
 21
-2.499999997470458
 31
0.0
  0
LINE
  5
FCA
330
1F
100
AcDbEntity
  8
1
  6
Continuous
370
    25
100
AcDbLine
 10
-0.0000024506021106
 20
-9.23883887657046
 30
0.0
 11
0.4999975493978896
 21
-9.066675069870461
 31
0.0
  0
LINE
  5
FCB
330
1F
100
AcDbEntity
  8
1
  6
Continuous
370
    25
100
AcDbLine
 10
-0.0000024506021106
 20
-9.46698637757046
 30
0.0
 11
0.6493923137978898
 21
-9.46698637757046
 31
0.0
  0
LINE
  5
FCC
330
1F
100
AcDbEntity
  8
1
  6
Continuous
370
    25
100
AcDbLine
 10
-0.0000024506021106
 20
-2.499999997470458
 30
0.0
 11
0.2999975493978866
 21
-2.499999997470458
 31
0.0
  0
LINE
  5
FCD
330
1F
100
AcDbEntity
  8
1
  6
Continuous
370
    25
100
AcDbLine
 10
0.2999975493978866
 20
-2.499999997470458
 30
0.0
 11
0.2999975493978866
 21
2.500000002529539
 31
0.0
  0
LINE
  5
FCE
330
1F
100
AcDbEntity
  8
1
  6
Continuous
370
    25
100
AcDbLine
 10
0.2999975493978866
 20
2.500000002529539
 30
0.0
 11
-0.0000024506021106
 21
2.500000002529539
 31
0.0
  0
LINE
  5
FCF
330
1F
100
AcDbEntity
  8
1
  6
Continuous
370
    25
100
AcDbLine
 10
-0.0000024506021106
 20
2.500000002529539
 30
0.0
 11
-0.0000024506021106
 21
9.710070270729536
 31
0.0
  0
LINE
  5
FD0
330
1F
100
AcDbEntity
  8
1
  6
Continuous
370
    25
100
AcDbLine
 10
-0.0000024506021106
 20
9.501955636729539
 30
0.0
 11
0.060207336197891
 21
9.491234566129536
 31
0.0
  0
LINE
  5
FD1
330
1F
100
AcDbEntity
  8
1
  6
Continuous
370
    25
100
AcDbLine
 10
14.99999754939789
 20
-1.67297837237046
 30
0.0
 11
14.99999754939789
 21
1.672978377429538
 31
0.0
  0
LINE
  5
FD2
330
1F
100
AcDbEntity
  8
1
  6
Continuous
370
    25
100
AcDbLine
 10
14.92459446749788
 20
0.0000000025295392
 30
0.0
 11
14.99999754939789
 21
0.0000000025295392
 31
0.0
  0
LINE
  5
FD3
330
1F
100
AcDbEntity
  8
1
  6
Continuous
370
    25
100
AcDbLine
 10
14.92459446749788
 20
-0.2641273037704614
 30
0.0
 11
14.92459446749788
 21
0.0000000025295392
 31
0.0
  0
LINE
  5
FD4
330
1F
100
AcDbEntity
  8
1
  6
Continuous
370
    25
100
AcDbLine
 10
0.6493923137978898
 20
9.731476853729539
 30
0.0
 11
14.92459446749788
 21
-0.2641273037704614
 31
0.0
  0
LINE
  5
FD5
330
1F
100
AcDbEntity
  8
1
  6
Continuous
370
    25
100
AcDbLine
 10
14.85756429359789
 20
-0.3987884705704605
 30
0.0
 11
14.92459446749788
 21
-0.2641273037704614
 31
0.0
  0
ARC
  5
FD6
330
1F
100
AcDbEntity
  8
1
  6
Continuous
370
    25
100
AcDbCircle
 10
0.4683239914978972
 20
9.227498430229537
 30
0.0
 40
0.4859176409014224
100
AcDbArc
 50
95.78207241669963
 51
147.1283510118998
  0
DIMENSION
  5
1058
102
{ACAD_XDICTIONARY
360
1062
102
}
102
{ACAD_REACTORS
330
1069
102
}
330
1F
100
AcDbEntity
  8
2
100
AcDbDimension
  2
*D23
 10
12.0782983638978
 20
8.000000002529541
 30
0.0
 11
14.89864759409036
 21
18.1795088661569
 31
0.0
 70
    36
 71
     5
 42
2.0
  3
ISO-25
100
AcDbRadialDimension
 15
13.03387910353765
 25
9.756947767839982
 35
0.0
 40
0.0
1001
ACAD
1000
DSTYLE
1002
{
1070
   340
1005
442
1070
   288
1070
     1
1002
}
1001
ACAD_DSTYLE_DIMRADIAL_EXTENSION
1070
   387
1070
     1
1070
   388
1040
0.257293713714702
1070
   390
1040
1.570796326794896
  0
DIMENSION
  5
106A
102
{ACAD_XDICTIONARY
360
1074
102
}
102
{ACAD_REACTORS
330
107B
102
}
330
1F
100
AcDbEntity
  8
2
100
AcDbDimension
  2
*D24
 10
-15.0000024506022
 20
0.8750000025295403
 30
0.0
 11
24.38700540710899
 21
7.239996300137697
 31
0.0
 70
    36
 71
     5
 42
29.99999999999883
  3
ISO-25
100
AcDbRadialDimension
 15
14.85277531704245
 25
3.843443964532344
 35
0.0
 40
0.0
1001
ACAD
1000
DSTYLE
1002
{
1070
   288
1070
     1
1070
   340
1005
442
1002
}
1001
ACAD_DSTYLE_DIMRADIAL_EXTENSION
1070
   387
1070
     1
1070
   388
1040
0.0
1070
   390
1040
0.2572937137147054
  0
LINE
  5
10F2
330
1F
100
AcDbEntity
  8
4
100
AcDbLine
 10
0.2999975493978866
 20
-0.0000000000000355
 30
0.0
 11
14.99999754939789
 21
0.0000000025295393
 31
0.0
  0
ENDSEC
  0
SECTION
  2
OBJECTS
  0
DICTIONARY
  5
C
330
0
100
AcDbDictionary
281
     1
  3
ACAD_CIP_PREVIOUS_PRODUCT_INFO
350
925
  3
ACAD_COLOR
350
918
  3
ACAD_DETAILVIEWSTYLE
350
436
  3
ACAD_GROUP
350
D
  3
ACAD_IMAGE_VARS
350
268
  3
ACAD_LAYOUT
350
1A
  3
ACAD_MATERIAL
350
8E6
  3
ACAD_MLEADERSTYLE
350
91B
  3
ACAD_MLINESTYLE
350
17
  3
ACAD_PLOTSETTINGS
350
19
  3
ACAD_PLOTSTYLENAME
350
E
  3
ACAD_SCALELIST
350
92
  3
ACAD_SECTIONVIEWSTYLE
350
437
  3
ACAD_TABLESTYLE
350
919
  3
ACAD_VISUALSTYLE
350
8FF
  3
ACDB_RECOMPOSE_DATA
350
1293
  3
AcDbVariableDictionary
350
22B
  3
APPDATA
350
266
  3
DWGPROPS
350
1294
  0
DICTIONARY
  5
470
330
2
100
AcDbDictionary
280
     1
281
     1
  3
ACAD_LAYERSTATES
360
471
  3
ACLYDICTIONARY
360
74E
  0
DICTIONARY
  5
929
330
10
100
AcDbDictionary
280
     1
281
     1
  3
ADSK_XREC_LAYER_RECONCILED
360
92A
  0
DICTIONARY
  5
92B
330
44
100
AcDbDictionary
280
     1
281
     1
  3
ADSK_XREC_LAYER_RECONCILED
360
92C
  0
DICTIONARY
  5
92D
330
47
100
AcDbDictionary
280
     1
281
     1
  3
ADSK_XREC_LAYER_RECONCILED
360
92E
  0
DICTIONARY
  5
92F
330
14A
100
AcDbDictionary
280
     1
281
     1
  3
ADSK_XREC_LAYER_RECONCILED
360
930
  0
DICTIONARY
  5
5B0
330
5AF
100
AcDbDictionary
280
     1
281
     1
  3
ADSK_XREC_LAYER_RECONCILED
360
5B1
  0
DICTIONARY
  5
674
330
673
100
AcDbDictionary
280
     1
281
     1
  3
ADSK_XREC_LAYER_RECONCILED
360
675
  0
DICTIONARY
  5
6A1
330
6A0
100
AcDbDictionary
280
     1
281
     1
  3
ADSK_XREC_LAYER_RECONCILED
360
6A2
  0
DICTIONARY
  5
75A
330
759
100
AcDbDictionary
280
     1
281
     1
  3
ADSK_XREC_LAYER_RECONCILED
360
75B
  0
DICTIONARY
  5
931
330
7B1
100
AcDbDictionary
280
     1
281
     1
  3
ADSK_XREC_LAYER_RECONCILED
360
932
  0
DICTIONARY
  5
933
330
7E7
100
AcDbDictionary
280
     1
281
     1
  3
ADSK_XREC_LAYER_RECONCILED
360
934
  0
DICTIONARY
  5
935
330
820
100
AcDbDictionary
280
     1
281
     1
  3
ADSK_XREC_LAYER_RECONCILED
360
936
  0
DICTIONARY
  5
1062
330
1058
100
AcDbDictionary
280
     1
281
     1
  3
ACAD_DIMASSOC
360
1069
  0
DICTIONARY
  5
1074
330
106A
100
AcDbDictionary
280
     1
281
     1
  3
ACAD_DIMASSOC
360
107B
  0
XRECORD
  5
925
102
{ACAD_REACTORS
330
C
102
}
330
C
100
AcDbXrecord
280
     1
300
AMECH_PP
300
2017
300
86690PDSP_2017_0F
  0
DICTIONARY
  5
918
102
{ACAD_REACTORS
330
C
102
}
330
C
100
AcDbDictionary
281
     1
  0
DICTIONARY
  5
436
102
{ACAD_REACTORS
330
C
102
}
330
C
100
AcDbDictionary
281
     1
  3
Imperial24
350
B6D
  3
Metric50
350
91E
  0
DICTIONARY
  5
D
102
{ACAD_REACTORS
330
C
102
}
330
C
100
AcDbDictionary
281
     1
  0
RASTERVARIABLES
  5
268
102
{ACAD_REACTORS
330
C
102
}
330
C
100
AcDbRasterVariables
 90
        0
 70
     1
 71
     1
 72
     1
  0
DICTIONARY
  5
1A
102
{ACAD_REACTORS
330
C
102
}
330
C
100
AcDbDictionary
281
     1
  3
Layout1
350
1E
  3
Layout2
350
26
  3
Model
350
22
  0
DICTIONARY
  5
8E6
102
{ACAD_REACTORS
330
C
102
}
330
C
100
AcDbDictionary
281
     1
  3
ByBlock
350
8EF
  3
ByLayer
350
8E7
  3
Global
350
8F7
  0
DICTIONARY
  5
91B
102
{ACAD_REACTORS
330
C
102
}
330
C
100
AcDbDictionary
281
     1
  3
Standard
350
91C
  0
DICTIONARY
  5
17
102
{ACAD_REACTORS
330
C
102
}
330
C
100
AcDbDictionary
281
     1
  3
Standard
350
18
  0
DICTIONARY
  5
19
102
{ACAD_REACTORS
330
C
102
}
330
C
100
AcDbDictionary
281
     1
  0
ACDBDICTIONARYWDFLT
  5
E
102
{ACAD_REACTORS
330
C
102
}
330
C
100
AcDbDictionary
281
     1
  3
Normal
350
F
100
AcDbDictionaryWithDefault
340
F
  0
DICTIONARY
  5
92
102
{ACAD_REACTORS
330
C
102
}
330
C
100
AcDbDictionary
281
     1
  3
A0
350
93
  3
A1
350
94
  3
A2
350
95
  3
A3
350
96
  3
A4
350
97
  3
A5
350
98
  3
A6
350
99
  3
A7
350
9A
  3
A8
350
9B
  3
A9
350
9C
  3
B0
350
9D
  3
B1
350
9E
  3
B2
350
9F
  3
B3
350
A0
  3
B4
350
A1
  3
B5
350
A2
  3
B6
350
A3
  3
B7
350
A4
  3
B8
350
A5
  3
B9
350
A6
  3
C0
350
A7
  3
C1
350
A8
  3
C2
350
A9
  3
C3
350
AA
  3
C4
350
AB
  3
C5
350
AC
  3
C6
350
AD
  3
C7
350
AE
  3
C8
350
AF
  3
C9
350
B0
  3
D0
350
B1
  3
D1
350
B2
  3
D2
350
B3
  0
DICTIONARY
  5
437
102
{ACAD_REACTORS
330
C
102
}
330
C
100
AcDbDictionary
281
     1
  3
Imperial24
350
B6C
  3
Metric50
350
91D
  0
DICTIONARY
  5
919
102
{ACAD_REACTORS
330
C
102
}
330
C
100
AcDbDictionary
281
     1
  3
Standard
350
91A
  0
DICTIONARY
  5
8FF
102
{ACAD_REACTORS
330
C
102
}
330
C
100
AcDbDictionary
281
     1
  3
2dWireframe
350
905
  3
Basic
350
904
  3
Brighten
350
90B
  3
ColorChange
350
90F
  3
Conceptual
350
908
  3
Dim
350
90A
  3
EdgeColorOff
350
917
  3
Facepattern
350
90E
  3
Flat
350
900
  3
FlatWithEdges
350
901
  3
Gouraud
350
902
  3
GouraudWithEdges
350
903
  3
Hidden
350
907
  3
JitterOff
350
915
  3
Linepattern
350
90D
  3
OverhangOff
350
916
  3
Realistic
350
909
  3
Shaded
350
914
  3
Shaded with edges
350
913
  3
Shades of Gray
350
910
  3
Sketchy
350
911
  3
Thicken
350
90C
  3
Wireframe
350
906
  3
X-Ray
350
912
  0
XRECORD
  5
1293
102
{ACAD_REACTORS
330
C
102
}
330
C
100
AcDbXrecord
280
     1
 90
        1
330
91A
  0
DICTIONARY
  5
22B
102
{ACAD_REACTORS
330
C
102
}
330
C
100
AcDbDictionary
281
     1
  3
CANNOSCALE
350
93B
  3
CMLEADERSTYLE
350
938
  3
CTABLESTYLE
350
937
  3
CVIEWDETAILSTYLE
350
939
  3
CVIEWSECTIONSTYLE
350
93A
  3
DIMASSOC
350
231
  3
HIDETEXT
350
232
  3
INDEXCTL
350
93D
  3
SORTENTS
350
93C
  3
XCLIPFRAME
350
1291
  0
DICTIONARY
  5
266
102
{ACAD_REACTORS
330
C
102
}
330
C
100
AcDbDictionary
281
     1
  0
XRECORD
  5
1294
102
{ACAD_REACTORS
330
C
102
}
330
C
100
AcDbXrecord
280
     1
  1
DWGPROPS COOKIE
  2

  3

  4

  6

  7

  8
com090
  9

300
=
301
=
302
=
303
=
304
=
305
=
306
=
307
=
308
=
309
=
 40
0.0485677430555556
 41
2458765.839571759
 42
2458886.491377315
  1

 90
        0
  0
DICTIONARY
  5
471
102
{ACAD_REACTORS
330
470
102
}
330
470
100
AcDbDictionary
281
     1
  0
DICTIONARY
  5
74E
102
{ACAD_REACTORS
330
470
102
}
330
470
100
AcDbDictionary
281
     1
1001
ACAD
1000
<All
  0
XRECORD
  5
92A
102
{ACAD_REACTORS
330
929
102
}
330
929
100
AcDbXrecord
280
     1
290
     1
  0
XRECORD
  5
92C
102
{ACAD_REACTORS
330
92B
102
}
330
92B
100
AcDbXrecord
280
     1
290
     1
  0
XRECORD
  5
92E
102
{ACAD_REACTORS
330
92D
102
}
330
92D
100
AcDbXrecord
280
     1
290
     1
  0
XRECORD
  5
930
102
{ACAD_REACTORS
330
92F
102
}
330
92F
100
AcDbXrecord
280
     1
290
     1
  0
XRECORD
  5
5B1
102
{ACAD_REACTORS
330
5B0
102
}
330
5B0
100
AcDbXrecord
280
     1
290
     1
  0
XRECORD
  5
675
102
{ACAD_REACTORS
330
674
102
}
330
674
100
AcDbXrecord
280
     1
290
     1
  0
XRECORD
  5
6A2
102
{ACAD_REACTORS
330
6A1
102
}
330
6A1
100
AcDbXrecord
280
     1
290
     1
  0
XRECORD
  5
75B
102
{ACAD_REACTORS
330
75A
102
}
330
75A
100
AcDbXrecord
280
     1
290
     1
  0
XRECORD
  5
932
102
{ACAD_REACTORS
330
931
102
}
330
931
100
AcDbXrecord
280
     1
290
     1
  0
XRECORD
  5
934
102
{ACAD_REACTORS
330
933
102
}
330
933
100
AcDbXrecord
280
     1
290
     1
  0
XRECORD
  5
936
102
{ACAD_REACTORS
330
935
102
}
330
935
100
AcDbXrecord
280
     1
290
     1
  0
DIMASSOC
  5
1069
102
{ACAD_REACTORS
330
1062
102
}
330
1062
100
AcDbDimAssoc
330
1058
 90
        2
 70
     0
 71
     0
  1
AcDbOsnapPointRef
 72
     3
331
ED6
 73
     2
 91
        0
 40
0.0
 10
0.0
 20
0.0
 30
0.0
 75
     0
  0
DIMASSOC
  5
107B
102
{ACAD_REACTORS
330
1074
102
}
330
1074
100
AcDbDimAssoc
330
106A
 90
        2
 70
     0
 71
     0
  1
AcDbOsnapPointRef
 72
     3
331
ED7
 73
     2
 91
        0
 40
0.0
 10
0.0
 20
0.0
 30
0.0
 75
     0
  0
ACDBDETAILVIEWSTYLE
  5
B6D
102
{ACAD_XDICTIONARY
360
12D2
102
}
102
{ACAD_REACTORS
330
436
102
}
330
436
100
AcDbModelDocViewStyle
 70
     0
  3
Imperial24
290
     0
100
AcDbDetailViewStyle
 70
     0
 71
     0
 90
        3
 71
     1
340
11
 40
0.24
340
0
 40
0.24
300

 40
0.36
280
     3
 71
     2
340
16
 90
       25
 71
     3
340
11
 40
0.24
 90
        1
 40
0.75
 90
        1
300
%<\AcVar ViewType \f "%tc1">% %<\AcVar ViewDetailId>%\PSCALE %<\AcVar ViewScale \f "%sn">%
 71
     4
340
16
 90
       25
340
16
 90
       25
280
     0
  0
ACDBDETAILVIEWSTYLE
  5
91E
102
{ACAD_XDICTIONARY
360
12CE
102
}
102
{ACAD_REACTORS
330
436
102
}
330
436
100
AcDbModelDocViewStyle
 70
     0
  3
Metric50
290
     0
100
AcDbDetailViewStyle
 70
     0
 71
     0
 90
        3
 71
     1
340
11
 40
5.0
340
0
 40
5.0
300

 40
0.0
280
     1
 71
     2
340
16
 90
       25
 71
     3
340
11
 40
5.0
 90
        0
 40
15.0
 90
        1
300
%<\AcVar ViewDetailId>% (%<\AcVar ViewScale \f "%sn">%)
 71
     4
340
16
 90
       25
340
16
 90
       25
280
     0
  0
LAYOUT
  5
1E
102
{ACAD_XDICTIONARY
360
1295
102
}
102
{ACAD_REACTORS
330
1A
102
}
330
1A
100
AcDbPlotSettings
  1

  2
none_device
  4

  6

 40
0.0
 41
0.0
 42
0.0
 43
0.0
 44
0.0
 45
0.0
 46
0.0
 47
0.0
 48
0.0
 49
0.0
140
0.0
141
0.0
142
1.0
143
1.0
 70
   688
 72
     0
 73
     0
 74
     5
  7

 75
    16
147
1.0
148
0.0
149
0.0
100
AcDbLayout
  1
Layout1
 70
     1
 71
     1
 10
0.0
 20
0.0
 11
0.0
 21
0.0
 12
0.0
 22
0.0
 32
0.0
 14
1.000000000000000E+20
 24
1.000000000000000E+20
 34
1.000000000000000E+20
 15
-1.000000000000000E+20
 25
-1.000000000000000E+20
 35
-1.000000000000000E+20
146
0.0
 13
0.0
 23
0.0
 33
0.0
 16
1.0
 26
0.0
 36
0.0
 17
0.0
 27
1.0
 37
0.0
 76
     0
330
1B
  0
LAYOUT
  5
26
102
{ACAD_XDICTIONARY
360
1299
102
}
102
{ACAD_REACTORS
330
1A
102
}
330
1A
100
AcDbPlotSettings
  1

  2
none_device
  4

  6

 40
0.0
 41
0.0
 42
0.0
 43
0.0
 44
0.0
 45
0.0
 46
0.0
 47
0.0
 48
0.0
 49
0.0
140
0.0
141
0.0
142
1.0
143
1.0
 70
   688
 72
     0
 73
     0
 74
     5
  7

 75
    16
147
1.0
148
0.0
149
0.0
100
AcDbLayout
  1
Layout2
 70
     1
 71
     2
 10
0.0
 20
0.0
 11
0.0
 21
0.0
 12
0.0
 22
0.0
 32
0.0
 14
0.0
 24
0.0
 34
0.0
 15
0.0
 25
0.0
 35
0.0
146
0.0
 13
0.0
 23
0.0
 33
0.0
 16
1.0
 26
0.0
 36
0.0
 17
0.0
 27
1.0
 37
0.0
 76
     0
330
23
  0
LAYOUT
  5
22
102
{ACAD_XDICTIONARY
360
1297
102
}
102
{ACAD_REACTORS
330
1A
102
}
330
1A
100
AcDbPlotSettings
  1

  2
none_device
  4

  6

 40
0.0
 41
0.0
 42
0.0
 43
0.0
 44
0.0
 45
0.0
 46
0.0
 47
0.0
 48
0.0
 49
0.0
140
0.0
141
0.0
142
1.0
143
1.0
 70
  1712
 72
     0
 73
     0
 74
     0
  7

 75
     0
147
1.0
148
0.0
149
0.0
100
AcDbLayout
  1
Model
 70
     1
 71
     0
 10
0.0
 20
0.0
 11
420.0
 21
297.0
 12
0.0
 22
0.0
 32
0.0
 14
-41.5
 24
-30.0
 34
0.0
 15
58.5
 25
30.0
 35
0.0
146
0.0
 13
0.0
 23
0.0
 33
0.0
 16
1.0
 26
0.0
 36
0.0
 17
0.0
 27
1.0
 37
0.0
 76
     0
330
1F
331
29
  0
MATERIAL
  5
8EF
102
{ACAD_XDICTIONARY
360
8F0
102
}
102
{ACAD_REACTORS
330
8E6
102
}
330
8E6
100
AcDbMaterial
  1
ByBlock
 72
     0
 43
0.0008202099737533
 43
0.0
 43
0.0
 43
0.0
 43
0.0
 43
0.0008202099737533
 43
0.0
 43
0.0
 43
0.0
 43
0.0
 43
1.0
 43
0.0
 43
0.0
 43
0.0
 43
0.0
 43
1.0
 77
     0
 47
0.0008202099737533
 47
0.0
 47
0.0
 47
0.0
 47
0.0
 47
0.0008202099737533
 47
0.0
 47
0.0
 47
0.0
 47
0.0
 47
1.0
 47
0.0
 47
0.0
 47
0.0
 47
0.0
 47
1.0
171
     0
 49
0.0008202099737533
 49
0.0
 49
0.0
 49
0.0
 49
0.0
 49
0.0008202099737533
 49
0.0
 49
0.0
 49
0.0
 49
0.0
 49
1.0
 49
0.0
 49
0.0
 49
0.0
 49
0.0
 49
1.0
175
     0
142
0.0008202099737533
142
0.0
142
0.0
142
0.0
142
0.0
142
0.0008202099737533
142
0.0
142
0.0
142
0.0
142
0.0
142
1.0
142
0.0
142
0.0
142
0.0
142
0.0
142
1.0
179
     0
144
0.0008202099737533
144
0.0
144
0.0
144
0.0
144
0.0
144
0.0008202099737533
144
0.0
144
0.0
144
0.0
144
0.0
144
1.0
144
0.0
144
0.0
144
0.0
144
0.0
144
1.0
147
0.0008202099737533
147
0.0
147
0.0
147
0.0
147
0.0
147
0.0008202099737533
147
0.0
147
0.0
147
0.0
147
0.0
147
1.0
147
0.0
147
0.0
147
0.0
147
0.0
147
1.0
  0
MATERIAL
  5
8E7
102
{ACAD_XDICTIONARY
360
8E8
102
}
102
{ACAD_REACTORS
330
8E6
102
}
330
8E6
100
AcDbMaterial
  1
ByLayer
 72
     0
 43
0.0008202099737533
 43
0.0
 43
0.0
 43
0.0
 43
0.0
 43
0.0008202099737533
 43
0.0
 43
0.0
 43
0.0
 43
0.0
 43
1.0
 43
0.0
 43
0.0
 43
0.0
 43
0.0
 43
1.0
 77
     0
 47
0.0008202099737533
 47
0.0
 47
0.0
 47
0.0
 47
0.0
 47
0.0008202099737533
 47
0.0
 47
0.0
 47
0.0
 47
0.0
 47
1.0
 47
0.0
 47
0.0
 47
0.0
 47
0.0
 47
1.0
171
     0
 49
0.0008202099737533
 49
0.0
 49
0.0
 49
0.0
 49
0.0
 49
0.0008202099737533
 49
0.0
 49
0.0
 49
0.0
 49
0.0
 49
1.0
 49
0.0
 49
0.0
 49
0.0
 49
0.0
 49
1.0
175
     0
142
0.0008202099737533
142
0.0
142
0.0
142
0.0
142
0.0
142
0.0008202099737533
142
0.0
142
0.0
142
0.0
142
0.0
142
1.0
142
0.0
142
0.0
142
0.0
142
0.0
142
1.0
179
     0
144
0.0008202099737533
144
0.0
144
0.0
144
0.0
144
0.0
144
0.0008202099737533
144
0.0
144
0.0
144
0.0
144
0.0
144
1.0
144
0.0
144
0.0
144
0.0
144
0.0
144
1.0
147
0.0008202099737533
147
0.0
147
0.0
147
0.0
147
0.0
147
0.0008202099737533
147
0.0
147
0.0
147
0.0
147
0.0
147
1.0
147
0.0
147
0.0
147
0.0
147
0.0
147
1.0
  0
MATERIAL
  5
8F7
102
{ACAD_XDICTIONARY
360
8F8
102
}
102
{ACAD_REACTORS
330
8E6
102
}
330
8E6
100
AcDbMaterial
  1
Global
 72
     0
 43
0.0008202099737533
 43
0.0
 43
0.0
 43
0.0
 43
0.0
 43
0.0008202099737533
 43
0.0
 43
0.0
 43
0.0
 43
0.0
 43
1.0
 43
0.0
 43
0.0
 43
0.0
 43
0.0
 43
1.0
 77
     0
 47
0.0008202099737533
 47
0.0
 47
0.0
 47
0.0
 47
0.0
 47
0.0008202099737533
 47
0.0
 47
0.0
 47
0.0
 47
0.0
 47
1.0
 47
0.0
 47
0.0
 47
0.0
 47
0.0
 47
1.0
171
     0
 49
0.0008202099737533
 49
0.0
 49
0.0
 49
0.0
 49
0.0
 49
0.0008202099737533
 49
0.0
 49
0.0
 49
0.0
 49
0.0
 49
1.0
 49
0.0
 49
0.0
 49
0.0
 49
0.0
 49
1.0
175
     0
142
0.0008202099737533
142
0.0
142
0.0
142
0.0
142
0.0
142
0.0008202099737533
142
0.0
142
0.0
142
0.0
142
0.0
142
1.0
142
0.0
142
0.0
142
0.0
142
0.0
142
1.0
179
     0
144
0.0008202099737533
144
0.0
144
0.0
144
0.0
144
0.0
144
0.0008202099737533
144
0.0
144
0.0
144
0.0
144
0.0
144
1.0
144
0.0
144
0.0
144
0.0
144
0.0
144
1.0
147
0.0008202099737533
147
0.0
147
0.0
147
0.0
147
0.0
147
0.0008202099737533
147
0.0
147
0.0
147
0.0
147
0.0
147
1.0
147
0.0
147
0.0
147
0.0
147
0.0
147
1.0
  0
MLEADERSTYLE
  5
91C
102
{ACAD_REACTORS
330
91B
102
}
330
91B
100
AcDbMLeaderStyle
170
     2
171
     1
172
     0
 90
        2
 40
0.0
 41
0.0
173
     1
 91
-1056964608
340
14
 92
       -2
290
     1
 42
2.0
291
     1
 43
0.36
  3
Standard
 44
4.0
300

342
11
174
     1
178
     6
175
     1
176
     0
 93
-1056964608
 45
4.0
292
     0
297
     0
 46
4.0
 94
-1056964608
 47
1.0
 49
1.0
140
1.0
293
     1
141
0.0
294
     1
177
     0
142
1.0
295
     0
296
     0
143
0.125
1001
ACAD_MLEADERVER
1070
     2
  0
MLINESTYLE
  5
18
102
{ACAD_REACTORS
330
17
102
}
330
17
100
AcDbMlineStyle
  2
STANDARD
 70
     0
  3

 62
   256
 51
90.0
 52
90.0
 71
     2
 49
0.5
 62
   256
  6
BYLAYER
 49
-0.5
 62
   256
  6
BYLAYER
  0
ACDBPLACEHOLDER
  5
F
102
{ACAD_REACTORS
330
E
102
}
330
E
  0
SCALE
  5
93
102
{ACAD_REACTORS
330
92
102
}
330
92
100
AcDbScale
 70
     0
300
1:1
140
1.0
141
1.0
290
     1
  0
SCALE
  5
94
102
{ACAD_REACTORS
330
92
102
}
330
92
100
AcDbScale
 70
     0
300
1:2
140
1.0
141
2.0
290
     0
  0
SCALE
  5
95
102
{ACAD_REACTORS
330
92
102
}
330
92
100
AcDbScale
 70
     0
300
1:4
140
1.0
141
4.0
290
     0
  0
SCALE
  5
96
102
{ACAD_REACTORS
330
92
102
}
330
92
100
AcDbScale
 70
     0
300
1:5
140
1.0
141
5.0
290
     0
  0
SCALE
  5
97
102
{ACAD_REACTORS
330
92
102
}
330
92
100
AcDbScale
 70
     0
300
1:8
140
1.0
141
8.0
290
     0
  0
SCALE
  5
98
102
{ACAD_REACTORS
330
92
102
}
330
92
100
AcDbScale
 70
     0
300
1:10
140
1.0
141
10.0
290
     0
  0
SCALE
  5
99
102
{ACAD_REACTORS
330
92
102
}
330
92
100
AcDbScale
 70
     0
300
1:16
140
1.0
141
16.0
290
     0
  0
SCALE
  5
9A
102
{ACAD_REACTORS
330
92
102
}
330
92
100
AcDbScale
 70
     0
300
1:20
140
1.0
141
20.0
290
     0
  0
SCALE
  5
9B
102
{ACAD_REACTORS
330
92
102
}
330
92
100
AcDbScale
 70
     0
300
1:30
140
1.0
141
30.0
290
     0
  0
SCALE
  5
9C
102
{ACAD_REACTORS
330
92
102
}
330
92
100
AcDbScale
 70
     0
300
1:40
140
1.0
141
40.0
290
     0
  0
SCALE
  5
9D
102
{ACAD_REACTORS
330
92
102
}
330
92
100
AcDbScale
 70
     0
300
1:50
140
1.0
141
50.0
290
     0
  0
SCALE
  5
9E
102
{ACAD_REACTORS
330
92
102
}
330
92
100
AcDbScale
 70
     0
300
1:100
140
1.0
141
100.0
290
     0
  0
SCALE
  5
9F
102
{ACAD_REACTORS
330
92
102
}
330
92
100
AcDbScale
 70
     0
300
2:1
140
2.0
141
1.0
290
     0
  0
SCALE
  5
A0
102
{ACAD_REACTORS
330
92
102
}
330
92
100
AcDbScale
 70
     0
300
4:1
140
4.0
141
1.0
290
     0
  0
SCALE
  5
A1
102
{ACAD_REACTORS
330
92
102
}
330
92
100
AcDbScale
 70
     0
300
8:1
140
8.0
141
1.0
290
     0
  0
SCALE
  5
A2
102
{ACAD_REACTORS
330
92
102
}
330
92
100
AcDbScale
 70
     0
300
10:1
140
10.0
141
1.0
290
     0
  0
SCALE
  5
A3
102
{ACAD_REACTORS
330
92
102
}
330
92
100
AcDbScale
 70
     0
300
100:1
140
100.0
141
1.0
290
     0
  0
SCALE
  5
A4
102
{ACAD_REACTORS
330
92
102
}
330
92
100
AcDbScale
 70
     0
300
1/128" = 1'-0"
140
0.0078125
141
12.0
290
     0
  0
SCALE
  5
A5
102
{ACAD_REACTORS
330
92
102
}
330
92
100
AcDbScale
 70
     0
300
1/64" = 1'-0"
140
0.015625
141
12.0
290
     0
  0
SCALE
  5
A6
102
{ACAD_REACTORS
330
92
102
}
330
92
100
AcDbScale
 70
     0
300
1/32" = 1'-0"
140
0.03125
141
12.0
290
     0
  0
SCALE
  5
A7
102
{ACAD_REACTORS
330
92
102
}
330
92
100
AcDbScale
 70
     0
300
1/16" = 1'-0"
140
0.0625
141
12.0
290
     0
  0
SCALE
  5
A8
102
{ACAD_REACTORS
330
92
102
}
330
92
100
AcDbScale
 70
     0
300
3/32" = 1'-0"
140
0.09375
141
12.0
290
     0
  0
SCALE
  5
A9
102
{ACAD_REACTORS
330
92
102
}
330
92
100
AcDbScale
 70
     0
300
1/8" = 1'-0"
140
0.125
141
12.0
290
     0
  0
SCALE
  5
AA
102
{ACAD_REACTORS
330
92
102
}
330
92
100
AcDbScale
 70
     0
300
3/16" = 1'-0"
140
0.1875
141
12.0
290
     0
  0
SCALE
  5
AB
102
{ACAD_REACTORS
330
92
102
}
330
92
100
AcDbScale
 70
     0
300
1/4" = 1'-0"
140
0.25
141
12.0
290
     0
  0
SCALE
  5
AC
102
{ACAD_REACTORS
330
92
102
}
330
92
100
AcDbScale
 70
     0
300
3/8" = 1'-0"
140
0.375
141
12.0
290
     0
  0
SCALE
  5
AD
102
{ACAD_REACTORS
330
92
102
}
330
92
100
AcDbScale
 70
     0
300
1/2" = 1'-0"
140
0.5
141
12.0
290
     0
  0
SCALE
  5
AE
102
{ACAD_REACTORS
330
92
102
}
330
92
100
AcDbScale
 70
     0
300
3/4" = 1'-0"
140
0.75
141
12.0
290
     0
  0
SCALE
  5
AF
102
{ACAD_REACTORS
330
92
102
}
330
92
100
AcDbScale
 70
     0
300
1" = 1'-0"
140
1.0
141
12.0
290
     0
  0
SCALE
  5
B0
102
{ACAD_REACTORS
330
92
102
}
330
92
100
AcDbScale
 70
     0
300
1-1/2" = 1'-0"
140
1.5
141
12.0
290
     0
  0
SCALE
  5
B1
102
{ACAD_REACTORS
330
92
102
}
330
92
100
AcDbScale
 70
     0
300
3" = 1'-0"
140
3.0
141
12.0
290
     0
  0
SCALE
  5
B2
102
{ACAD_REACTORS
330
92
102
}
330
92
100
AcDbScale
 70
     0
300
6" = 1'-0"
140
6.0
141
12.0
290
     0
  0
SCALE
  5
B3
102
{ACAD_REACTORS
330
92
102
}
330
92
100
AcDbScale
 70
     0
300
1'-0" = 1'-0"
140
12.0
141
12.0
290
     0
  0
ACDBSECTIONVIEWSTYLE
  5
B6C
102
{ACAD_XDICTIONARY
360
12D0
102
}
102
{ACAD_REACTORS
330
437
102
}
330
437
100
AcDbModelDocViewStyle
 70
     0
  3
Imperial24
290
     0
100
AcDbSectionViewStyle
 70
     0
 71
     0
 90
       78
 71
     1
340
11
 40
0.24
340
0
340
0
 40
0.24
300
I, O, Q, S, X, Z
 40
0.48
 90
        3
 40
0.18
 90
        1
 71
     2
340
16
 90
       25
340
16
 90
       50
 40
0.24
 40
0.0
 40
0.24
 71
     3
340
11
 40
0.24
 90
        1
 40
0.75
 90
        1
300
%<\AcVar ViewType \f "%tc1">% %<\AcVar ViewSectionStartId>%-%<\AcVar ViewSectionEndId>%\PSCALE %<\AcVar ViewScale \f "%sn">%
 71
     4
300
ANSI31
 40
1.0
 90
        0
290
     0
290
     0
 90
        6
 40
0.0
 40
1.570796326794896
 40
0.2617993877991494
 40
1.308996938995747
 40
-0.2617993877991494
 40
1.832595714594044
  0
ACDBSECTIONVIEWSTYLE
  5
91D
102
{ACAD_XDICTIONARY
360
12CC
102
}
102
{ACAD_REACTORS
330
437
102
}
330
437
100
AcDbModelDocViewStyle
 70
     0
  3
Metric50
290
     0
100
AcDbSectionViewStyle
 70
     0
 71
     0
 90
      102
 71
     1
340
11
 40
5.0
340
0
340
0
 40
5.0
300
I, O, Q, S, X, Z
 40
10.0
 90
        0
 40
2.5
 90
        0
 71
     2
340
16
 90
       25
340
16
 90
       50
 40
5.0
 40
2.5
 40
5.0
 71
     3
340
11
 40
5.0
 90
        0
 40
15.0
 90
        1
300
%<\AcVar ViewSectionStartId>%-%<\AcVar ViewSectionEndId>% (%<\AcVar ViewScale \f "%sn">%)
 71
     4
300
ANSI31
 40
1.0
 90
        0
290
     0
290
     0
 90
        6
 40
0.0
 40
1.570796326794896
 40
0.2617993877991494
 40
1.308996938995747
 40
-0.2617993877991494
 40
1.832595714594044
  0
TABLESTYLE
  5
91A
102
{ACAD_XDICTIONARY
360
D41
102
}
102
{ACAD_REACTORS
330
919
102
}
330
919
100
AcDbTableStyle
  3
Standard
 70
     0
 71
     0
 40
1.5
 41
1.5
280
     0
281
     0
  7
Standard
140
4.5
170
     2
 62
     0
 63
     7
283
     0
274
    -2
284
     1
 64
     0
275
    -2
285
     1
 65
     0
276
    -2
286
     1
 66
     0
277
    -2
287
     1
 67
     0
278
    -2
288
     1
 68
     0
279
    -2
289
     1
 69
     0
  7
Standard
140
6.0
170
     5
 62
     0
 63
     7
283
     0
274
    -2
284
     1
 64
     0
275
    -2
285
     1
 65
     0
276
    -2
286
     1
 66
     0
277
    -2
287
     1
 67
     0
278
    -2
288
     1
 68
     0
279
    -2
289
     1
 69
     0
  7
Standard
140
4.5
170
     5
 62
     0
 63
     7
283
     0
274
    -2
284
     1
 64
     0
275
    -2
285
     1
 65
     0
276
    -2
286
     1
 66
     0
277
    -2
287
     1
 67
     0
278
    -2
288
     1
 68
     0
279
    -2
289
     1
 69
     0
  0
VISUALSTYLE
  5
905
102
{ACAD_XDICTIONARY
360
12A5
102
}
102
{ACAD_REACTORS
330
8FF
102
}
330
8FF
100
AcDbVisualStyle
  2

 70
     4
 71
     0
 72
     2
 73
     0
 90
        0
 40
-0.6
 41
-30.0
 62
     5
 63
     7
 74
     1
 91
        4
 64
     7
 65
   257
 75
     1
175
     1
 42
1.0
 92
        0
 66
   257
 43
1.0
 76
     1
 77
     6
 78
     2
 67
     7
 79
     5
170
     0
171
     0
290
     0
174
     0
 93
        1
 44
0.0
173
     0
291
     0
 45
0.0
1001
ACAD
1000
AcDbSavedByObjectVersion
1070
     0
  0
VISUALSTYLE
  5
904
102
{ACAD_XDICTIONARY
360
12A3
102
}
102
{ACAD_REACTORS
330
8FF
102
}
330
8FF
100
AcDbVisualStyle
  2

 70
     7
 71
     1
 72
     0
 73
     1
 90
        0
 40
-0.6
 41
-30.0
 62
     5
 63
     7
 74
     0
 91
        4
 64
     7
 65
   257
 75
     1
175
     1
 42
1.0
 92
        8
 66
     7
 43
1.0
 76
     1
 77
     6
 78
     2
 67
     7
 79
     5
170
     0
171
     0
290
     0
174
     0
 93
        1
 44
0.0
173
     0
291
     1
 45
0.0
1001
ACAD
1000
AcDbSavedByObjectVersion
1070
     0
  0
VISUALSTYLE
  5
90B
102
{ACAD_XDICTIONARY
360
12B1
102
}
102
{ACAD_REACTORS
330
8FF
102
}
330
8FF
100
AcDbVisualStyle
  2

 70
    12
 71
     2
 72
     2
 73
     0
 90
        0
 40
-0.6
 41
-30.0
 62
     5
 63
     7
 74
     1
 91
        4
 64
     7
 65
   257
 75
     1
175
     1
 42
1.0
 92
        8
 66
     7
 43
1.0
 76
     1
 77
     6
 78
     2
 67
     7
 79
     5
170
     0
171
     0
290
     0
174
     0
 93
        1
 44
50.0
173
     0
291
     1
 45
0.0
1001
ACAD
1000
AcDbSavedByObjectVersion
1070
     0
  0
VISUALSTYLE
  5
90F
102
{ACAD_XDICTIONARY
360
12B9
102
}
102
{ACAD_REACTORS
330
8FF
102
}
330
8FF
100
AcDbVisualStyle
  2

 70
    16
 71
     2
 72
     2
 73
     3
 90
        0
 40
-0.6
 41
-30.0
 62
     5
 63
     8
 74
     1
 91
        4
 64
     7
 65
   257
 75
     1
175
     1
 42
1.0
 92
        8
 66
     8
 43
1.0
 76
     1
 77
     6
 78
     2
 67
     7
 79
     5
170
     0
171
     0
290
     0
174
     0
 93
        1
 44
0.0
173
     0
291
     1
 45
0.0
1001
ACAD
1000
AcDbSavedByObjectVersion
1070
     0
  0
VISUALSTYLE
  5
908
102
{ACAD_XDICTIONARY
360
12AB
102
}
102
{ACAD_REACTORS
330
8FF
102
}
330
8FF
100
AcDbVisualStyle
  2

 70
     9
 71
     3
 72
     2
 73
     0
 90
        0
 40
-0.6
 41
-30.0
 62
     5
 63
     7
 74
     2
 91
        2
 64
     7
 65
   257
 75
     1
175
     1
 42
179.0
 92
        8
 66
     7
 43
1.0
 76
     1
 77
     6
 78
     2
 67
     7
 79
     3
170
     0
171
     0
290
     0
174
     0
 93
        1
 44
0.0
173
     0
291
     0
 45
0.0
1001
ACAD
1000
AcDbSavedByObjectVersion
1070
     0
  0
VISUALSTYLE
  5
90A
102
{ACAD_XDICTIONARY
360
12AF
102
}
102
{ACAD_REACTORS
330
8FF
102
}
330
8FF
100
AcDbVisualStyle
  2

 70
    11
 71
     2
 72
     2
 73
     0
 90
        0
 40
-0.6
 41
-30.0
 62
     5
 63
     7
 74
     1
 91
        4
 64
     7
 65
   257
 75
     1
175
     1
 42
1.0
 92
        8
 66
     7
 43
1.0
 76
     1
 77
     6
 78
     2
 67
     7
 79
     5
170
     0
171
     0
290
     0
174
     0
 93
        1
 44
-50.0
173
     0
291
     1
 45
0.0
1001
ACAD
1000
AcDbSavedByObjectVersion
1070
     0
  0
VISUALSTYLE
  5
917
102
{ACAD_XDICTIONARY
360
12C9
102
}
102
{ACAD_REACTORS
330
8FF
102
}
330
8FF
100
AcDbVisualStyle
  2

 70
    22
 71
     2
 72
     2
 73
     0
 90
        0
 40
-0.6
 41
-30.0
 62
     5
 63
     7
 74
     1
 91
        4
 64
     7
 65
   257
 75
     1
175
     1
 42
1.0
 92
        8
 66
     7
 43
1.0
 76
     1
 77
     6
 78
     2
 67
     7
 79
     5
170
     0
171
     0
290
     0
174
     0
 93
        1
 44
0.0
173
     0
291
     1
 45
0.0
1001
ACAD
1000
AcDbSavedByObjectVersion
1070
     0
  0
VISUALSTYLE
  5
90E
102
{ACAD_XDICTIONARY
360
12B7
102
}
102
{ACAD_REACTORS
330
8FF
102
}
330
8FF
100
AcDbVisualStyle
  2

 70
    15
 71
     2
 72
     2
 73
     0
 90
        0
 40
-0.6
 41
-30.0
 62
     5
 63
     7
 74
     1
 91
        4
 64
     7
 65
   257
 75
     1
175
     1
 42
1.0
 92
        8
 66
     7
 43
1.0
 76
     1
 77
     6
 78
     2
 67
     7
 79
     5
170
     0
171
     0
290
     0
174
     0
 93
        1
 44
0.0
173
     0
291
     1
 45
0.0
1001
ACAD
1000
AcDbSavedByObjectVersion
1070
     0
  0
VISUALSTYLE
  5
900
102
{ACAD_XDICTIONARY
360
129B
102
}
102
{ACAD_REACTORS
330
8FF
102
}
330
8FF
100
AcDbVisualStyle
  2

 70
     0
 71
     2
 72
     1
 73
     1
 90
        2
 40
-0.6
 41
30.0
 62
     5
 63
     7
 74
     0
 91
        0
 64
     7
 65
   257
 75
     1
175
     1
 42
1.0
 92
        8
 66
     7
 43
1.0
 76
     1
 77
     6
 78
     2
 67
     7
 79
     5
170
     0
171
     0
290
     0
174
     0
 93
       13
 44
0.0
173
     0
291
     1
 45
0.0
1001
ACAD
1000
AcDbSavedByObjectVersion
1070
     0
  0
VISUALSTYLE
  5
901
102
{ACAD_XDICTIONARY
360
129D
102
}
102
{ACAD_REACTORS
330
8FF
102
}
330
8FF
100
AcDbVisualStyle
  2

 70
     1
 71
     2
 72
     1
 73
     1
 90
        2
 40
-0.6
 41
30.0
 62
     5
 63
     7
 74
     1
 91
        0
 64
     7
 65
   257
 75
     1
175
     1
 42
1.0
 92
        0
 66
   257
 43
1.0
 76
     1
 77
     6
 78
     2
 67
     7
 79
     5
170
     0
171
     0
290
     0
174
     0
 93
       13
 44
0.0
173
     0
291
     1
 45
0.0
1001
ACAD
1000
AcDbSavedByObjectVersion
1070
     0
  0
VISUALSTYLE
  5
902
102
{ACAD_XDICTIONARY
360
129F
102
}
102
{ACAD_REACTORS
330
8FF
102
}
330
8FF
100
AcDbVisualStyle
  2

 70
     2
 71
     2
 72
     2
 73
     1
 90
        2
 40
-0.6
 41
30.0
 62
     5
 63
     7
 74
     0
 91
        0
 64
     7
 65
   257
 75
     1
175
     1
 42
1.0
 92
        0
 66
     7
 43
1.0
 76
     1
 77
     6
 78
     2
 67
     7
 79
     5
170
     0
171
     0
290
     0
174
     0
 93
       13
 44
0.0
173
     0
291
     1
 45
0.0
1001
ACAD
1000
AcDbSavedByObjectVersion
1070
     0
  0
VISUALSTYLE
  5
903
102
{ACAD_XDICTIONARY
360
12A1
102
}
102
{ACAD_REACTORS
330
8FF
102
}
330
8FF
100
AcDbVisualStyle
  2

 70
     3
 71
     2
 72
     2
 73
     1
 90
        2
 40
-0.6
 41
30.0
 62
     5
 63
     7
 74
     1
 91
        0
 64
     7
 65
   257
 75
     1
175
     1
 42
1.0
 92
        0
 66
   257
 43
1.0
 76
     1
 77
     6
 78
     2
 67
     7
 79
     5
170
     0
171
     0
290
     0
174
     0
 93
       13
 44
0.0
173
     0
291
     1
 45
0.0
1001
ACAD
1000
AcDbSavedByObjectVersion
1070
     0
  0
VISUALSTYLE
  5
907
102
{ACAD_XDICTIONARY
360
12A9
102
}
102
{ACAD_REACTORS
330
8FF
102
}
330
8FF
100
AcDbVisualStyle
  2

 70
     6
 71
     1
 72
     2
 73
     2
 90
        0
 40
-0.6
 41
-30.0
 62
     5
 63
     7
 74
     2
 91
        2
 64
     7
 65
   257
 75
     2
175
     1
 42
40.0
 92
        0
 66
   257
 43
1.0
 76
     1
 77
     6
 78
     2
 67
     7
 79
     3
170
     0
171
     0
290
     0
174
     0
 93
        1
 44
0.0
173
     0
291
     0
 45
0.0
1001
ACAD
1000
AcDbSavedByObjectVersion
1070
     0
  0
VISUALSTYLE
  5
915
102
{ACAD_XDICTIONARY
360
12C5
102
}
102
{ACAD_REACTORS
330
8FF
102
}
330
8FF
100
AcDbVisualStyle
  2

 70
    20
 71
     2
 72
     2
 73
     0
 90
        0
 40
-0.6
 41
-30.0
 62
     5
 63
     7
 74
     1
 91
        4
 64
     7
 65
   257
 75
     1
175
     1
 42
1.0
 92
       10
 66
     7
 43
1.0
 76
     1
 77
     6
 78
     2
 67
     7
 79
     5
170
     0
171
     0
290
     0
174
     0
 93
        1
 44
0.0
173
     0
291
     1
 45
0.0
1001
ACAD
1000
AcDbSavedByObjectVersion
1070
     0
  0
VISUALSTYLE
  5
90D
102
{ACAD_XDICTIONARY
360
12B5
102
}
102
{ACAD_REACTORS
330
8FF
102
}
330
8FF
100
AcDbVisualStyle
  2

 70
    14
 71
     2
 72
     2
 73
     0
 90
        0
 40
-0.6
 41
-30.0
 62
     5
 63
     7
 74
     1
 91
        4
 64
     7
 65
   257
 75
     7
175
     7
 42
1.0
 92
        8
 66
     7
 43
1.0
 76
     1
 77
     6
 78
     2
 67
     7
 79
     5
170
     0
171
     0
290
     0
174
     0
 93
        1
 44
0.0
173
     0
291
     1
 45
0.0
1001
ACAD
1000
AcDbSavedByObjectVersion
1070
     0
  0
VISUALSTYLE
  5
916
102
{ACAD_XDICTIONARY
360
12C7
102
}
102
{ACAD_REACTORS
330
8FF
102
}
330
8FF
100
AcDbVisualStyle
  2

 70
    21
 71
     2
 72
     2
 73
     0
 90
        0
 40
-0.6
 41
-30.0
 62
     5
 63
     7
 74
     1
 91
        4
 64
     7
 65
   257
 75
     1
175
     1
 42
1.0
 92
        9
 66
     7
 43
1.0
 76
     1
 77
     6
 78
     2
 67
     7
 79
     5
170
     0
171
     0
290
     0
174
     0
 93
        1
 44
0.0
173
     0
291
     1
 45
0.0
1001
ACAD
1000
AcDbSavedByObjectVersion
1070
     0
  0
VISUALSTYLE
  5
909
102
{ACAD_XDICTIONARY
360
12AD
102
}
102
{ACAD_REACTORS
330
8FF
102
}
330
8FF
100
AcDbVisualStyle
  2

 70
     8
 71
     2
 72
     3
 73
     0
 90
        2
 40
-0.6
 41
30.0
 62
     5
 63
     7
 74
     0
 91
        0
 64
     7
 65
   257
 75
     1
175
     1
 42
1.0
 92
        8
 66
   257
 43
1.0
 76
     1
 77
     6
 78
     2
 67
     7
 79
     3
170
     0
171
     0
290
     0
174
     0
 93
       13
 44
0.0
173
     0
291
     0
 45
0.0
1001
ACAD
1000
AcDbSavedByObjectVersion
1070
     0
  0
VISUALSTYLE
  5
914
102
{ACAD_XDICTIONARY
360
12C3
102
}
102
{ACAD_REACTORS
330
8FF
102
}
330
8FF
100
AcDbVisualStyle
  2

 70
    27
 71
     2
 72
     2
 73
     1
 90
        2
 40
-0.6
 41
30.0
 62
     5
 63
     7
 74
     0
 91
        4
 64
     7
 65
   257
 75
     1
175
     1
 42
1.0
 92
        8
 66
   257
 43
1.0
 76
     1
 77
     6
 78
     2
 67
     8
 79
     3
170
     0
171
     0
290
     0
174
     0
 93
        5
 44
0.0
173
     0
291
     0
 45
0.0
1001
ACAD
1000
AcDbSavedByObjectVersion
1070
     0
  0
VISUALSTYLE
  5
913
102
{ACAD_XDICTIONARY
360
12C1
102
}
102
{ACAD_REACTORS
330
8FF
102
}
330
8FF
100
AcDbVisualStyle
  2

 70
    26
 71
     2
 72
     2
 73
     1
 90
        2
 40
-0.6
 41
30.0
 62
     5
 63
     7
 74
     1
 91
        2
 64
     7
 65
   257
 75
     2
175
     1
 42
1.0
 92
        8
 66
   257
 43
1.0
 76
     1
 77
     6
 78
     2
 67
     7
 79
     3
170
     0
171
     0
290
     0
174
     0
 93
        5
 44
0.0
173
     0
291
     0
 45
0.0
1001
ACAD
1000
AcDbSavedByObjectVersion
1070
     0
  0
VISUALSTYLE
  5
910
102
{ACAD_XDICTIONARY
360
12BB
102
}
102
{ACAD_REACTORS
330
8FF
102
}
330
8FF
100
AcDbVisualStyle
  2

 70
    23
 71
     2
 72
     2
 73
     3
 90
        0
 40
-0.6
 41
-30.0
 62
     5
 63
     7
 74
     2
 91
        2
 64
     7
 65
     7
 75
     1
175
     1
 42
40.0
 92
        8
 66
     7
 43
1.0
 76
     1
 77
     6
 78
     2
 67
     7
 79
     3
170
     0
171
     0
290
     0
174
     0
 93
        1
 44
0.0
173
     0
291
     0
 45
0.0
1001
ACAD
1000
AcDbSavedByObjectVersion
1070
     0
  0
VISUALSTYLE
  5
911
102
{ACAD_XDICTIONARY
360
12BD
102
}
102
{ACAD_REACTORS
330
8FF
102
}
330
8FF
100
AcDbVisualStyle
  2

 70
    24
 71
     1
 72
     2
 73
     2
 90
        0
 40
-0.6
 41
-30.0
 62
     5
 63
     7
 74
     2
 91
        2
 64
     7
 65
     7
 75
     1
175
     1
 42
40.0
 92
       11
 66
     7
 43
1.0
 76
     1
 77
     6
 78
     2
 67
     7
 79
     6
170
     0
171
     0
290
     0
174
     0
 93
        1
 44
0.0
173
     0
291
     0
 45
0.0
1001
ACAD
1000
AcDbSavedByObjectVersion
1070
     0
  0
VISUALSTYLE
  5
90C
102
{ACAD_XDICTIONARY
360
12B3
102
}
102
{ACAD_REACTORS
330
8FF
102
}
330
8FF
100
AcDbVisualStyle
  2

 70
    13
 71
     2
 72
     2
 73
     0
 90
        0
 40
-0.6
 41
-30.0
 62
     5
 63
     7
 74
     1
 91
        4
 64
     7
 65
   257
 75
     1
175
     1
 42
1.0
 92
       12
 66
     7
 43
1.0
 76
     1
 77
     6
 78
     2
 67
     7
 79
     5
170
     0
171
     0
290
     0
174
     0
 93
        1
 44
0.0
173
     0
291
     1
 45
0.0
1001
ACAD
1000
AcDbSavedByObjectVersion
1070
     0
  0
VISUALSTYLE
  5
906
102
{ACAD_XDICTIONARY
360
12A7
102
}
102
{ACAD_REACTORS
330
8FF
102
}
330
8FF
100
AcDbVisualStyle
  2

 70
     5
 71
     0
 72
     2
 73
     0
 90
        0
 40
-0.6
 41
-30.0
 62
     5
 63
     7
 74
     1
 91
        4
 64
     7
 65
   257
 75
     1
175
     1
 42
1.0
 92
        0
 66
   257
 43
1.0
 76
     1
 77
     6
 78
     2
 67
     7
 79
     3
170
     0
171
     0
290
     0
174
     0
 93
        1
 44
0.0
173
     0
291
     0
 45
0.0
1001
ACAD
1000
AcDbSavedByObjectVersion
1070
     0
  0
VISUALSTYLE
  5
912
102
{ACAD_XDICTIONARY
360
12BF
102
}
102
{ACAD_REACTORS
330
8FF
102
}
330
8FF
100
AcDbVisualStyle
  2

 70
    25
 71
     2
 72
     2
 73
     1
 90
        1
 40
0.5
 41
-30.0
 62
     5
 63
     7
 74
     1
 91
        0
 64
     7
 65
   257
 75
     1
175
     1
 42
1.0
 92
        8
 66
     7
 43
1.0
 76
     1
 77
     6
 78
     2
 67
     7
 79
     3
170
     0
171
     0
290
     0
174
     0
 93
       13
 44
0.0
173
     0
291
     0
 45
0.0
1001
ACAD
1000
AcDbSavedByObjectVersion
1070
     0
  0
DICTIONARYVAR
  5
93B
102
{ACAD_REACTORS
330
22B
102
}
330
22B
100
DictionaryVariables
280
     0
  1
1:1
  0
DICTIONARYVAR
  5
938
102
{ACAD_REACTORS
330
22B
102
}
330
22B
100
DictionaryVariables
280
     0
  1
STANDARD
  0
DICTIONARYVAR
  5
937
102
{ACAD_REACTORS
330
22B
102
}
330
22B
100
DictionaryVariables
280
     0
  1
STANDARD
  0
DICTIONARYVAR
  5
939
102
{ACAD_REACTORS
330
22B
102
}
330
22B
100
DictionaryVariables
280
     0
  1
Metric50
  0
DICTIONARYVAR
  5
93A
102
{ACAD_REACTORS
330
22B
102
}
330
22B
100
DictionaryVariables
280
     0
  1
Metric50
  0
DICTIONARYVAR
  5
231
102
{ACAD_REACTORS
330
22B
102
}
330
22B
100
DictionaryVariables
280
     0
  1
2
  0
DICTIONARYVAR
  5
232
102
{ACAD_REACTORS
330
22B
102
}
330
22B
100
DictionaryVariables
280
     0
  1
1
  0
DICTIONARYVAR
  5
93D
102
{ACAD_REACTORS
330
22B
102
}
330
22B
100
DictionaryVariables
280
     0
  1
0
  0
DICTIONARYVAR
  5
93C
102
{ACAD_REACTORS
330
22B
102
}
330
22B
100
DictionaryVariables
280
     0
  1
127
  0
DICTIONARYVAR
  5
1291
102
{ACAD_REACTORS
330
22B
102
}
330
22B
100
DictionaryVariables
280
     0
  1
2
  0
DICTIONARY
  5
12D2
330
B6D
100
AcDbDictionary
280
     1
281
     1
  3
ACAD_XREC_ROUNDTRIP
360
12D3
  0
DICTIONARY
  5
12CE
330
91E
100
AcDbDictionary
280
     1
281
     1
  3
ACAD_XREC_ROUNDTRIP
360
12CF
  0
DICTIONARY
  5
1295
330
1E
100
AcDbDictionary
280
     1
281
     1
  3
ACAD_XREC_ROUNDTRIP
360
1296
  0
DICTIONARY
  5
1299
330
26
100
AcDbDictionary
280
     1
281
     1
  3
ACAD_XREC_ROUNDTRIP
360
129A
  0
DICTIONARY
  5
1297
330
22
100
AcDbDictionary
280
     1
281
     1
  3
ACAD_XREC_ROUNDTRIP
360
1298
  0
DICTIONARY
  5
8F0
330
8EF
100
AcDbDictionary
280
     1
281
     1
  3
ACAD_XREC_ROUNDTRIP
360
D4C
  3
BUMPTILE
360
8F2
  3
DIFFUSETILE
360
8F1
  3
OPACITYTILE
360
8F5
  3
REFLECTIONTILE
360
8F4
  3
REFRACTIONTILE
360
8F6
  3
SPECULARTILE
360
8F3
  0
DICTIONARY
  5
8E8
330
8E7
100
AcDbDictionary
280
     1
281
     1
  3
ACAD_XREC_ROUNDTRIP
360
D4B
  3
BUMPTILE
360
8EA
  3
DIFFUSETILE
360
8E9
  3
OPACITYTILE
360
8ED
  3
REFLECTIONTILE
360
8EC
  3
REFRACTIONTILE
360
8EE
  3
SPECULARTILE
360
8EB
  0
DICTIONARY
  5
8F8
330
8F7
100
AcDbDictionary
280
     1
281
     1
  3
ACAD_XREC_ROUNDTRIP
360
D4D
  3
BUMPTILE
360
8FA
  3
DIFFUSETILE
360
8F9
  3
OPACITYTILE
360
8FD
  3
REFLECTIONTILE
360
8FC
  3
REFRACTIONTILE
360
8FE
  3
SPECULARTILE
360
8FB
  0
DICTIONARY
  5
12D0
330
B6C
100
AcDbDictionary
280
     1
281
     1
  3
ACAD_XREC_ROUNDTRIP
360
12D1
  0
DICTIONARY
  5
12CC
330
91D
100
AcDbDictionary
280
     1
281
     1
  3
ACAD_XREC_ROUNDTRIP
360
12CD
  0
DICTIONARY
  5
D41
330
91A
100
AcDbDictionary
280
     1
281
     1
  3
ACAD_ROUNDTRIP_2008_TABLESTYLE_CELLSTYLEMAP
360
1292
  3
ACAD_XREC_ROUNDTRIP
360
12CB
  0
DICTIONARY
  5
12A5
330
905
100
AcDbDictionary
280
     1
281
     1
  3
ACAD_XREC_ROUNDTRIP
360
12A6
  0
DICTIONARY
  5
12A3
330
904
100
AcDbDictionary
280
     1
281
     1
  3
ACAD_XREC_ROUNDTRIP
360
12A4
  0
DICTIONARY
  5
12B1
330
90B
100
AcDbDictionary
280
     1
281
     1
  3
ACAD_XREC_ROUNDTRIP
360
12B2
  0
DICTIONARY
  5
12B9
330
90F
100
AcDbDictionary
280
     1
281
     1
  3
ACAD_XREC_ROUNDTRIP
360
12BA
  0
DICTIONARY
  5
12AB
330
908
100
AcDbDictionary
280
     1
281
     1
  3
ACAD_XREC_ROUNDTRIP
360
12AC
  0
DICTIONARY
  5
12AF
330
90A
100
AcDbDictionary
280
     1
281
     1
  3
ACAD_XREC_ROUNDTRIP
360
12B0
  0
DICTIONARY
  5
12C9
330
917
100
AcDbDictionary
280
     1
281
     1
  3
ACAD_XREC_ROUNDTRIP
360
12CA
  0
DICTIONARY
  5
12B7
330
90E
100
AcDbDictionary
280
     1
281
     1
  3
ACAD_XREC_ROUNDTRIP
360
12B8
  0
DICTIONARY
  5
129B
330
900
100
AcDbDictionary
280
     1
281
     1
  3
ACAD_XREC_ROUNDTRIP
360
129C
  0
DICTIONARY
  5
129D
330
901
100
AcDbDictionary
280
     1
281
     1
  3
ACAD_XREC_ROUNDTRIP
360
129E
  0
DICTIONARY
  5
129F
330
902
100
AcDbDictionary
280
     1
281
     1
  3
ACAD_XREC_ROUNDTRIP
360
12A0
  0
DICTIONARY
  5
12A1
330
903
100
AcDbDictionary
280
     1
281
     1
  3
ACAD_XREC_ROUNDTRIP
360
12A2
  0
DICTIONARY
  5
12A9
330
907
100
AcDbDictionary
280
     1
281
     1
  3
ACAD_XREC_ROUNDTRIP
360
12AA
  0
DICTIONARY
  5
12C5
330
915
100
AcDbDictionary
280
     1
281
     1
  3
ACAD_XREC_ROUNDTRIP
360
12C6
  0
DICTIONARY
  5
12B5
330
90D
100
AcDbDictionary
280
     1
281
     1
  3
ACAD_XREC_ROUNDTRIP
360
12B6
  0
DICTIONARY
  5
12C7
330
916
100
AcDbDictionary
280
     1
281
     1
  3
ACAD_XREC_ROUNDTRIP
360
12C8
  0
DICTIONARY
  5
12AD
330
909
100
AcDbDictionary
280
     1
281
     1
  3
ACAD_XREC_ROUNDTRIP
360
12AE
  0
DICTIONARY
  5
12C3
330
914
100
AcDbDictionary
280
     1
281
     1
  3
ACAD_XREC_ROUNDTRIP
360
12C4
  0
DICTIONARY
  5
12C1
330
913
100
AcDbDictionary
280
     1
281
     1
  3
ACAD_XREC_ROUNDTRIP
360
12C2
  0
DICTIONARY
  5
12BB
330
910
100
AcDbDictionary
280
     1
281
     1
  3
ACAD_XREC_ROUNDTRIP
360
12BC
  0
DICTIONARY
  5
12BD
330
911
100
AcDbDictionary
280
     1
281
     1
  3
ACAD_XREC_ROUNDTRIP
360
12BE
  0
DICTIONARY
  5
12B3
330
90C
100
AcDbDictionary
280
     1
281
     1
  3
ACAD_XREC_ROUNDTRIP
360
12B4
  0
DICTIONARY
  5
12A7
330
906
100
AcDbDictionary
280
     1
281
     1
  3
ACAD_XREC_ROUNDTRIP
360
12A8
  0
DICTIONARY
  5
12BF
330
912
100
AcDbDictionary
280
     1
281
     1
  3
ACAD_XREC_ROUNDTRIP
360
12C0
  0
XRECORD
  5
12D3
102
{ACAD_REACTORS
330
12D2
102
}
330
12D2
100
AcDbXrecord
280
     1
102
DISPLAYNAME
  1
Imperial24
102
FLAGS
 90
        0
  0
XRECORD
  5
12CF
102
{ACAD_REACTORS
330
12CE
102
}
330
12CE
100
AcDbXrecord
280
     1
102
DISPLAYNAME
  1
Metric50
102
FLAGS
 90
        0
  0
XRECORD
  5
1296
102
{ACAD_REACTORS
330
1295
102
}
330
1295
100
AcDbXrecord
280
     1
102
SHADEPLOT
 70
     0
102
SHADEPLOTRESLEVEL
 70
     2
102
SHADEPLOTCUSTOMDPI
 70
   300
  0
XRECORD
  5
129A
102
{ACAD_REACTORS
330
1299
102
}
330
1299
100
AcDbXrecord
280
     1
102
SHADEPLOT
 70
     0
102
SHADEPLOTRESLEVEL
 70
     2
102
SHADEPLOTCUSTOMDPI
 70
   300
  0
XRECORD
  5
1298
102
{ACAD_REACTORS
330
1297
102
}
330
1297
100
AcDbXrecord
280
     1
102
SHADEPLOT
 70
     0
102
SHADEPLOTRESLEVEL
 70
     2
102
SHADEPLOTCUSTOMDPI
 70
   300
  0
XRECORD
  5
D4C
102
{ACAD_REACTORS
330
8F0
102
}
330
8F0
100
AcDbXrecord
280
     1
102
MATERIAL
148
0.0
149
0.0
149
0.0
 93
        0
 94
      127
282
     0
 72
     0
 77
     0
171
     0
175
     0
179
     0
273
     0
  0
XRECORD
  5
8F2
102
{ACAD_REACTORS
330
8F0
102
}
330
8F0
100
AcDbXrecord
280
     1
270
     1
271
     1
  0
XRECORD
  5
8F1
102
{ACAD_REACTORS
330
8F0
102
}
330
8F0
100
AcDbXrecord
280
     1
270
     1
271
     1
  0
XRECORD
  5
8F5
102
{ACAD_REACTORS
330
8F0
102
}
330
8F0
100
AcDbXrecord
280
     1
270
     1
271
     1
  0
XRECORD
  5
8F4
102
{ACAD_REACTORS
330
8F0
102
}
330
8F0
100
AcDbXrecord
280
     1
270
     1
271
     1
  0
XRECORD
  5
8F6
102
{ACAD_REACTORS
330
8F0
102
}
330
8F0
100
AcDbXrecord
280
     1
270
     1
271
     1
  0
XRECORD
  5
8F3
102
{ACAD_REACTORS
330
8F0
102
}
330
8F0
100
AcDbXrecord
280
     1
270
     1
271
     1
  0
XRECORD
  5
D4B
102
{ACAD_REACTORS
330
8E8
102
}
330
8E8
100
AcDbXrecord
280
     1
102
MATERIAL
148
0.0
149
0.0
149
0.0
 93
        0
 94
      127
282
     0
 72
     0
 77
     0
171
     0
175
     0
179
     0
273
     0
  0
XRECORD
  5
8EA
102
{ACAD_REACTORS
330
8E8
102
}
330
8E8
100
AcDbXrecord
280
     1
270
     1
271
     1
  0
XRECORD
  5
8E9
102
{ACAD_REACTORS
330
8E8
102
}
330
8E8
100
AcDbXrecord
280
     1
270
     1
271
     1
  0
XRECORD
  5
8ED
102
{ACAD_REACTORS
330
8E8
102
}
330
8E8
100
AcDbXrecord
280
     1
270
     1
271
     1
  0
XRECORD
  5
8EC
102
{ACAD_REACTORS
330
8E8
102
}
330
8E8
100
AcDbXrecord
280
     1
270
     1
271
     1
  0
XRECORD
  5
8EE
102
{ACAD_REACTORS
330
8E8
102
}
330
8E8
100
AcDbXrecord
280
     1
270
     1
271
     1
  0
XRECORD
  5
8EB
102
{ACAD_REACTORS
330
8E8
102
}
330
8E8
100
AcDbXrecord
280
     1
270
     1
271
     1
  0
XRECORD
  5
D4D
102
{ACAD_REACTORS
330
8F8
102
}
330
8F8
100
AcDbXrecord
280
     1
102
MATERIAL
148
0.0
149
0.0
149
0.0
 93
        0
 94
      127
282
     0
 72
     0
 77
     0
171
     0
175
     0
179
     0
273
     0
  0
XRECORD
  5
8FA
102
{ACAD_REACTORS
330
8F8
102
}
330
8F8
100
AcDbXrecord
280
     1
270
     1
271
     1
  0
XRECORD
  5
8F9
102
{ACAD_REACTORS
330
8F8
102
}
330
8F8
100
AcDbXrecord
280
     1
270
     1
271
     1
  0
XRECORD
  5
8FD
102
{ACAD_REACTORS
330
8F8
102
}
330
8F8
100
AcDbXrecord
280
     1
270
     1
271
     1
  0
XRECORD
  5
8FC
102
{ACAD_REACTORS
330
8F8
102
}
330
8F8
100
AcDbXrecord
280
     1
270
     1
271
     1
  0
XRECORD
  5
8FE
102
{ACAD_REACTORS
330
8F8
102
}
330
8F8
100
AcDbXrecord
280
     1
270
     1
271
     1
  0
XRECORD
  5
8FB
102
{ACAD_REACTORS
330
8F8
102
}
330
8F8
100
AcDbXrecord
280
     1
270
     1
271
     1
  0
XRECORD
  5
12D1
102
{ACAD_REACTORS
330
12D0
102
}
330
12D0
100
AcDbXrecord
280
     1
102
DISPLAYNAME
  1
Imperial24
102
FLAGS
 90
        0
  0
XRECORD
  5
12CD
102
{ACAD_REACTORS
330
12CC
102
}
330
12CC
100
AcDbXrecord
280
     1
102
DISPLAYNAME
  1
Metric50
102
FLAGS
 90
        0
  0
CELLSTYLEMAP
  5
1292
102
{ACAD_REACTORS
330
D41
102
}
330
D41
100
AcDbCellStyleMap
 90
        3
300
CELLSTYLE
  1
TABLEFORMAT_BEGIN
 90
        5
170
     1
 91
        0
 92
    32768
 62
   257
 93
        1
300
CONTENTFORMAT
  1
CONTENTFORMAT_BEGIN
 90
        0
 91
        0
 92
      512
 93
        0
300

 40
0.0
140
1.0
 94
        5
 62
     0
340
11
144
6.0
309
CONTENTFORMAT_END
171
     1
301
MARGIN
  1
CELLMARGIN_BEGIN
 40
1.5
 40
1.5
 40
1.5
 40
1.5
 40
0.18
 40
0.18
309
CELLMARGIN_END
 94
        6
 95
        1
302
GRIDFORMAT
  1
GRIDFORMAT_BEGIN
 90
        0
 91
        1
 62
     0
 92
       -2
340
0
 93
        0
 40
1.125
309
GRIDFORMAT_END
 95
        2
302
GRIDFORMAT
  1
GRIDFORMAT_BEGIN
 90
        0
 91
        1
 62
     0
 92
       -2
340
0
 93
        0
 40
1.125
309
GRIDFORMAT_END
 95
        4
302
GRIDFORMAT
  1
GRIDFORMAT_BEGIN
 90
        0
 91
        1
 62
     0
 92
       -2
340
0
 93
        0
 40
1.125
309
GRIDFORMAT_END
 95
        8
302
GRIDFORMAT
  1
GRIDFORMAT_BEGIN
 90
        0
 91
        1
 62
     0
 92
       -2
340
0
 93
        0
 40
1.125
309
GRIDFORMAT_END
 95
       16
302
GRIDFORMAT
  1
GRIDFORMAT_BEGIN
 90
        0
 91
        1
 62
     0
 92
       -2
340
0
 93
        0
 40
1.125
309
GRIDFORMAT_END
 95
       32
302
GRIDFORMAT
  1
GRIDFORMAT_BEGIN
 90
        0
 91
        1
 62
     0
 92
       -2
340
0
 93
        0
 40
1.125
309
GRIDFORMAT_END
309
TABLEFORMAT_END
  1
CELLSTYLE_BEGIN
 90
        1
 91
        1
300
_TITLE
309
CELLSTYLE_END
300
CELLSTYLE
  1
TABLEFORMAT_BEGIN
 90
        5
170
     1
 91
        0
 92
        0
 62
   257
 93
        1
300
CONTENTFORMAT
  1
CONTENTFORMAT_BEGIN
 90
        0
 91
        0
 92
      512
 93
        0
300

 40
0.0
140
1.0
 94
        5
 62
     0
340
11
144
4.5
309
CONTENTFORMAT_END
171
     1
301
MARGIN
  1
CELLMARGIN_BEGIN
 40
1.5
 40
1.5
 40
1.5
 40
1.5
 40
0.18
 40
0.18
309
CELLMARGIN_END
 94
        6
 95
        1
302
GRIDFORMAT
  1
GRIDFORMAT_BEGIN
 90
        0
 91
        1
 62
     0
 92
       -2
340
0
 93
        0
 40
1.125
309
GRIDFORMAT_END
 95
        2
302
GRIDFORMAT
  1
GRIDFORMAT_BEGIN
 90
        0
 91
        1
 62
     0
 92
       -2
340
0
 93
        0
 40
1.125
309
GRIDFORMAT_END
 95
        4
302
GRIDFORMAT
  1
GRIDFORMAT_BEGIN
 90
        0
 91
        1
 62
     0
 92
       -2
340
0
 93
        0
 40
1.125
309
GRIDFORMAT_END
 95
        8
302
GRIDFORMAT
  1
GRIDFORMAT_BEGIN
 90
        0
 91
        1
 62
     0
 92
       -2
340
0
 93
        0
 40
1.125
309
GRIDFORMAT_END
 95
       16
302
GRIDFORMAT
  1
GRIDFORMAT_BEGIN
 90
        0
 91
        1
 62
     0
 92
       -2
340
0
 93
        0
 40
1.125
309
GRIDFORMAT_END
 95
       32
302
GRIDFORMAT
  1
GRIDFORMAT_BEGIN
 90
        0
 91
        1
 62
     0
 92
       -2
340
0
 93
        0
 40
1.125
309
GRIDFORMAT_END
309
TABLEFORMAT_END
  1
CELLSTYLE_BEGIN
 90
        2
 91
        1
300
_HEADER
309
CELLSTYLE_END
300
CELLSTYLE
  1
TABLEFORMAT_BEGIN
 90
        5
170
     1
 91
        0
 92
        0
 62
   257
 93
        1
300
CONTENTFORMAT
  1
CONTENTFORMAT_BEGIN
 90
        0
 91
        0
 92
      512
 93
        0
300

 40
0.0
140
1.0
 94
        2
 62
     0
340
11
144
4.5
309
CONTENTFORMAT_END
171
     1
301
MARGIN
  1
CELLMARGIN_BEGIN
 40
1.5
 40
1.5
 40
1.5
 40
1.5
 40
0.18
 40
0.18
309
CELLMARGIN_END
 94
        6
 95
        1
302
GRIDFORMAT
  1
GRIDFORMAT_BEGIN
 90
        0
 91
        1
 62
     0
 92
       -2
340
0
 93
        0
 40
1.125
309
GRIDFORMAT_END
 95
        2
302
GRIDFORMAT
  1
GRIDFORMAT_BEGIN
 90
        0
 91
        1
 62
     0
 92
       -2
340
0
 93
        0
 40
1.125
309
GRIDFORMAT_END
 95
        4
302
GRIDFORMAT
  1
GRIDFORMAT_BEGIN
 90
        0
 91
        1
 62
     0
 92
       -2
340
0
 93
        0
 40
1.125
309
GRIDFORMAT_END
 95
        8
302
GRIDFORMAT
  1
GRIDFORMAT_BEGIN
 90
        0
 91
        1
 62
     0
 92
       -2
340
0
 93
        0
 40
1.125
309
GRIDFORMAT_END
 95
       16
302
GRIDFORMAT
  1
GRIDFORMAT_BEGIN
 90
        0
 91
        1
 62
     0
 92
       -2
340
0
 93
        0
 40
1.125
309
GRIDFORMAT_END
 95
       32
302
GRIDFORMAT
  1
GRIDFORMAT_BEGIN
 90
        0
 91
        1
 62
     0
 92
       -2
340
0
 93
        0
 40
1.125
309
GRIDFORMAT_END
309
TABLEFORMAT_END
  1
CELLSTYLE_BEGIN
 90
        3
 91
        2
300
_DATA
309
CELLSTYLE_END
  0
XRECORD
  5
12CB
102
{ACAD_REACTORS
330
D41
102
}
330
D41
100
AcDbXrecord
280
     1
102
ACAD_ROUNDTRIP_PRE2007_TABLESTYLE
 90
      512
 91
        0
  1

 92
      512
 93
        0
  2

 94
      512
 95
        0
  3

  0
XRECORD
  5
12A6
102
{ACAD_REACTORS
330
12A5
102
}
330
12A5
100
AcDbXrecord
280
     1
102
RTVSPost2010Prop28
280
     1
102
RTVSPost2010PropOp28
 70
     1
102
RTVSPost2010Prop29
280
     1
102
RTVSPost2010PropOp29
 70
     1
102
RTVSPost2010Prop30
280
     0
102
RTVSPost2010PropOp30
 70
     1
102
RTVSPost2010Prop31
280
     0
102
RTVSPost2010PropOp31
 70
     1
102
RTVSPost2010Prop32
280
     0
102
RTVSPost2010PropOp32
 70
     1
102
RTVSPost2010Prop33
280
     0
102
RTVSPost2010PropOp33
 70
     1
102
RTVSPost2010Prop34
280
     0
102
RTVSPost2010PropOp34
 70
     1
102
RTVSPost2010Prop35
280
     0
102
RTVSPost2010PropOp35
 70
     1
102
RTVSPost2010Prop36
280
     0
102
RTVSPost2010PropOp36
 70
     1
102
RTVSPost2010Prop37
 90
       50
102
RTVSPost2010PropOp37
 70
     1
102
RTVSPost2010Prop38
140
0.0
102
RTVSPost2010PropOp38
 70
     1
102
RTVSPost2010Prop39
140
1.0
102
RTVSPost2010PropOp39
 70
     1
102
RTVSPost2010Prop40
 90
        0
102
RTVSPost2010PropOp40
 70
     1
102
RTVSPost2010Prop41ColorIndex
 90
       18
102
RTVSPost2010Prop41ColorRGB
 90
        0
102
RTVSPost2010PropOp41
 70
     1
102
RTVSPost2010Prop42
 90
       50
102
RTVSPost2010PropOp42
 70
     1
102
RTVSPost2010Prop43
 90
        3
102
RTVSPost2010PropOp43
 70
     1
102
RTVSPost2010Prop44ColorIndex
 90
        5
102
RTVSPost2010Prop44ColorRGB
 90
      255
102
RTVSPost2010PropOp44
 70
     1
102
RTVSPost2010Prop45
280
     0
102
RTVSPost2010PropOp45
 70
     1
102
RTVSPost2010Prop46
 90
       50
102
RTVSPost2010PropOp46
 70
     1
102
RTVSPost2010Prop47
 90
       50
102
RTVSPost2010PropOp47
 70
     1
102
RTVSPost2010Prop48
 90
       50
102
RTVSPost2010PropOp48
 70
     1
102
RTVSPost2010Prop49
280
     0
102
RTVSPost2010PropOp49
 70
     1
102
RTVSPost2010Prop50
 90
       50
102
RTVSPost2010PropOp50
 70
     1
102
RTVSPost2010Prop51ColorIndex
 90
      256
102
RTVSPost2010Prop51ColorRGB
 90
-16777216
102
RTVSPost2010PropOp51
 70
     0
102
RTVSPost2010Prop52
140
1.0
102
RTVSPost2010PropOp52
 70
     0
102
RTVSPost2010Prop53
 90
        2
102
RTVSPost2010PropOp53
 70
     1
102
RTVSPost2010Prop54
  1
strokes_ogs.tif
102
RTVSPost2010PropOp54
 70
     1
102
RTVSPost2010Prop55
280
     0
102
RTVSPost2010PropOp55
 70
     1
102
RTVSPost2010Prop56
140
1.0
102
RTVSPost2010PropOp56
 70
     1
102
RTVSPost2010Prop57
140
1.0
102
RTVSPost2010PropOp57
 70
     1
102
RTVSPropertyOp0
 70
     1
102
RTVSPropertyOp1
 70
     1
102
RTVSPropertyOp2
 70
     1
102
RTVSPropertyOp3
 70
     1
102
RTVSPropertyOp4
 70
     1
102
RTVSPropertyOp5
 70
     1
102
RTVSPropertyOp6
 70
     1
102
RTVSPropertyOp7
 70
     1
102
RTVSPropertyOp8
 70
     1
102
RTVSPropertyOp9
 70
     1
102
RTVSPropertyOp10
 70
     1
102
RTVSPropertyOp11
 70
     1
102
RTVSPropertyOp12
 70
     1
102
RTVSPropertyOp13
 70
     1
102
RTVSPropertyOp14
 70
     1
102
RTVSPropertyOp15
 70
     1
102
RTVSPropertyOp16
 70
     1
102
RTVSPropertyOp17
 70
     1
102
RTVSPropertyOp18
 70
     1
102
RTVSPropertyOp19
 70
     1
102
RTVSPropertyOp20
 70
     1
102
RTVSPropertyOp21
 70
     1
102
RTVSPropertyOp22
 70
     1
102
RTVSPropertyOp23
 70
     1
102
RTVSPropertyOp24
 70
     1
102
RTVSPropertyOp25
 70
     1
102
RTVSPropertyOp26
 70
     1
102
RTVSPropertyOp27
 70
     1
102
RTVSPropertyOp28
 70
     1
102
RTVSPropertyOp29
 70
     1
102
RTVSPropertyOp30
 70
     1
102
RTVSPropertyOp31
 70
     1
102
RTVSPropertyOp32
 70
     1
102
RTVSPropertyOp33
 70
     1
102
RTVSPropertyOp34
 70
     1
102
RTVSPropertyOp35
 70
     1
102
RTVSPropertyOp36
 70
     1
102
RTVSPropertyOp37
 70
     1
102
RTVSPropertyOp38
 70
     1
102
RTVSPropertyOp39
 70
     1
102
RTVSPropertyOp40
 70
     1
102
RTVSPropertyOp41
 70
     1
102
RTVSPropertyOp42
 70
     1
102
RTVSPropertyOp43
 70
     1
102
RTVSPropertyOp44
 70
     1
102
RTVSPropertyOp45
 70
     1
102
RTVSPropertyOp46
 70
     1
102
RTVSPropertyOp47
 70
     1
102
RTVSPropertyOp48
 70
     1
102
RTVSPropertyOp49
 70
     1
102
RTVSPropertyOp50
 70
     1
102
RTVSPropertyOp51
 70
     0
102
RTVSPropertyOp52
 70
     0
102
RTVSPropertyOp53
 70
     1
102
RTVSPropertyOp54
 70
     1
102
RTVSPropertyOp55
 70
     1
102
RTVSPropertyOp56
 70
     1
102
RTVSPropertyOp57
 70
     1
102
RTVSPropertyOp58
 70
     1
102
RTVSPropertyOp59
 70
     1
102
RTVSPropertyOp60
 70
     1
102
RTVSPropertyOp61
 70
     1
102
RTVSPropertyOp62
 70
     1
  0
XRECORD
  5
12A4
102
{ACAD_REACTORS
330
12A3
102
}
330
12A3
100
AcDbXrecord
280
     1
102
RTVSPost2010Prop28
280
     0
102
RTVSPost2010PropOp28
 70
     1
102
RTVSPost2010Prop29
280
     1
102
RTVSPost2010PropOp29
 70
     1
102
RTVSPost2010Prop30
280
     1
102
RTVSPost2010PropOp30
 70
     1
102
RTVSPost2010Prop31
280
     0
102
RTVSPost2010PropOp31
 70
     1
102
RTVSPost2010Prop32
280
     0
102
RTVSPost2010PropOp32
 70
     1
102
RTVSPost2010Prop33
280
     0
102
RTVSPost2010PropOp33
 70
     1
102
RTVSPost2010Prop34
280
     0
102
RTVSPost2010PropOp34
 70
     1
102
RTVSPost2010Prop35
280
     0
102
RTVSPost2010PropOp35
 70
     1
102
RTVSPost2010Prop36
280
     0
102
RTVSPost2010PropOp36
 70
     1
102
RTVSPost2010Prop37
 90
       50
102
RTVSPost2010PropOp37
 70
     1
102
RTVSPost2010Prop38
140
0.0
102
RTVSPost2010PropOp38
 70
     1
102
RTVSPost2010Prop39
140
1.0
102
RTVSPost2010PropOp39
 70
     1
102
RTVSPost2010Prop40
 90
        0
102
RTVSPost2010PropOp40
 70
     1
102
RTVSPost2010Prop41ColorIndex
 90
       18
102
RTVSPost2010Prop41ColorRGB
 90
        0
102
RTVSPost2010PropOp41
 70
     1
102
RTVSPost2010Prop42
 90
       50
102
RTVSPost2010PropOp42
 70
     1
102
RTVSPost2010Prop43
 90
        3
102
RTVSPost2010PropOp43
 70
     1
102
RTVSPost2010Prop44ColorIndex
 90
        5
102
RTVSPost2010Prop44ColorRGB
 90
      255
102
RTVSPost2010PropOp44
 70
     1
102
RTVSPost2010Prop45
280
     0
102
RTVSPost2010PropOp45
 70
     1
102
RTVSPost2010Prop46
 90
       50
102
RTVSPost2010PropOp46
 70
     1
102
RTVSPost2010Prop47
 90
       50
102
RTVSPost2010PropOp47
 70
     1
102
RTVSPost2010Prop48
 90
       50
102
RTVSPost2010PropOp48
 70
     1
102
RTVSPost2010Prop49
280
     0
102
RTVSPost2010PropOp49
 70
     1
102
RTVSPost2010Prop50
 90
       50
102
RTVSPost2010PropOp50
 70
     1
102
RTVSPost2010Prop51ColorIndex
 90
      256
102
RTVSPost2010Prop51ColorRGB
 90
-16777216
102
RTVSPost2010PropOp51
 70
     0
102
RTVSPost2010Prop52
140
1.0
102
RTVSPost2010PropOp52
 70
     0
102
RTVSPost2010Prop53
 90
        2
102
RTVSPost2010PropOp53
 70
     1
102
RTVSPost2010Prop54
  1
strokes_ogs.tif
102
RTVSPost2010PropOp54
 70
     1
102
RTVSPost2010Prop55
280
     0
102
RTVSPost2010PropOp55
 70
     1
102
RTVSPost2010Prop56
140
1.0
102
RTVSPost2010PropOp56
 70
     1
102
RTVSPost2010Prop57
140
1.0
102
RTVSPost2010PropOp57
 70
     1
102
RTVSPropertyOp0
 70
     1
102
RTVSPropertyOp1
 70
     1
102
RTVSPropertyOp2
 70
     1
102
RTVSPropertyOp3
 70
     1
102
RTVSPropertyOp4
 70
     1
102
RTVSPropertyOp5
 70
     1
102
RTVSPropertyOp6
 70
     1
102
RTVSPropertyOp7
 70
     1
102
RTVSPropertyOp8
 70
     1
102
RTVSPropertyOp9
 70
     1
102
RTVSPropertyOp10
 70
     1
102
RTVSPropertyOp11
 70
     1
102
RTVSPropertyOp12
 70
     1
102
RTVSPropertyOp13
 70
     1
102
RTVSPropertyOp14
 70
     1
102
RTVSPropertyOp15
 70
     1
102
RTVSPropertyOp16
 70
     1
102
RTVSPropertyOp17
 70
     1
102
RTVSPropertyOp18
 70
     1
102
RTVSPropertyOp19
 70
     1
102
RTVSPropertyOp20
 70
     1
102
RTVSPropertyOp21
 70
     1
102
RTVSPropertyOp22
 70
     1
102
RTVSPropertyOp23
 70
     1
102
RTVSPropertyOp24
 70
     1
102
RTVSPropertyOp25
 70
     1
102
RTVSPropertyOp26
 70
     1
102
RTVSPropertyOp27
 70
     1
102
RTVSPropertyOp28
 70
     1
102
RTVSPropertyOp29
 70
     1
102
RTVSPropertyOp30
 70
     1
102
RTVSPropertyOp31
 70
     1
102
RTVSPropertyOp32
 70
     1
102
RTVSPropertyOp33
 70
     1
102
RTVSPropertyOp34
 70
     1
102
RTVSPropertyOp35
 70
     1
102
RTVSPropertyOp36
 70
     1
102
RTVSPropertyOp37
 70
     1
102
RTVSPropertyOp38
 70
     1
102
RTVSPropertyOp39
 70
     1
102
RTVSPropertyOp40
 70
     1
102
RTVSPropertyOp41
 70
     1
102
RTVSPropertyOp42
 70
     1
102
RTVSPropertyOp43
 70
     1
102
RTVSPropertyOp44
 70
     1
102
RTVSPropertyOp45
 70
     1
102
RTVSPropertyOp46
 70
     1
102
RTVSPropertyOp47
 70
     1
102
RTVSPropertyOp48
 70
     1
102
RTVSPropertyOp49
 70
     1
102
RTVSPropertyOp50
 70
     1
102
RTVSPropertyOp51
 70
     0
102
RTVSPropertyOp52
 70
     0
102
RTVSPropertyOp53
 70
     1
102
RTVSPropertyOp54
 70
     1
102
RTVSPropertyOp55
 70
     1
102
RTVSPropertyOp56
 70
     1
102
RTVSPropertyOp57
 70
     1
102
RTVSPropertyOp58
 70
     1
102
RTVSPropertyOp59
 70
     1
102
RTVSPropertyOp60
 70
     1
102
RTVSPropertyOp61
 70
     1
102
RTVSPropertyOp62
 70
     1
  0
XRECORD
  5
12B2
102
{ACAD_REACTORS
330
12B1
102
}
330
12B1
100
AcDbXrecord
280
     1
102
RTVSPost2010Prop28
280
     0
102
RTVSPost2010PropOp28
 70
     1
102
RTVSPost2010Prop29
280
     1
102
RTVSPost2010PropOp29
 70
     1
102
RTVSPost2010Prop30
280
     1
102
RTVSPost2010PropOp30
 70
     1
102
RTVSPost2010Prop31
280
     0
102
RTVSPost2010PropOp31
 70
     1
102
RTVSPost2010Prop32
280
     0
102
RTVSPost2010PropOp32
 70
     1
102
RTVSPost2010Prop33
280
     0
102
RTVSPost2010PropOp33
 70
     1
102
RTVSPost2010Prop34
280
     0
102
RTVSPost2010PropOp34
 70
     1
102
RTVSPost2010Prop35
280
     0
102
RTVSPost2010PropOp35
 70
     1
102
RTVSPost2010Prop36
280
     0
102
RTVSPost2010PropOp36
 70
     1
102
RTVSPost2010Prop37
 90
       50
102
RTVSPost2010PropOp37
 70
     1
102
RTVSPost2010Prop38
140
0.0
102
RTVSPost2010PropOp38
 70
     1
102
RTVSPost2010Prop39
140
1.0
102
RTVSPost2010PropOp39
 70
     1
102
RTVSPost2010Prop40
 90
        0
102
RTVSPost2010PropOp40
 70
     1
102
RTVSPost2010Prop41ColorIndex
 90
       18
102
RTVSPost2010Prop41ColorRGB
 90
        0
102
RTVSPost2010PropOp41
 70
     1
102
RTVSPost2010Prop42
 90
       50
102
RTVSPost2010PropOp42
 70
     1
102
RTVSPost2010Prop43
 90
        3
102
RTVSPost2010PropOp43
 70
     1
102
RTVSPost2010Prop44ColorIndex
 90
        5
102
RTVSPost2010Prop44ColorRGB
 90
      255
102
RTVSPost2010PropOp44
 70
     1
102
RTVSPost2010Prop45
280
     0
102
RTVSPost2010PropOp45
 70
     1
102
RTVSPost2010Prop46
 90
       50
102
RTVSPost2010PropOp46
 70
     1
102
RTVSPost2010Prop47
 90
       50
102
RTVSPost2010PropOp47
 70
     1
102
RTVSPost2010Prop48
 90
       50
102
RTVSPost2010PropOp48
 70
     1
102
RTVSPost2010Prop49
280
     0
102
RTVSPost2010PropOp49
 70
     1
102
RTVSPost2010Prop50
 90
       50
102
RTVSPost2010PropOp50
 70
     1
102
RTVSPost2010Prop51ColorIndex
 90
      256
102
RTVSPost2010Prop51ColorRGB
 90
-16777216
102
RTVSPost2010PropOp51
 70
     0
102
RTVSPost2010Prop52
140
1.0
102
RTVSPost2010PropOp52
 70
     0
102
RTVSPost2010Prop53
 90
        2
102
RTVSPost2010PropOp53
 70
     1
102
RTVSPost2010Prop54
  1
strokes_ogs.tif
102
RTVSPost2010PropOp54
 70
     1
102
RTVSPost2010Prop55
280
     0
102
RTVSPost2010PropOp55
 70
     1
102
RTVSPost2010Prop56
140
1.0
102
RTVSPost2010PropOp56
 70
     1
102
RTVSPost2010Prop57
140
1.0
102
RTVSPost2010PropOp57
 70
     1
102
RTVSPropertyOp0
 70
     1
102
RTVSPropertyOp1
 70
     1
102
RTVSPropertyOp2
 70
     1
102
RTVSPropertyOp3
 70
     1
102
RTVSPropertyOp4
 70
     1
102
RTVSPropertyOp5
 70
     1
102
RTVSPropertyOp6
 70
     1
102
RTVSPropertyOp7
 70
     1
102
RTVSPropertyOp8
 70
     1
102
RTVSPropertyOp9
 70
     1
102
RTVSPropertyOp10
 70
     1
102
RTVSPropertyOp11
 70
     1
102
RTVSPropertyOp12
 70
     1
102
RTVSPropertyOp13
 70
     1
102
RTVSPropertyOp14
 70
     1
102
RTVSPropertyOp15
 70
     1
102
RTVSPropertyOp16
 70
     1
102
RTVSPropertyOp17
 70
     1
102
RTVSPropertyOp18
 70
     1
102
RTVSPropertyOp19
 70
     1
102
RTVSPropertyOp20
 70
     1
102
RTVSPropertyOp21
 70
     1
102
RTVSPropertyOp22
 70
     1
102
RTVSPropertyOp23
 70
     1
102
RTVSPropertyOp24
 70
     1
102
RTVSPropertyOp25
 70
     1
102
RTVSPropertyOp26
 70
     1
102
RTVSPropertyOp27
 70
     1
102
RTVSPropertyOp28
 70
     1
102
RTVSPropertyOp29
 70
     1
102
RTVSPropertyOp30
 70
     1
102
RTVSPropertyOp31
 70
     1
102
RTVSPropertyOp32
 70
     1
102
RTVSPropertyOp33
 70
     1
102
RTVSPropertyOp34
 70
     1
102
RTVSPropertyOp35
 70
     1
102
RTVSPropertyOp36
 70
     1
102
RTVSPropertyOp37
 70
     1
102
RTVSPropertyOp38
 70
     1
102
RTVSPropertyOp39
 70
     1
102
RTVSPropertyOp40
 70
     1
102
RTVSPropertyOp41
 70
     1
102
RTVSPropertyOp42
 70
     1
102
RTVSPropertyOp43
 70
     1
102
RTVSPropertyOp44
 70
     1
102
RTVSPropertyOp45
 70
     1
102
RTVSPropertyOp46
 70
     1
102
RTVSPropertyOp47
 70
     1
102
RTVSPropertyOp48
 70
     1
102
RTVSPropertyOp49
 70
     1
102
RTVSPropertyOp50
 70
     1
102
RTVSPropertyOp51
 70
     0
102
RTVSPropertyOp52
 70
     0
102
RTVSPropertyOp53
 70
     1
102
RTVSPropertyOp54
 70
     1
102
RTVSPropertyOp55
 70
     1
102
RTVSPropertyOp56
 70
     1
102
RTVSPropertyOp57
 70
     1
102
RTVSPropertyOp58
 70
     1
102
RTVSPropertyOp59
 70
     1
102
RTVSPropertyOp60
 70
     1
102
RTVSPropertyOp61
 70
     1
102
RTVSPropertyOp62
 70
     1
  0
XRECORD
  5
12BA
102
{ACAD_REACTORS
330
12B9
102
}
330
12B9
100
AcDbXrecord
280
     1
102
RTVSPost2010Prop28
280
     0
102
RTVSPost2010PropOp28
 70
     1
102
RTVSPost2010Prop29
280
     1
102
RTVSPost2010PropOp29
 70
     1
102
RTVSPost2010Prop30
280
     1
102
RTVSPost2010PropOp30
 70
     1
102
RTVSPost2010Prop31
280
     0
102
RTVSPost2010PropOp31
 70
     1
102
RTVSPost2010Prop32
280
     0
102
RTVSPost2010PropOp32
 70
     1
102
RTVSPost2010Prop33
280
     0
102
RTVSPost2010PropOp33
 70
     1
102
RTVSPost2010Prop34
280
     0
102
RTVSPost2010PropOp34
 70
     1
102
RTVSPost2010Prop35
280
     0
102
RTVSPost2010PropOp35
 70
     1
102
RTVSPost2010Prop36
280
     0
102
RTVSPost2010PropOp36
 70
     1
102
RTVSPost2010Prop37
 90
       50
102
RTVSPost2010PropOp37
 70
     1
102
RTVSPost2010Prop38
140
0.0
102
RTVSPost2010PropOp38
 70
     1
102
RTVSPost2010Prop39
140
1.0
102
RTVSPost2010PropOp39
 70
     1
102
RTVSPost2010Prop40
 90
        0
102
RTVSPost2010PropOp40
 70
     1
102
RTVSPost2010Prop41ColorIndex
 90
       18
102
RTVSPost2010Prop41ColorRGB
 90
        0
102
RTVSPost2010PropOp41
 70
     1
102
RTVSPost2010Prop42
 90
       50
102
RTVSPost2010PropOp42
 70
     1
102
RTVSPost2010Prop43
 90
        3
102
RTVSPost2010PropOp43
 70
     1
102
RTVSPost2010Prop44ColorIndex
 90
        5
102
RTVSPost2010Prop44ColorRGB
 90
      255
102
RTVSPost2010PropOp44
 70
     1
102
RTVSPost2010Prop45
280
     0
102
RTVSPost2010PropOp45
 70
     1
102
RTVSPost2010Prop46
 90
       50
102
RTVSPost2010PropOp46
 70
     1
102
RTVSPost2010Prop47
 90
       50
102
RTVSPost2010PropOp47
 70
     1
102
RTVSPost2010Prop48
 90
       50
102
RTVSPost2010PropOp48
 70
     1
102
RTVSPost2010Prop49
280
     0
102
RTVSPost2010PropOp49
 70
     1
102
RTVSPost2010Prop50
 90
       50
102
RTVSPost2010PropOp50
 70
     1
102
RTVSPost2010Prop51ColorIndex
 90
      256
102
RTVSPost2010Prop51ColorRGB
 90
-16777216
102
RTVSPost2010PropOp51
 70
     0
102
RTVSPost2010Prop52
140
1.0
102
RTVSPost2010PropOp52
 70
     0
102
RTVSPost2010Prop53
 90
        2
102
RTVSPost2010PropOp53
 70
     1
102
RTVSPost2010Prop54
  1
strokes_ogs.tif
102
RTVSPost2010PropOp54
 70
     1
102
RTVSPost2010Prop55
280
     0
102
RTVSPost2010PropOp55
 70
     1
102
RTVSPost2010Prop56
140
1.0
102
RTVSPost2010PropOp56
 70
     1
102
RTVSPost2010Prop57
140
1.0
102
RTVSPost2010PropOp57
 70
     1
102
RTVSPropertyOp0
 70
     1
102
RTVSPropertyOp1
 70
     1
102
RTVSPropertyOp2
 70
     1
102
RTVSPropertyOp3
 70
     1
102
RTVSPropertyOp4
 70
     1
102
RTVSPropertyOp5
 70
     1
102
RTVSPropertyOp6
 70
     1
102
RTVSPropertyOp7
 70
     1
102
RTVSPropertyOp8
 70
     1
102
RTVSPropertyOp9
 70
     1
102
RTVSPropertyOp10
 70
     1
102
RTVSPropertyOp11
 70
     1
102
RTVSPropertyOp12
 70
     1
102
RTVSPropertyOp13
 70
     1
102
RTVSPropertyOp14
 70
     1
102
RTVSPropertyOp15
 70
     1
102
RTVSPropertyOp16
 70
     1
102
RTVSPropertyOp17
 70
     1
102
RTVSPropertyOp18
 70
     1
102
RTVSPropertyOp19
 70
     1
102
RTVSPropertyOp20
 70
     1
102
RTVSPropertyOp21
 70
     1
102
RTVSPropertyOp22
 70
     1
102
RTVSPropertyOp23
 70
     1
102
RTVSPropertyOp24
 70
     1
102
RTVSPropertyOp25
 70
     1
102
RTVSPropertyOp26
 70
     1
102
RTVSPropertyOp27
 70
     1
102
RTVSPropertyOp28
 70
     1
102
RTVSPropertyOp29
 70
     1
102
RTVSPropertyOp30
 70
     1
102
RTVSPropertyOp31
 70
     1
102
RTVSPropertyOp32
 70
     1
102
RTVSPropertyOp33
 70
     1
102
RTVSPropertyOp34
 70
     1
102
RTVSPropertyOp35
 70
     1
102
RTVSPropertyOp36
 70
     1
102
RTVSPropertyOp37
 70
     1
102
RTVSPropertyOp38
 70
     1
102
RTVSPropertyOp39
 70
     1
102
RTVSPropertyOp40
 70
     1
102
RTVSPropertyOp41
 70
     1
102
RTVSPropertyOp42
 70
     1
102
RTVSPropertyOp43
 70
     1
102
RTVSPropertyOp44
 70
     1
102
RTVSPropertyOp45
 70
     1
102
RTVSPropertyOp46
 70
     1
102
RTVSPropertyOp47
 70
     1
102
RTVSPropertyOp48
 70
     1
102
RTVSPropertyOp49
 70
     1
102
RTVSPropertyOp50
 70
     1
102
RTVSPropertyOp51
 70
     0
102
RTVSPropertyOp52
 70
     0
102
RTVSPropertyOp53
 70
     1
102
RTVSPropertyOp54
 70
     1
102
RTVSPropertyOp55
 70
     1
102
RTVSPropertyOp56
 70
     1
102
RTVSPropertyOp57
 70
     1
102
RTVSPropertyOp58
 70
     1
102
RTVSPropertyOp59
 70
     1
102
RTVSPropertyOp60
 70
     1
102
RTVSPropertyOp61
 70
     1
102
RTVSPropertyOp62
 70
     1
  0
XRECORD
  5
12AC
102
{ACAD_REACTORS
330
12AB
102
}
330
12AB
100
AcDbXrecord
280
     1
102
RTVSPost2010Prop28
280
     0
102
RTVSPost2010PropOp28
 70
     1
102
RTVSPost2010Prop29
280
     1
102
RTVSPost2010PropOp29
 70
     1
102
RTVSPost2010Prop30
280
     1
102
RTVSPost2010PropOp30
 70
     1
102
RTVSPost2010Prop31
280
     0
102
RTVSPost2010PropOp31
 70
     1
102
RTVSPost2010Prop32
280
     0
102
RTVSPost2010PropOp32
 70
     1
102
RTVSPost2010Prop33
280
     0
102
RTVSPost2010PropOp33
 70
     1
102
RTVSPost2010Prop34
280
     0
102
RTVSPost2010PropOp34
 70
     1
102
RTVSPost2010Prop35
280
     0
102
RTVSPost2010PropOp35
 70
     1
102
RTVSPost2010Prop36
280
     0
102
RTVSPost2010PropOp36
 70
     1
102
RTVSPost2010Prop37
 90
       50
102
RTVSPost2010PropOp37
 70
     1
102
RTVSPost2010Prop38
140
0.0
102
RTVSPost2010PropOp38
 70
     1
102
RTVSPost2010Prop39
140
1.0
102
RTVSPost2010PropOp39
 70
     1
102
RTVSPost2010Prop40
 90
        0
102
RTVSPost2010PropOp40
 70
     1
102
RTVSPost2010Prop41ColorIndex
 90
       18
102
RTVSPost2010Prop41ColorRGB
 90
        0
102
RTVSPost2010PropOp41
 70
     1
102
RTVSPost2010Prop42
 90
       50
102
RTVSPost2010PropOp42
 70
     1
102
RTVSPost2010Prop43
 90
        3
102
RTVSPost2010PropOp43
 70
     1
102
RTVSPost2010Prop44ColorIndex
 90
        5
102
RTVSPost2010Prop44ColorRGB
 90
      255
102
RTVSPost2010PropOp44
 70
     1
102
RTVSPost2010Prop45
280
     0
102
RTVSPost2010PropOp45
 70
     1
102
RTVSPost2010Prop46
 90
       50
102
RTVSPost2010PropOp46
 70
     1
102
RTVSPost2010Prop47
 90
       50
102
RTVSPost2010PropOp47
 70
     1
102
RTVSPost2010Prop48
 90
       50
102
RTVSPost2010PropOp48
 70
     1
102
RTVSPost2010Prop49
280
     0
102
RTVSPost2010PropOp49
 70
     1
102
RTVSPost2010Prop50
 90
       50
102
RTVSPost2010PropOp50
 70
     1
102
RTVSPost2010Prop51ColorIndex
 90
      256
102
RTVSPost2010Prop51ColorRGB
 90
-16777216
102
RTVSPost2010PropOp51
 70
     0
102
RTVSPost2010Prop52
140
1.0
102
RTVSPost2010PropOp52
 70
     0
102
RTVSPost2010Prop53
 90
        2
102
RTVSPost2010PropOp53
 70
     1
102
RTVSPost2010Prop54
  1
strokes_ogs.tif
102
RTVSPost2010PropOp54
 70
     1
102
RTVSPost2010Prop55
280
     0
102
RTVSPost2010PropOp55
 70
     1
102
RTVSPost2010Prop56
140
1.0
102
RTVSPost2010PropOp56
 70
     1
102
RTVSPost2010Prop57
140
1.0
102
RTVSPost2010PropOp57
 70
     1
102
RTVSPropertyOp0
 70
     1
102
RTVSPropertyOp1
 70
     1
102
RTVSPropertyOp2
 70
     1
102
RTVSPropertyOp3
 70
     1
102
RTVSPropertyOp4
 70
     1
102
RTVSPropertyOp5
 70
     1
102
RTVSPropertyOp6
 70
     1
102
RTVSPropertyOp7
 70
     1
102
RTVSPropertyOp8
 70
     1
102
RTVSPropertyOp9
 70
     1
102
RTVSPropertyOp10
 70
     1
102
RTVSPropertyOp11
 70
     1
102
RTVSPropertyOp12
 70
     1
102
RTVSPropertyOp13
 70
     1
102
RTVSPropertyOp14
 70
     1
102
RTVSPropertyOp15
 70
     1
102
RTVSPropertyOp16
 70
     1
102
RTVSPropertyOp17
 70
     1
102
RTVSPropertyOp18
 70
     1
102
RTVSPropertyOp19
 70
     1
102
RTVSPropertyOp20
 70
     1
102
RTVSPropertyOp21
 70
     1
102
RTVSPropertyOp22
 70
     1
102
RTVSPropertyOp23
 70
     1
102
RTVSPropertyOp24
 70
     1
102
RTVSPropertyOp25
 70
     1
102
RTVSPropertyOp26
 70
     1
102
RTVSPropertyOp27
 70
     1
102
RTVSPropertyOp28
 70
     1
102
RTVSPropertyOp29
 70
     1
102
RTVSPropertyOp30
 70
     1
102
RTVSPropertyOp31
 70
     1
102
RTVSPropertyOp32
 70
     1
102
RTVSPropertyOp33
 70
     1
102
RTVSPropertyOp34
 70
     1
102
RTVSPropertyOp35
 70
     1
102
RTVSPropertyOp36
 70
     1
102
RTVSPropertyOp37
 70
     1
102
RTVSPropertyOp38
 70
     1
102
RTVSPropertyOp39
 70
     1
102
RTVSPropertyOp40
 70
     1
102
RTVSPropertyOp41
 70
     1
102
RTVSPropertyOp42
 70
     1
102
RTVSPropertyOp43
 70
     1
102
RTVSPropertyOp44
 70
     1
102
RTVSPropertyOp45
 70
     1
102
RTVSPropertyOp46
 70
     1
102
RTVSPropertyOp47
 70
     1
102
RTVSPropertyOp48
 70
     1
102
RTVSPropertyOp49
 70
     1
102
RTVSPropertyOp50
 70
     1
102
RTVSPropertyOp51
 70
     0
102
RTVSPropertyOp52
 70
     0
102
RTVSPropertyOp53
 70
     1
102
RTVSPropertyOp54
 70
     1
102
RTVSPropertyOp55
 70
     1
102
RTVSPropertyOp56
 70
     1
102
RTVSPropertyOp57
 70
     1
102
RTVSPropertyOp58
 70
     1
102
RTVSPropertyOp59
 70
     1
102
RTVSPropertyOp60
 70
     1
102
RTVSPropertyOp61
 70
     1
102
RTVSPropertyOp62
 70
     1
  0
XRECORD
  5
12B0
102
{ACAD_REACTORS
330
12AF
102
}
330
12AF
100
AcDbXrecord
280
     1
102
RTVSPost2010Prop28
280
     0
102
RTVSPost2010PropOp28
 70
     1
102
RTVSPost2010Prop29
280
     1
102
RTVSPost2010PropOp29
 70
     1
102
RTVSPost2010Prop30
280
     1
102
RTVSPost2010PropOp30
 70
     1
102
RTVSPost2010Prop31
280
     0
102
RTVSPost2010PropOp31
 70
     1
102
RTVSPost2010Prop32
280
     0
102
RTVSPost2010PropOp32
 70
     1
102
RTVSPost2010Prop33
280
     0
102
RTVSPost2010PropOp33
 70
     1
102
RTVSPost2010Prop34
280
     0
102
RTVSPost2010PropOp34
 70
     1
102
RTVSPost2010Prop35
280
     0
102
RTVSPost2010PropOp35
 70
     1
102
RTVSPost2010Prop36
280
     0
102
RTVSPost2010PropOp36
 70
     1
102
RTVSPost2010Prop37
 90
       50
102
RTVSPost2010PropOp37
 70
     1
102
RTVSPost2010Prop38
140
0.0
102
RTVSPost2010PropOp38
 70
     1
102
RTVSPost2010Prop39
140
1.0
102
RTVSPost2010PropOp39
 70
     1
102
RTVSPost2010Prop40
 90
        0
102
RTVSPost2010PropOp40
 70
     1
102
RTVSPost2010Prop41ColorIndex
 90
       18
102
RTVSPost2010Prop41ColorRGB
 90
        0
102
RTVSPost2010PropOp41
 70
     1
102
RTVSPost2010Prop42
 90
       50
102
RTVSPost2010PropOp42
 70
     1
102
RTVSPost2010Prop43
 90
        3
102
RTVSPost2010PropOp43
 70
     1
102
RTVSPost2010Prop44ColorIndex
 90
        5
102
RTVSPost2010Prop44ColorRGB
 90
      255
102
RTVSPost2010PropOp44
 70
     1
102
RTVSPost2010Prop45
280
     0
102
RTVSPost2010PropOp45
 70
     1
102
RTVSPost2010Prop46
 90
       50
102
RTVSPost2010PropOp46
 70
     1
102
RTVSPost2010Prop47
 90
       50
102
RTVSPost2010PropOp47
 70
     1
102
RTVSPost2010Prop48
 90
       50
102
RTVSPost2010PropOp48
 70
     1
102
RTVSPost2010Prop49
280
     0
102
RTVSPost2010PropOp49
 70
     1
102
RTVSPost2010Prop50
 90
       50
102
RTVSPost2010PropOp50
 70
     1
102
RTVSPost2010Prop51ColorIndex
 90
      256
102
RTVSPost2010Prop51ColorRGB
 90
-16777216
102
RTVSPost2010PropOp51
 70
     0
102
RTVSPost2010Prop52
140
1.0
102
RTVSPost2010PropOp52
 70
     0
102
RTVSPost2010Prop53
 90
        2
102
RTVSPost2010PropOp53
 70
     1
102
RTVSPost2010Prop54
  1
strokes_ogs.tif
102
RTVSPost2010PropOp54
 70
     1
102
RTVSPost2010Prop55
280
     0
102
RTVSPost2010PropOp55
 70
     1
102
RTVSPost2010Prop56
140
1.0
102
RTVSPost2010PropOp56
 70
     1
102
RTVSPost2010Prop57
140
1.0
102
RTVSPost2010PropOp57
 70
     1
102
RTVSPropertyOp0
 70
     1
102
RTVSPropertyOp1
 70
     1
102
RTVSPropertyOp2
 70
     1
102
RTVSPropertyOp3
 70
     1
102
RTVSPropertyOp4
 70
     1
102
RTVSPropertyOp5
 70
     1
102
RTVSPropertyOp6
 70
     1
102
RTVSPropertyOp7
 70
     1
102
RTVSPropertyOp8
 70
     1
102
RTVSPropertyOp9
 70
     1
102
RTVSPropertyOp10
 70
     1
102
RTVSPropertyOp11
 70
     1
102
RTVSPropertyOp12
 70
     1
102
RTVSPropertyOp13
 70
     1
102
RTVSPropertyOp14
 70
     1
102
RTVSPropertyOp15
 70
     1
102
RTVSPropertyOp16
 70
     1
102
RTVSPropertyOp17
 70
     1
102
RTVSPropertyOp18
 70
     1
102
RTVSPropertyOp19
 70
     1
102
RTVSPropertyOp20
 70
     1
102
RTVSPropertyOp21
 70
     1
102
RTVSPropertyOp22
 70
     1
102
RTVSPropertyOp23
 70
     1
102
RTVSPropertyOp24
 70
     1
102
RTVSPropertyOp25
 70
     1
102
RTVSPropertyOp26
 70
     1
102
RTVSPropertyOp27
 70
     1
102
RTVSPropertyOp28
 70
     1
102
RTVSPropertyOp29
 70
     1
102
RTVSPropertyOp30
 70
     1
102
RTVSPropertyOp31
 70
     1
102
RTVSPropertyOp32
 70
     1
102
RTVSPropertyOp33
 70
     1
102
RTVSPropertyOp34
 70
     1
102
RTVSPropertyOp35
 70
     1
102
RTVSPropertyOp36
 70
     1
102
RTVSPropertyOp37
 70
     1
102
RTVSPropertyOp38
 70
     1
102
RTVSPropertyOp39
 70
     1
102
RTVSPropertyOp40
 70
     1
102
RTVSPropertyOp41
 70
     1
102
RTVSPropertyOp42
 70
     1
102
RTVSPropertyOp43
 70
     1
102
RTVSPropertyOp44
 70
     1
102
RTVSPropertyOp45
 70
     1
102
RTVSPropertyOp46
 70
     1
102
RTVSPropertyOp47
 70
     1
102
RTVSPropertyOp48
 70
     1
102
RTVSPropertyOp49
 70
     1
102
RTVSPropertyOp50
 70
     1
102
RTVSPropertyOp51
 70
     0
102
RTVSPropertyOp52
 70
     0
102
RTVSPropertyOp53
 70
     1
102
RTVSPropertyOp54
 70
     1
102
RTVSPropertyOp55
 70
     1
102
RTVSPropertyOp56
 70
     1
102
RTVSPropertyOp57
 70
     1
102
RTVSPropertyOp58
 70
     1
102
RTVSPropertyOp59
 70
     1
102
RTVSPropertyOp60
 70
     1
102
RTVSPropertyOp61
 70
     1
102
RTVSPropertyOp62
 70
     1
  0
XRECORD
  5
12CA
102
{ACAD_REACTORS
330
12C9
102
}
330
12C9
100
AcDbXrecord
280
     1
102
RTVSPost2010Prop28
280
     0
102
RTVSPost2010PropOp28
 70
     1
102
RTVSPost2010Prop29
280
     1
102
RTVSPost2010PropOp29
 70
     1
102
RTVSPost2010Prop30
280
     1
102
RTVSPost2010PropOp30
 70
     1
102
RTVSPost2010Prop31
280
     0
102
RTVSPost2010PropOp31
 70
     1
102
RTVSPost2010Prop32
280
     0
102
RTVSPost2010PropOp32
 70
     1
102
RTVSPost2010Prop33
280
     0
102
RTVSPost2010PropOp33
 70
     1
102
RTVSPost2010Prop34
280
     0
102
RTVSPost2010PropOp34
 70
     1
102
RTVSPost2010Prop35
280
     0
102
RTVSPost2010PropOp35
 70
     1
102
RTVSPost2010Prop36
280
     0
102
RTVSPost2010PropOp36
 70
     1
102
RTVSPost2010Prop37
 90
       50
102
RTVSPost2010PropOp37
 70
     0
102
RTVSPost2010Prop38
140
0.0
102
RTVSPost2010PropOp38
 70
     0
102
RTVSPost2010Prop39
140
1.0
102
RTVSPost2010PropOp39
 70
     0
102
RTVSPost2010Prop40
 90
        0
102
RTVSPost2010PropOp40
 70
     0
102
RTVSPost2010Prop41ColorIndex
 90
       18
102
RTVSPost2010Prop41ColorRGB
 90
        0
102
RTVSPost2010PropOp41
 70
     0
102
RTVSPost2010Prop42
 90
       50
102
RTVSPost2010PropOp42
 70
     0
102
RTVSPost2010Prop43
 90
        3
102
RTVSPost2010PropOp43
 70
     0
102
RTVSPost2010Prop44ColorIndex
 90
        5
102
RTVSPost2010Prop44ColorRGB
 90
      255
102
RTVSPost2010PropOp44
 70
     0
102
RTVSPost2010Prop45
280
     0
102
RTVSPost2010PropOp45
 70
     1
102
RTVSPost2010Prop46
 90
       50
102
RTVSPost2010PropOp46
 70
     0
102
RTVSPost2010Prop47
 90
       50
102
RTVSPost2010PropOp47
 70
     0
102
RTVSPost2010Prop48
 90
       50
102
RTVSPost2010PropOp48
 70
     0
102
RTVSPost2010Prop49
280
     0
102
RTVSPost2010PropOp49
 70
     1
102
RTVSPost2010Prop50
 90
       50
102
RTVSPost2010PropOp50
 70
     0
102
RTVSPost2010Prop51ColorIndex
 90
      256
102
RTVSPost2010Prop51ColorRGB
 90
-16777216
102
RTVSPost2010PropOp51
 70
     0
102
RTVSPost2010Prop52
140
1.0
102
RTVSPost2010PropOp52
 70
     0
102
RTVSPost2010Prop53
 90
        2
102
RTVSPost2010PropOp53
 70
     0
102
RTVSPost2010Prop54
  1
strokes_ogs.tif
102
RTVSPost2010PropOp54
 70
     0
102
RTVSPost2010Prop55
280
     0
102
RTVSPost2010PropOp55
 70
     1
102
RTVSPost2010Prop56
140
1.0
102
RTVSPost2010PropOp56
 70
     0
102
RTVSPost2010Prop57
140
1.0
102
RTVSPost2010PropOp57
 70
     0
102
RTVSPropertyOp0
 70
     0
102
RTVSPropertyOp1
 70
     0
102
RTVSPropertyOp2
 70
     0
102
RTVSPropertyOp3
 70
     0
102
RTVSPropertyOp4
 70
     0
102
RTVSPropertyOp5
 70
     0
102
RTVSPropertyOp6
 70
     0
102
RTVSPropertyOp7
 70
     0
102
RTVSPropertyOp8
 70
     0
102
RTVSPropertyOp9
 70
     0
102
RTVSPropertyOp10
 70
     0
102
RTVSPropertyOp11
 70
     0
102
RTVSPropertyOp12
 70
     0
102
RTVSPropertyOp13
 70
     0
102
RTVSPropertyOp14
 70
     2
102
RTVSPropertyOp15
 70
     0
102
RTVSPropertyOp16
 70
     0
102
RTVSPropertyOp17
 70
     0
102
RTVSPropertyOp18
 70
     0
102
RTVSPropertyOp19
 70
     0
102
RTVSPropertyOp20
 70
     0
102
RTVSPropertyOp21
 70
     0
102
RTVSPropertyOp22
 70
     0
102
RTVSPropertyOp23
 70
     0
102
RTVSPropertyOp24
 70
     0
102
RTVSPropertyOp25
 70
     0
102
RTVSPropertyOp26
 70
     0
102
RTVSPropertyOp27
 70
     0
102
RTVSPropertyOp28
 70
     1
102
RTVSPropertyOp29
 70
     1
102
RTVSPropertyOp30
 70
     1
102
RTVSPropertyOp31
 70
     1
102
RTVSPropertyOp32
 70
     1
102
RTVSPropertyOp33
 70
     1
102
RTVSPropertyOp34
 70
     1
102
RTVSPropertyOp35
 70
     1
102
RTVSPropertyOp36
 70
     1
102
RTVSPropertyOp37
 70
     0
102
RTVSPropertyOp38
 70
     0
102
RTVSPropertyOp39
 70
     0
102
RTVSPropertyOp40
 70
     0
102
RTVSPropertyOp41
 70
     0
102
RTVSPropertyOp42
 70
     0
102
RTVSPropertyOp43
 70
     0
102
RTVSPropertyOp44
 70
     0
102
RTVSPropertyOp45
 70
     1
102
RTVSPropertyOp46
 70
     0
102
RTVSPropertyOp47
 70
     0
102
RTVSPropertyOp48
 70
     0
102
RTVSPropertyOp49
 70
     1
102
RTVSPropertyOp50
 70
     0
102
RTVSPropertyOp51
 70
     0
102
RTVSPropertyOp52
 70
     0
102
RTVSPropertyOp53
 70
     0
102
RTVSPropertyOp54
 70
     0
102
RTVSPropertyOp55
 70
     1
102
RTVSPropertyOp56
 70
     0
102
RTVSPropertyOp57
 70
     0
102
RTVSPropertyOp58
 70
     0
102
RTVSPropertyOp59
 70
     0
102
RTVSPropertyOp60
 70
     0
102
RTVSPropertyOp61
 70
     0
102
RTVSPropertyOp62
 70
     0
  0
XRECORD
  5
12B8
102
{ACAD_REACTORS
330
12B7
102
}
330
12B7
100
AcDbXrecord
280
     1
102
RTVSPost2010Prop28
280
     0
102
RTVSPost2010PropOp28
 70
     1
102
RTVSPost2010Prop29
280
     1
102
RTVSPost2010PropOp29
 70
     1
102
RTVSPost2010Prop30
280
     1
102
RTVSPost2010PropOp30
 70
     1
102
RTVSPost2010Prop31
280
     0
102
RTVSPost2010PropOp31
 70
     1
102
RTVSPost2010Prop32
280
     0
102
RTVSPost2010PropOp32
 70
     1
102
RTVSPost2010Prop33
280
     0
102
RTVSPost2010PropOp33
 70
     1
102
RTVSPost2010Prop34
280
     0
102
RTVSPost2010PropOp34
 70
     1
102
RTVSPost2010Prop35
280
     0
102
RTVSPost2010PropOp35
 70
     1
102
RTVSPost2010Prop36
280
     0
102
RTVSPost2010PropOp36
 70
     1
102
RTVSPost2010Prop37
 90
       50
102
RTVSPost2010PropOp37
 70
     1
102
RTVSPost2010Prop38
140
0.0
102
RTVSPost2010PropOp38
 70
     1
102
RTVSPost2010Prop39
140
1.0
102
RTVSPost2010PropOp39
 70
     1
102
RTVSPost2010Prop40
 90
        0
102
RTVSPost2010PropOp40
 70
     1
102
RTVSPost2010Prop41ColorIndex
 90
       18
102
RTVSPost2010Prop41ColorRGB
 90
        0
102
RTVSPost2010PropOp41
 70
     1
102
RTVSPost2010Prop42
 90
       50
102
RTVSPost2010PropOp42
 70
     1
102
RTVSPost2010Prop43
 90
        3
102
RTVSPost2010PropOp43
 70
     1
102
RTVSPost2010Prop44ColorIndex
 90
        5
102
RTVSPost2010Prop44ColorRGB
 90
      255
102
RTVSPost2010PropOp44
 70
     1
102
RTVSPost2010Prop45
280
     0
102
RTVSPost2010PropOp45
 70
     1
102
RTVSPost2010Prop46
 90
       50
102
RTVSPost2010PropOp46
 70
     1
102
RTVSPost2010Prop47
 90
       50
102
RTVSPost2010PropOp47
 70
     1
102
RTVSPost2010Prop48
 90
       50
102
RTVSPost2010PropOp48
 70
     1
102
RTVSPost2010Prop49
280
     0
102
RTVSPost2010PropOp49
 70
     1
102
RTVSPost2010Prop50
 90
       50
102
RTVSPost2010PropOp50
 70
     1
102
RTVSPost2010Prop51ColorIndex
 90
      256
102
RTVSPost2010Prop51ColorRGB
 90
-16777216
102
RTVSPost2010PropOp51
 70
     0
102
RTVSPost2010Prop52
140
1.0
102
RTVSPost2010PropOp52
 70
     0
102
RTVSPost2010Prop53
 90
        2
102
RTVSPost2010PropOp53
 70
     1
102
RTVSPost2010Prop54
  1
strokes_ogs.tif
102
RTVSPost2010PropOp54
 70
     1
102
RTVSPost2010Prop55
280
     0
102
RTVSPost2010PropOp55
 70
     1
102
RTVSPost2010Prop56
140
1.0
102
RTVSPost2010PropOp56
 70
     1
102
RTVSPost2010Prop57
140
1.0
102
RTVSPost2010PropOp57
 70
     1
102
RTVSPropertyOp0
 70
     1
102
RTVSPropertyOp1
 70
     1
102
RTVSPropertyOp2
 70
     1
102
RTVSPropertyOp3
 70
     1
102
RTVSPropertyOp4
 70
     1
102
RTVSPropertyOp5
 70
     1
102
RTVSPropertyOp6
 70
     1
102
RTVSPropertyOp7
 70
     1
102
RTVSPropertyOp8
 70
     1
102
RTVSPropertyOp9
 70
     1
102
RTVSPropertyOp10
 70
     1
102
RTVSPropertyOp11
 70
     1
102
RTVSPropertyOp12
 70
     1
102
RTVSPropertyOp13
 70
     1
102
RTVSPropertyOp14
 70
     1
102
RTVSPropertyOp15
 70
     1
102
RTVSPropertyOp16
 70
     1
102
RTVSPropertyOp17
 70
     1
102
RTVSPropertyOp18
 70
     1
102
RTVSPropertyOp19
 70
     1
102
RTVSPropertyOp20
 70
     1
102
RTVSPropertyOp21
 70
     1
102
RTVSPropertyOp22
 70
     1
102
RTVSPropertyOp23
 70
     1
102
RTVSPropertyOp24
 70
     1
102
RTVSPropertyOp25
 70
     1
102
RTVSPropertyOp26
 70
     1
102
RTVSPropertyOp27
 70
     1
102
RTVSPropertyOp28
 70
     1
102
RTVSPropertyOp29
 70
     1
102
RTVSPropertyOp30
 70
     1
102
RTVSPropertyOp31
 70
     1
102
RTVSPropertyOp32
 70
     1
102
RTVSPropertyOp33
 70
     1
102
RTVSPropertyOp34
 70
     1
102
RTVSPropertyOp35
 70
     1
102
RTVSPropertyOp36
 70
     1
102
RTVSPropertyOp37
 70
     1
102
RTVSPropertyOp38
 70
     1
102
RTVSPropertyOp39
 70
     1
102
RTVSPropertyOp40
 70
     1
102
RTVSPropertyOp41
 70
     1
102
RTVSPropertyOp42
 70
     1
102
RTVSPropertyOp43
 70
     1
102
RTVSPropertyOp44
 70
     1
102
RTVSPropertyOp45
 70
     1
102
RTVSPropertyOp46
 70
     1
102
RTVSPropertyOp47
 70
     1
102
RTVSPropertyOp48
 70
     1
102
RTVSPropertyOp49
 70
     1
102
RTVSPropertyOp50
 70
     1
102
RTVSPropertyOp51
 70
     0
102
RTVSPropertyOp52
 70
     0
102
RTVSPropertyOp53
 70
     1
102
RTVSPropertyOp54
 70
     1
102
RTVSPropertyOp55
 70
     1
102
RTVSPropertyOp56
 70
     1
102
RTVSPropertyOp57
 70
     1
102
RTVSPropertyOp58
 70
     1
102
RTVSPropertyOp59
 70
     1
102
RTVSPropertyOp60
 70
     1
102
RTVSPropertyOp61
 70
     1
102
RTVSPropertyOp62
 70
     1
  0
XRECORD
  5
129C
102
{ACAD_REACTORS
330
129B
102
}
330
129B
100
AcDbXrecord
280
     1
102
RTVSPost2010Prop28
280
     0
102
RTVSPost2010PropOp28
 70
     1
102
RTVSPost2010Prop29
280
     1
102
RTVSPost2010PropOp29
 70
     1
102
RTVSPost2010Prop30
280
     1
102
RTVSPost2010PropOp30
 70
     1
102
RTVSPost2010Prop31
280
     0
102
RTVSPost2010PropOp31
 70
     1
102
RTVSPost2010Prop32
280
     0
102
RTVSPost2010PropOp32
 70
     1
102
RTVSPost2010Prop33
280
     0
102
RTVSPost2010PropOp33
 70
     1
102
RTVSPost2010Prop34
280
     0
102
RTVSPost2010PropOp34
 70
     1
102
RTVSPost2010Prop35
280
     0
102
RTVSPost2010PropOp35
 70
     1
102
RTVSPost2010Prop36
280
     0
102
RTVSPost2010PropOp36
 70
     1
102
RTVSPost2010Prop37
 90
       50
102
RTVSPost2010PropOp37
 70
     1
102
RTVSPost2010Prop38
140
0.0
102
RTVSPost2010PropOp38
 70
     1
102
RTVSPost2010Prop39
140
1.0
102
RTVSPost2010PropOp39
 70
     1
102
RTVSPost2010Prop40
 90
        0
102
RTVSPost2010PropOp40
 70
     1
102
RTVSPost2010Prop41ColorIndex
 90
       18
102
RTVSPost2010Prop41ColorRGB
 90
        0
102
RTVSPost2010PropOp41
 70
     1
102
RTVSPost2010Prop42
 90
       50
102
RTVSPost2010PropOp42
 70
     1
102
RTVSPost2010Prop43
 90
        3
102
RTVSPost2010PropOp43
 70
     1
102
RTVSPost2010Prop44ColorIndex
 90
        5
102
RTVSPost2010Prop44ColorRGB
 90
      255
102
RTVSPost2010PropOp44
 70
     1
102
RTVSPost2010Prop45
280
     0
102
RTVSPost2010PropOp45
 70
     1
102
RTVSPost2010Prop46
 90
       50
102
RTVSPost2010PropOp46
 70
     1
102
RTVSPost2010Prop47
 90
       50
102
RTVSPost2010PropOp47
 70
     1
102
RTVSPost2010Prop48
 90
       50
102
RTVSPost2010PropOp48
 70
     1
102
RTVSPost2010Prop49
280
     0
102
RTVSPost2010PropOp49
 70
     1
102
RTVSPost2010Prop50
 90
       50
102
RTVSPost2010PropOp50
 70
     1
102
RTVSPost2010Prop51ColorIndex
 90
      256
102
RTVSPost2010Prop51ColorRGB
 90
-16777216
102
RTVSPost2010PropOp51
 70
     0
102
RTVSPost2010Prop52
140
1.0
102
RTVSPost2010PropOp52
 70
     0
102
RTVSPost2010Prop53
 90
        2
102
RTVSPost2010PropOp53
 70
     1
102
RTVSPost2010Prop54
  1
strokes_ogs.tif
102
RTVSPost2010PropOp54
 70
     1
102
RTVSPost2010Prop55
280
     0
102
RTVSPost2010PropOp55
 70
     1
102
RTVSPost2010Prop56
140
1.0
102
RTVSPost2010PropOp56
 70
     1
102
RTVSPost2010Prop57
140
1.0
102
RTVSPost2010PropOp57
 70
     1
102
RTVSPropertyOp0
 70
     1
102
RTVSPropertyOp1
 70
     1
102
RTVSPropertyOp2
 70
     1
102
RTVSPropertyOp3
 70
     1
102
RTVSPropertyOp4
 70
     1
102
RTVSPropertyOp5
 70
     1
102
RTVSPropertyOp6
 70
     1
102
RTVSPropertyOp7
 70
     1
102
RTVSPropertyOp8
 70
     1
102
RTVSPropertyOp9
 70
     1
102
RTVSPropertyOp10
 70
     1
102
RTVSPropertyOp11
 70
     1
102
RTVSPropertyOp12
 70
     1
102
RTVSPropertyOp13
 70
     1
102
RTVSPropertyOp14
 70
     1
102
RTVSPropertyOp15
 70
     1
102
RTVSPropertyOp16
 70
     1
102
RTVSPropertyOp17
 70
     1
102
RTVSPropertyOp18
 70
     1
102
RTVSPropertyOp19
 70
     1
102
RTVSPropertyOp20
 70
     1
102
RTVSPropertyOp21
 70
     1
102
RTVSPropertyOp22
 70
     1
102
RTVSPropertyOp23
 70
     1
102
RTVSPropertyOp24
 70
     1
102
RTVSPropertyOp25
 70
     1
102
RTVSPropertyOp26
 70
     1
102
RTVSPropertyOp27
 70
     1
102
RTVSPropertyOp28
 70
     1
102
RTVSPropertyOp29
 70
     1
102
RTVSPropertyOp30
 70
     1
102
RTVSPropertyOp31
 70
     1
102
RTVSPropertyOp32
 70
     1
102
RTVSPropertyOp33
 70
     1
102
RTVSPropertyOp34
 70
     1
102
RTVSPropertyOp35
 70
     1
102
RTVSPropertyOp36
 70
     1
102
RTVSPropertyOp37
 70
     1
102
RTVSPropertyOp38
 70
     1
102
RTVSPropertyOp39
 70
     1
102
RTVSPropertyOp40
 70
     1
102
RTVSPropertyOp41
 70
     1
102
RTVSPropertyOp42
 70
     1
102
RTVSPropertyOp43
 70
     1
102
RTVSPropertyOp44
 70
     1
102
RTVSPropertyOp45
 70
     1
102
RTVSPropertyOp46
 70
     1
102
RTVSPropertyOp47
 70
     1
102
RTVSPropertyOp48
 70
     1
102
RTVSPropertyOp49
 70
     1
102
RTVSPropertyOp50
 70
     1
102
RTVSPropertyOp51
 70
     0
102
RTVSPropertyOp52
 70
     0
102
RTVSPropertyOp53
 70
     1
102
RTVSPropertyOp54
 70
     1
102
RTVSPropertyOp55
 70
     1
102
RTVSPropertyOp56
 70
     1
102
RTVSPropertyOp57
 70
     1
102
RTVSPropertyOp58
 70
     1
102
RTVSPropertyOp59
 70
     1
102
RTVSPropertyOp60
 70
     1
102
RTVSPropertyOp61
 70
     1
102
RTVSPropertyOp62
 70
     1
  0
XRECORD
  5
129E
102
{ACAD_REACTORS
330
129D
102
}
330
129D
100
AcDbXrecord
280
     1
102
RTVSPost2010Prop28
280
     0
102
RTVSPost2010PropOp28
 70
     1
102
RTVSPost2010Prop29
280
     1
102
RTVSPost2010PropOp29
 70
     1
102
RTVSPost2010Prop30
280
     1
102
RTVSPost2010PropOp30
 70
     1
102
RTVSPost2010Prop31
280
     0
102
RTVSPost2010PropOp31
 70
     1
102
RTVSPost2010Prop32
280
     0
102
RTVSPost2010PropOp32
 70
     1
102
RTVSPost2010Prop33
280
     0
102
RTVSPost2010PropOp33
 70
     1
102
RTVSPost2010Prop34
280
     0
102
RTVSPost2010PropOp34
 70
     1
102
RTVSPost2010Prop35
280
     0
102
RTVSPost2010PropOp35
 70
     1
102
RTVSPost2010Prop36
280
     0
102
RTVSPost2010PropOp36
 70
     1
102
RTVSPost2010Prop37
 90
       50
102
RTVSPost2010PropOp37
 70
     1
102
RTVSPost2010Prop38
140
0.0
102
RTVSPost2010PropOp38
 70
     1
102
RTVSPost2010Prop39
140
1.0
102
RTVSPost2010PropOp39
 70
     1
102
RTVSPost2010Prop40
 90
        0
102
RTVSPost2010PropOp40
 70
     1
102
RTVSPost2010Prop41ColorIndex
 90
       18
102
RTVSPost2010Prop41ColorRGB
 90
        0
102
RTVSPost2010PropOp41
 70
     1
102
RTVSPost2010Prop42
 90
       50
102
RTVSPost2010PropOp42
 70
     1
102
RTVSPost2010Prop43
 90
        3
102
RTVSPost2010PropOp43
 70
     1
102
RTVSPost2010Prop44ColorIndex
 90
        5
102
RTVSPost2010Prop44ColorRGB
 90
      255
102
RTVSPost2010PropOp44
 70
     1
102
RTVSPost2010Prop45
280
     0
102
RTVSPost2010PropOp45
 70
     1
102
RTVSPost2010Prop46
 90
       50
102
RTVSPost2010PropOp46
 70
     1
102
RTVSPost2010Prop47
 90
       50
102
RTVSPost2010PropOp47
 70
     1
102
RTVSPost2010Prop48
 90
       50
102
RTVSPost2010PropOp48
 70
     1
102
RTVSPost2010Prop49
280
     0
102
RTVSPost2010PropOp49
 70
     1
102
RTVSPost2010Prop50
 90
       50
102
RTVSPost2010PropOp50
 70
     1
102
RTVSPost2010Prop51ColorIndex
 90
      256
102
RTVSPost2010Prop51ColorRGB
 90
-16777216
102
RTVSPost2010PropOp51
 70
     0
102
RTVSPost2010Prop52
140
1.0
102
RTVSPost2010PropOp52
 70
     0
102
RTVSPost2010Prop53
 90
        2
102
RTVSPost2010PropOp53
 70
     1
102
RTVSPost2010Prop54
  1
strokes_ogs.tif
102
RTVSPost2010PropOp54
 70
     1
102
RTVSPost2010Prop55
280
     0
102
RTVSPost2010PropOp55
 70
     1
102
RTVSPost2010Prop56
140
1.0
102
RTVSPost2010PropOp56
 70
     1
102
RTVSPost2010Prop57
140
1.0
102
RTVSPost2010PropOp57
 70
     1
102
RTVSPropertyOp0
 70
     1
102
RTVSPropertyOp1
 70
     1
102
RTVSPropertyOp2
 70
     1
102
RTVSPropertyOp3
 70
     1
102
RTVSPropertyOp4
 70
     1
102
RTVSPropertyOp5
 70
     1
102
RTVSPropertyOp6
 70
     1
102
RTVSPropertyOp7
 70
     1
102
RTVSPropertyOp8
 70
     1
102
RTVSPropertyOp9
 70
     1
102
RTVSPropertyOp10
 70
     1
102
RTVSPropertyOp11
 70
     1
102
RTVSPropertyOp12
 70
     1
102
RTVSPropertyOp13
 70
     1
102
RTVSPropertyOp14
 70
     1
102
RTVSPropertyOp15
 70
     1
102
RTVSPropertyOp16
 70
     1
102
RTVSPropertyOp17
 70
     1
102
RTVSPropertyOp18
 70
     1
102
RTVSPropertyOp19
 70
     1
102
RTVSPropertyOp20
 70
     1
102
RTVSPropertyOp21
 70
     1
102
RTVSPropertyOp22
 70
     1
102
RTVSPropertyOp23
 70
     1
102
RTVSPropertyOp24
 70
     1
102
RTVSPropertyOp25
 70
     1
102
RTVSPropertyOp26
 70
     1
102
RTVSPropertyOp27
 70
     1
102
RTVSPropertyOp28
 70
     1
102
RTVSPropertyOp29
 70
     1
102
RTVSPropertyOp30
 70
     1
102
RTVSPropertyOp31
 70
     1
102
RTVSPropertyOp32
 70
     1
102
RTVSPropertyOp33
 70
     1
102
RTVSPropertyOp34
 70
     1
102
RTVSPropertyOp35
 70
     1
102
RTVSPropertyOp36
 70
     1
102
RTVSPropertyOp37
 70
     1
102
RTVSPropertyOp38
 70
     1
102
RTVSPropertyOp39
 70
     1
102
RTVSPropertyOp40
 70
     1
102
RTVSPropertyOp41
 70
     1
102
RTVSPropertyOp42
 70
     1
102
RTVSPropertyOp43
 70
     1
102
RTVSPropertyOp44
 70
     1
102
RTVSPropertyOp45
 70
     1
102
RTVSPropertyOp46
 70
     1
102
RTVSPropertyOp47
 70
     1
102
RTVSPropertyOp48
 70
     1
102
RTVSPropertyOp49
 70
     1
102
RTVSPropertyOp50
 70
     1
102
RTVSPropertyOp51
 70
     0
102
RTVSPropertyOp52
 70
     0
102
RTVSPropertyOp53
 70
     1
102
RTVSPropertyOp54
 70
     1
102
RTVSPropertyOp55
 70
     1
102
RTVSPropertyOp56
 70
     1
102
RTVSPropertyOp57
 70
     1
102
RTVSPropertyOp58
 70
     1
102
RTVSPropertyOp59
 70
     1
102
RTVSPropertyOp60
 70
     1
102
RTVSPropertyOp61
 70
     1
102
RTVSPropertyOp62
 70
     1
  0
XRECORD
  5
12A0
102
{ACAD_REACTORS
330
129F
102
}
330
129F
100
AcDbXrecord
280
     1
102
RTVSPost2010Prop28
280
     0
102
RTVSPost2010PropOp28
 70
     1
102
RTVSPost2010Prop29
280
     1
102
RTVSPost2010PropOp29
 70
     1
102
RTVSPost2010Prop30
280
     1
102
RTVSPost2010PropOp30
 70
     1
102
RTVSPost2010Prop31
280
     0
102
RTVSPost2010PropOp31
 70
     1
102
RTVSPost2010Prop32
280
     0
102
RTVSPost2010PropOp32
 70
     1
102
RTVSPost2010Prop33
280
     0
102
RTVSPost2010PropOp33
 70
     1
102
RTVSPost2010Prop34
280
     0
102
RTVSPost2010PropOp34
 70
     1
102
RTVSPost2010Prop35
280
     0
102
RTVSPost2010PropOp35
 70
     1
102
RTVSPost2010Prop36
280
     0
102
RTVSPost2010PropOp36
 70
     1
102
RTVSPost2010Prop37
 90
       50
102
RTVSPost2010PropOp37
 70
     1
102
RTVSPost2010Prop38
140
0.0
102
RTVSPost2010PropOp38
 70
     1
102
RTVSPost2010Prop39
140
1.0
102
RTVSPost2010PropOp39
 70
     1
102
RTVSPost2010Prop40
 90
        0
102
RTVSPost2010PropOp40
 70
     1
102
RTVSPost2010Prop41ColorIndex
 90
       18
102
RTVSPost2010Prop41ColorRGB
 90
        0
102
RTVSPost2010PropOp41
 70
     1
102
RTVSPost2010Prop42
 90
       50
102
RTVSPost2010PropOp42
 70
     1
102
RTVSPost2010Prop43
 90
        3
102
RTVSPost2010PropOp43
 70
     1
102
RTVSPost2010Prop44ColorIndex
 90
        5
102
RTVSPost2010Prop44ColorRGB
 90
      255
102
RTVSPost2010PropOp44
 70
     1
102
RTVSPost2010Prop45
280
     0
102
RTVSPost2010PropOp45
 70
     1
102
RTVSPost2010Prop46
 90
       50
102
RTVSPost2010PropOp46
 70
     1
102
RTVSPost2010Prop47
 90
       50
102
RTVSPost2010PropOp47
 70
     1
102
RTVSPost2010Prop48
 90
       50
102
RTVSPost2010PropOp48
 70
     1
102
RTVSPost2010Prop49
280
     0
102
RTVSPost2010PropOp49
 70
     1
102
RTVSPost2010Prop50
 90
       50
102
RTVSPost2010PropOp50
 70
     1
102
RTVSPost2010Prop51ColorIndex
 90
      256
102
RTVSPost2010Prop51ColorRGB
 90
-16777216
102
RTVSPost2010PropOp51
 70
     0
102
RTVSPost2010Prop52
140
1.0
102
RTVSPost2010PropOp52
 70
     0
102
RTVSPost2010Prop53
 90
        2
102
RTVSPost2010PropOp53
 70
     1
102
RTVSPost2010Prop54
  1
strokes_ogs.tif
102
RTVSPost2010PropOp54
 70
     1
102
RTVSPost2010Prop55
280
     0
102
RTVSPost2010PropOp55
 70
     1
102
RTVSPost2010Prop56
140
1.0
102
RTVSPost2010PropOp56
 70
     1
102
RTVSPost2010Prop57
140
1.0
102
RTVSPost2010PropOp57
 70
     1
102
RTVSPropertyOp0
 70
     1
102
RTVSPropertyOp1
 70
     1
102
RTVSPropertyOp2
 70
     1
102
RTVSPropertyOp3
 70
     1
102
RTVSPropertyOp4
 70
     1
102
RTVSPropertyOp5
 70
     1
102
RTVSPropertyOp6
 70
     1
102
RTVSPropertyOp7
 70
     1
102
RTVSPropertyOp8
 70
     1
102
RTVSPropertyOp9
 70
     1
102
RTVSPropertyOp10
 70
     1
102
RTVSPropertyOp11
 70
     1
102
RTVSPropertyOp12
 70
     1
102
RTVSPropertyOp13
 70
     1
102
RTVSPropertyOp14
 70
     1
102
RTVSPropertyOp15
 70
     1
102
RTVSPropertyOp16
 70
     1
102
RTVSPropertyOp17
 70
     1
102
RTVSPropertyOp18
 70
     1
102
RTVSPropertyOp19
 70
     1
102
RTVSPropertyOp20
 70
     1
102
RTVSPropertyOp21
 70
     1
102
RTVSPropertyOp22
 70
     1
102
RTVSPropertyOp23
 70
     1
102
RTVSPropertyOp24
 70
     1
102
RTVSPropertyOp25
 70
     1
102
RTVSPropertyOp26
 70
     1
102
RTVSPropertyOp27
 70
     1
102
RTVSPropertyOp28
 70
     1
102
RTVSPropertyOp29
 70
     1
102
RTVSPropertyOp30
 70
     1
102
RTVSPropertyOp31
 70
     1
102
RTVSPropertyOp32
 70
     1
102
RTVSPropertyOp33
 70
     1
102
RTVSPropertyOp34
 70
     1
102
RTVSPropertyOp35
 70
     1
102
RTVSPropertyOp36
 70
     1
102
RTVSPropertyOp37
 70
     1
102
RTVSPropertyOp38
 70
     1
102
RTVSPropertyOp39
 70
     1
102
RTVSPropertyOp40
 70
     1
102
RTVSPropertyOp41
 70
     1
102
RTVSPropertyOp42
 70
     1
102
RTVSPropertyOp43
 70
     1
102
RTVSPropertyOp44
 70
     1
102
RTVSPropertyOp45
 70
     1
102
RTVSPropertyOp46
 70
     1
102
RTVSPropertyOp47
 70
     1
102
RTVSPropertyOp48
 70
     1
102
RTVSPropertyOp49
 70
     1
102
RTVSPropertyOp50
 70
     1
102
RTVSPropertyOp51
 70
     0
102
RTVSPropertyOp52
 70
     0
102
RTVSPropertyOp53
 70
     1
102
RTVSPropertyOp54
 70
     1
102
RTVSPropertyOp55
 70
     1
102
RTVSPropertyOp56
 70
     1
102
RTVSPropertyOp57
 70
     1
102
RTVSPropertyOp58
 70
     1
102
RTVSPropertyOp59
 70
     1
102
RTVSPropertyOp60
 70
     1
102
RTVSPropertyOp61
 70
     1
102
RTVSPropertyOp62
 70
     1
  0
XRECORD
  5
12A2
102
{ACAD_REACTORS
330
12A1
102
}
330
12A1
100
AcDbXrecord
280
     1
102
RTVSPost2010Prop28
280
     0
102
RTVSPost2010PropOp28
 70
     1
102
RTVSPost2010Prop29
280
     1
102
RTVSPost2010PropOp29
 70
     1
102
RTVSPost2010Prop30
280
     1
102
RTVSPost2010PropOp30
 70
     1
102
RTVSPost2010Prop31
280
     0
102
RTVSPost2010PropOp31
 70
     1
102
RTVSPost2010Prop32
280
     0
102
RTVSPost2010PropOp32
 70
     1
102
RTVSPost2010Prop33
280
     0
102
RTVSPost2010PropOp33
 70
     1
102
RTVSPost2010Prop34
280
     0
102
RTVSPost2010PropOp34
 70
     1
102
RTVSPost2010Prop35
280
     0
102
RTVSPost2010PropOp35
 70
     1
102
RTVSPost2010Prop36
280
     0
102
RTVSPost2010PropOp36
 70
     1
102
RTVSPost2010Prop37
 90
       50
102
RTVSPost2010PropOp37
 70
     1
102
RTVSPost2010Prop38
140
0.0
102
RTVSPost2010PropOp38
 70
     1
102
RTVSPost2010Prop39
140
1.0
102
RTVSPost2010PropOp39
 70
     1
102
RTVSPost2010Prop40
 90
        0
102
RTVSPost2010PropOp40
 70
     1
102
RTVSPost2010Prop41ColorIndex
 90
       18
102
RTVSPost2010Prop41ColorRGB
 90
        0
102
RTVSPost2010PropOp41
 70
     1
102
RTVSPost2010Prop42
 90
       50
102
RTVSPost2010PropOp42
 70
     1
102
RTVSPost2010Prop43
 90
        3
102
RTVSPost2010PropOp43
 70
     1
102
RTVSPost2010Prop44ColorIndex
 90
        5
102
RTVSPost2010Prop44ColorRGB
 90
      255
102
RTVSPost2010PropOp44
 70
     1
102
RTVSPost2010Prop45
280
     0
102
RTVSPost2010PropOp45
 70
     1
102
RTVSPost2010Prop46
 90
       50
102
RTVSPost2010PropOp46
 70
     1
102
RTVSPost2010Prop47
 90
       50
102
RTVSPost2010PropOp47
 70
     1
102
RTVSPost2010Prop48
 90
       50
102
RTVSPost2010PropOp48
 70
     1
102
RTVSPost2010Prop49
280
     0
102
RTVSPost2010PropOp49
 70
     1
102
RTVSPost2010Prop50
 90
       50
102
RTVSPost2010PropOp50
 70
     1
102
RTVSPost2010Prop51ColorIndex
 90
      256
102
RTVSPost2010Prop51ColorRGB
 90
-16777216
102
RTVSPost2010PropOp51
 70
     0
102
RTVSPost2010Prop52
140
1.0
102
RTVSPost2010PropOp52
 70
     0
102
RTVSPost2010Prop53
 90
        2
102
RTVSPost2010PropOp53
 70
     1
102
RTVSPost2010Prop54
  1
strokes_ogs.tif
102
RTVSPost2010PropOp54
 70
     1
102
RTVSPost2010Prop55
280
     0
102
RTVSPost2010PropOp55
 70
     1
102
RTVSPost2010Prop56
140
1.0
102
RTVSPost2010PropOp56
 70
     1
102
RTVSPost2010Prop57
140
1.0
102
RTVSPost2010PropOp57
 70
     1
102
RTVSPropertyOp0
 70
     1
102
RTVSPropertyOp1
 70
     1
102
RTVSPropertyOp2
 70
     1
102
RTVSPropertyOp3
 70
     1
102
RTVSPropertyOp4
 70
     1
102
RTVSPropertyOp5
 70
     1
102
RTVSPropertyOp6
 70
     1
102
RTVSPropertyOp7
 70
     1
102
RTVSPropertyOp8
 70
     1
102
RTVSPropertyOp9
 70
     1
102
RTVSPropertyOp10
 70
     1
102
RTVSPropertyOp11
 70
     1
102
RTVSPropertyOp12
 70
     1
102
RTVSPropertyOp13
 70
     1
102
RTVSPropertyOp14
 70
     1
102
RTVSPropertyOp15
 70
     1
102
RTVSPropertyOp16
 70
     1
102
RTVSPropertyOp17
 70
     1
102
RTVSPropertyOp18
 70
     1
102
RTVSPropertyOp19
 70
     1
102
RTVSPropertyOp20
 70
     1
102
RTVSPropertyOp21
 70
     1
102
RTVSPropertyOp22
 70
     1
102
RTVSPropertyOp23
 70
     1
102
RTVSPropertyOp24
 70
     1
102
RTVSPropertyOp25
 70
     1
102
RTVSPropertyOp26
 70
     1
102
RTVSPropertyOp27
 70
     1
102
RTVSPropertyOp28
 70
     1
102
RTVSPropertyOp29
 70
     1
102
RTVSPropertyOp30
 70
     1
102
RTVSPropertyOp31
 70
     1
102
RTVSPropertyOp32
 70
     1
102
RTVSPropertyOp33
 70
     1
102
RTVSPropertyOp34
 70
     1
102
RTVSPropertyOp35
 70
     1
102
RTVSPropertyOp36
 70
     1
102
RTVSPropertyOp37
 70
     1
102
RTVSPropertyOp38
 70
     1
102
RTVSPropertyOp39
 70
     1
102
RTVSPropertyOp40
 70
     1
102
RTVSPropertyOp41
 70
     1
102
RTVSPropertyOp42
 70
     1
102
RTVSPropertyOp43
 70
     1
102
RTVSPropertyOp44
 70
     1
102
RTVSPropertyOp45
 70
     1
102
RTVSPropertyOp46
 70
     1
102
RTVSPropertyOp47
 70
     1
102
RTVSPropertyOp48
 70
     1
102
RTVSPropertyOp49
 70
     1
102
RTVSPropertyOp50
 70
     1
102
RTVSPropertyOp51
 70
     0
102
RTVSPropertyOp52
 70
     0
102
RTVSPropertyOp53
 70
     1
102
RTVSPropertyOp54
 70
     1
102
RTVSPropertyOp55
 70
     1
102
RTVSPropertyOp56
 70
     1
102
RTVSPropertyOp57
 70
     1
102
RTVSPropertyOp58
 70
     1
102
RTVSPropertyOp59
 70
     1
102
RTVSPropertyOp60
 70
     1
102
RTVSPropertyOp61
 70
     1
102
RTVSPropertyOp62
 70
     1
  0
XRECORD
  5
12AA
102
{ACAD_REACTORS
330
12A9
102
}
330
12A9
100
AcDbXrecord
280
     1
102
RTVSPost2010Prop28
280
     0
102
RTVSPost2010PropOp28
 70
     1
102
RTVSPost2010Prop29
280
     1
102
RTVSPost2010PropOp29
 70
     1
102
RTVSPost2010Prop30
280
     1
102
RTVSPost2010PropOp30
 70
     1
102
RTVSPost2010Prop31
280
     0
102
RTVSPost2010PropOp31
 70
     1
102
RTVSPost2010Prop32
280
     0
102
RTVSPost2010PropOp32
 70
     1
102
RTVSPost2010Prop33
280
     0
102
RTVSPost2010PropOp33
 70
     1
102
RTVSPost2010Prop34
280
     0
102
RTVSPost2010PropOp34
 70
     1
102
RTVSPost2010Prop35
280
     0
102
RTVSPost2010PropOp35
 70
     1
102
RTVSPost2010Prop36
280
     0
102
RTVSPost2010PropOp36
 70
     1
102
RTVSPost2010Prop37
 90
       50
102
RTVSPost2010PropOp37
 70
     1
102
RTVSPost2010Prop38
140
0.0
102
RTVSPost2010PropOp38
 70
     1
102
RTVSPost2010Prop39
140
1.0
102
RTVSPost2010PropOp39
 70
     1
102
RTVSPost2010Prop40
 90
        0
102
RTVSPost2010PropOp40
 70
     1
102
RTVSPost2010Prop41ColorIndex
 90
       18
102
RTVSPost2010Prop41ColorRGB
 90
        0
102
RTVSPost2010PropOp41
 70
     1
102
RTVSPost2010Prop42
 90
       50
102
RTVSPost2010PropOp42
 70
     1
102
RTVSPost2010Prop43
 90
        3
102
RTVSPost2010PropOp43
 70
     1
102
RTVSPost2010Prop44ColorIndex
 90
        5
102
RTVSPost2010Prop44ColorRGB
 90
      255
102
RTVSPost2010PropOp44
 70
     1
102
RTVSPost2010Prop45
280
     0
102
RTVSPost2010PropOp45
 70
     1
102
RTVSPost2010Prop46
 90
       50
102
RTVSPost2010PropOp46
 70
     1
102
RTVSPost2010Prop47
 90
       50
102
RTVSPost2010PropOp47
 70
     1
102
RTVSPost2010Prop48
 90
       50
102
RTVSPost2010PropOp48
 70
     1
102
RTVSPost2010Prop49
280
     0
102
RTVSPost2010PropOp49
 70
     1
102
RTVSPost2010Prop50
 90
       50
102
RTVSPost2010PropOp50
 70
     1
102
RTVSPost2010Prop51ColorIndex
 90
      256
102
RTVSPost2010Prop51ColorRGB
 90
-16777216
102
RTVSPost2010PropOp51
 70
     0
102
RTVSPost2010Prop52
140
1.0
102
RTVSPost2010PropOp52
 70
     0
102
RTVSPost2010Prop53
 90
        2
102
RTVSPost2010PropOp53
 70
     1
102
RTVSPost2010Prop54
  1
strokes_ogs.tif
102
RTVSPost2010PropOp54
 70
     1
102
RTVSPost2010Prop55
280
     0
102
RTVSPost2010PropOp55
 70
     1
102
RTVSPost2010Prop56
140
1.0
102
RTVSPost2010PropOp56
 70
     1
102
RTVSPost2010Prop57
140
1.0
102
RTVSPost2010PropOp57
 70
     1
102
RTVSPropertyOp0
 70
     1
102
RTVSPropertyOp1
 70
     1
102
RTVSPropertyOp2
 70
     1
102
RTVSPropertyOp3
 70
     1
102
RTVSPropertyOp4
 70
     1
102
RTVSPropertyOp5
 70
     1
102
RTVSPropertyOp6
 70
     1
102
RTVSPropertyOp7
 70
     1
102
RTVSPropertyOp8
 70
     1
102
RTVSPropertyOp9
 70
     1
102
RTVSPropertyOp10
 70
     1
102
RTVSPropertyOp11
 70
     1
102
RTVSPropertyOp12
 70
     1
102
RTVSPropertyOp13
 70
     1
102
RTVSPropertyOp14
 70
     1
102
RTVSPropertyOp15
 70
     1
102
RTVSPropertyOp16
 70
     1
102
RTVSPropertyOp17
 70
     1
102
RTVSPropertyOp18
 70
     1
102
RTVSPropertyOp19
 70
     1
102
RTVSPropertyOp20
 70
     1
102
RTVSPropertyOp21
 70
     1
102
RTVSPropertyOp22
 70
     1
102
RTVSPropertyOp23
 70
     1
102
RTVSPropertyOp24
 70
     1
102
RTVSPropertyOp25
 70
     1
102
RTVSPropertyOp26
 70
     1
102
RTVSPropertyOp27
 70
     1
102
RTVSPropertyOp28
 70
     1
102
RTVSPropertyOp29
 70
     1
102
RTVSPropertyOp30
 70
     1
102
RTVSPropertyOp31
 70
     1
102
RTVSPropertyOp32
 70
     1
102
RTVSPropertyOp33
 70
     1
102
RTVSPropertyOp34
 70
     1
102
RTVSPropertyOp35
 70
     1
102
RTVSPropertyOp36
 70
     1
102
RTVSPropertyOp37
 70
     1
102
RTVSPropertyOp38
 70
     1
102
RTVSPropertyOp39
 70
     1
102
RTVSPropertyOp40
 70
     1
102
RTVSPropertyOp41
 70
     1
102
RTVSPropertyOp42
 70
     1
102
RTVSPropertyOp43
 70
     1
102
RTVSPropertyOp44
 70
     1
102
RTVSPropertyOp45
 70
     1
102
RTVSPropertyOp46
 70
     1
102
RTVSPropertyOp47
 70
     1
102
RTVSPropertyOp48
 70
     1
102
RTVSPropertyOp49
 70
     1
102
RTVSPropertyOp50
 70
     1
102
RTVSPropertyOp51
 70
     0
102
RTVSPropertyOp52
 70
     0
102
RTVSPropertyOp53
 70
     1
102
RTVSPropertyOp54
 70
     1
102
RTVSPropertyOp55
 70
     1
102
RTVSPropertyOp56
 70
     1
102
RTVSPropertyOp57
 70
     1
102
RTVSPropertyOp58
 70
     1
102
RTVSPropertyOp59
 70
     1
102
RTVSPropertyOp60
 70
     1
102
RTVSPropertyOp61
 70
     1
102
RTVSPropertyOp62
 70
     1
  0
XRECORD
  5
12C6
102
{ACAD_REACTORS
330
12C5
102
}
330
12C5
100
AcDbXrecord
280
     1
102
RTVSPost2010Prop28
280
     0
102
RTVSPost2010PropOp28
 70
     1
102
RTVSPost2010Prop29
280
     1
102
RTVSPost2010PropOp29
 70
     1
102
RTVSPost2010Prop30
280
     1
102
RTVSPost2010PropOp30
 70
     1
102
RTVSPost2010Prop31
280
     0
102
RTVSPost2010PropOp31
 70
     1
102
RTVSPost2010Prop32
280
     0
102
RTVSPost2010PropOp32
 70
     1
102
RTVSPost2010Prop33
280
     0
102
RTVSPost2010PropOp33
 70
     1
102
RTVSPost2010Prop34
280
     0
102
RTVSPost2010PropOp34
 70
     1
102
RTVSPost2010Prop35
280
     0
102
RTVSPost2010PropOp35
 70
     1
102
RTVSPost2010Prop36
280
     0
102
RTVSPost2010PropOp36
 70
     1
102
RTVSPost2010Prop37
 90
       50
102
RTVSPost2010PropOp37
 70
     0
102
RTVSPost2010Prop38
140
0.0
102
RTVSPost2010PropOp38
 70
     0
102
RTVSPost2010Prop39
140
1.0
102
RTVSPost2010PropOp39
 70
     0
102
RTVSPost2010Prop40
 90
        0
102
RTVSPost2010PropOp40
 70
     0
102
RTVSPost2010Prop41ColorIndex
 90
       18
102
RTVSPost2010Prop41ColorRGB
 90
        0
102
RTVSPost2010PropOp41
 70
     0
102
RTVSPost2010Prop42
 90
       50
102
RTVSPost2010PropOp42
 70
     0
102
RTVSPost2010Prop43
 90
        3
102
RTVSPost2010PropOp43
 70
     0
102
RTVSPost2010Prop44ColorIndex
 90
        5
102
RTVSPost2010Prop44ColorRGB
 90
      255
102
RTVSPost2010PropOp44
 70
     0
102
RTVSPost2010Prop45
280
     0
102
RTVSPost2010PropOp45
 70
     1
102
RTVSPost2010Prop46
 90
       50
102
RTVSPost2010PropOp46
 70
     0
102
RTVSPost2010Prop47
 90
       50
102
RTVSPost2010PropOp47
 70
     0
102
RTVSPost2010Prop48
 90
       50
102
RTVSPost2010PropOp48
 70
     0
102
RTVSPost2010Prop49
280
     0
102
RTVSPost2010PropOp49
 70
     1
102
RTVSPost2010Prop50
 90
       50
102
RTVSPost2010PropOp50
 70
     0
102
RTVSPost2010Prop51ColorIndex
 90
      256
102
RTVSPost2010Prop51ColorRGB
 90
-16777216
102
RTVSPost2010PropOp51
 70
     0
102
RTVSPost2010Prop52
140
1.0
102
RTVSPost2010PropOp52
 70
     0
102
RTVSPost2010Prop53
 90
        2
102
RTVSPost2010PropOp53
 70
     0
102
RTVSPost2010Prop54
  1
strokes_ogs.tif
102
RTVSPost2010PropOp54
 70
     0
102
RTVSPost2010Prop55
280
     0
102
RTVSPost2010PropOp55
 70
     1
102
RTVSPost2010Prop56
140
1.0
102
RTVSPost2010PropOp56
 70
     0
102
RTVSPost2010Prop57
140
1.0
102
RTVSPost2010PropOp57
 70
     0
102
RTVSPropertyOp0
 70
     0
102
RTVSPropertyOp1
 70
     0
102
RTVSPropertyOp2
 70
     0
102
RTVSPropertyOp3
 70
     0
102
RTVSPropertyOp4
 70
     0
102
RTVSPropertyOp5
 70
     0
102
RTVSPropertyOp6
 70
     0
102
RTVSPropertyOp7
 70
     0
102
RTVSPropertyOp8
 70
     0
102
RTVSPropertyOp9
 70
     0
102
RTVSPropertyOp10
 70
     0
102
RTVSPropertyOp11
 70
     0
102
RTVSPropertyOp12
 70
     0
102
RTVSPropertyOp13
 70
     0
102
RTVSPropertyOp14
 70
     2
102
RTVSPropertyOp15
 70
     0
102
RTVSPropertyOp16
 70
     0
102
RTVSPropertyOp17
 70
     0
102
RTVSPropertyOp18
 70
     0
102
RTVSPropertyOp19
 70
     0
102
RTVSPropertyOp20
 70
     0
102
RTVSPropertyOp21
 70
     0
102
RTVSPropertyOp22
 70
     0
102
RTVSPropertyOp23
 70
     0
102
RTVSPropertyOp24
 70
     0
102
RTVSPropertyOp25
 70
     0
102
RTVSPropertyOp26
 70
     0
102
RTVSPropertyOp27
 70
     0
102
RTVSPropertyOp28
 70
     1
102
RTVSPropertyOp29
 70
     1
102
RTVSPropertyOp30
 70
     1
102
RTVSPropertyOp31
 70
     1
102
RTVSPropertyOp32
 70
     1
102
RTVSPropertyOp33
 70
     1
102
RTVSPropertyOp34
 70
     1
102
RTVSPropertyOp35
 70
     1
102
RTVSPropertyOp36
 70
     1
102
RTVSPropertyOp37
 70
     0
102
RTVSPropertyOp38
 70
     0
102
RTVSPropertyOp39
 70
     0
102
RTVSPropertyOp40
 70
     0
102
RTVSPropertyOp41
 70
     0
102
RTVSPropertyOp42
 70
     0
102
RTVSPropertyOp43
 70
     0
102
RTVSPropertyOp44
 70
     0
102
RTVSPropertyOp45
 70
     1
102
RTVSPropertyOp46
 70
     0
102
RTVSPropertyOp47
 70
     0
102
RTVSPropertyOp48
 70
     0
102
RTVSPropertyOp49
 70
     1
102
RTVSPropertyOp50
 70
     0
102
RTVSPropertyOp51
 70
     0
102
RTVSPropertyOp52
 70
     0
102
RTVSPropertyOp53
 70
     0
102
RTVSPropertyOp54
 70
     0
102
RTVSPropertyOp55
 70
     1
102
RTVSPropertyOp56
 70
     0
102
RTVSPropertyOp57
 70
     0
102
RTVSPropertyOp58
 70
     0
102
RTVSPropertyOp59
 70
     0
102
RTVSPropertyOp60
 70
     0
102
RTVSPropertyOp61
 70
     0
102
RTVSPropertyOp62
 70
     0
  0
XRECORD
  5
12B6
102
{ACAD_REACTORS
330
12B5
102
}
330
12B5
100
AcDbXrecord
280
     1
102
RTVSPost2010Prop28
280
     0
102
RTVSPost2010PropOp28
 70
     1
102
RTVSPost2010Prop29
280
     1
102
RTVSPost2010PropOp29
 70
     1
102
RTVSPost2010Prop30
280
     1
102
RTVSPost2010PropOp30
 70
     1
102
RTVSPost2010Prop31
280
     0
102
RTVSPost2010PropOp31
 70
     1
102
RTVSPost2010Prop32
280
     0
102
RTVSPost2010PropOp32
 70
     1
102
RTVSPost2010Prop33
280
     0
102
RTVSPost2010PropOp33
 70
     1
102
RTVSPost2010Prop34
280
     0
102
RTVSPost2010PropOp34
 70
     1
102
RTVSPost2010Prop35
280
     0
102
RTVSPost2010PropOp35
 70
     1
102
RTVSPost2010Prop36
280
     0
102
RTVSPost2010PropOp36
 70
     1
102
RTVSPost2010Prop37
 90
       50
102
RTVSPost2010PropOp37
 70
     1
102
RTVSPost2010Prop38
140
0.0
102
RTVSPost2010PropOp38
 70
     1
102
RTVSPost2010Prop39
140
1.0
102
RTVSPost2010PropOp39
 70
     1
102
RTVSPost2010Prop40
 90
        0
102
RTVSPost2010PropOp40
 70
     1
102
RTVSPost2010Prop41ColorIndex
 90
       18
102
RTVSPost2010Prop41ColorRGB
 90
        0
102
RTVSPost2010PropOp41
 70
     1
102
RTVSPost2010Prop42
 90
       50
102
RTVSPost2010PropOp42
 70
     1
102
RTVSPost2010Prop43
 90
        3
102
RTVSPost2010PropOp43
 70
     1
102
RTVSPost2010Prop44ColorIndex
 90
        5
102
RTVSPost2010Prop44ColorRGB
 90
      255
102
RTVSPost2010PropOp44
 70
     1
102
RTVSPost2010Prop45
280
     0
102
RTVSPost2010PropOp45
 70
     1
102
RTVSPost2010Prop46
 90
       50
102
RTVSPost2010PropOp46
 70
     1
102
RTVSPost2010Prop47
 90
       50
102
RTVSPost2010PropOp47
 70
     1
102
RTVSPost2010Prop48
 90
       50
102
RTVSPost2010PropOp48
 70
     1
102
RTVSPost2010Prop49
280
     0
102
RTVSPost2010PropOp49
 70
     1
102
RTVSPost2010Prop50
 90
       50
102
RTVSPost2010PropOp50
 70
     1
102
RTVSPost2010Prop51ColorIndex
 90
      256
102
RTVSPost2010Prop51ColorRGB
 90
-16777216
102
RTVSPost2010PropOp51
 70
     0
102
RTVSPost2010Prop52
140
1.0
102
RTVSPost2010PropOp52
 70
     0
102
RTVSPost2010Prop53
 90
        2
102
RTVSPost2010PropOp53
 70
     1
102
RTVSPost2010Prop54
  1
strokes_ogs.tif
102
RTVSPost2010PropOp54
 70
     1
102
RTVSPost2010Prop55
280
     0
102
RTVSPost2010PropOp55
 70
     1
102
RTVSPost2010Prop56
140
1.0
102
RTVSPost2010PropOp56
 70
     1
102
RTVSPost2010Prop57
140
1.0
102
RTVSPost2010PropOp57
 70
     1
102
RTVSPropertyOp0
 70
     1
102
RTVSPropertyOp1
 70
     1
102
RTVSPropertyOp2
 70
     1
102
RTVSPropertyOp3
 70
     1
102
RTVSPropertyOp4
 70
     1
102
RTVSPropertyOp5
 70
     1
102
RTVSPropertyOp6
 70
     1
102
RTVSPropertyOp7
 70
     1
102
RTVSPropertyOp8
 70
     1
102
RTVSPropertyOp9
 70
     1
102
RTVSPropertyOp10
 70
     1
102
RTVSPropertyOp11
 70
     1
102
RTVSPropertyOp12
 70
     1
102
RTVSPropertyOp13
 70
     1
102
RTVSPropertyOp14
 70
     1
102
RTVSPropertyOp15
 70
     1
102
RTVSPropertyOp16
 70
     1
102
RTVSPropertyOp17
 70
     1
102
RTVSPropertyOp18
 70
     1
102
RTVSPropertyOp19
 70
     1
102
RTVSPropertyOp20
 70
     1
102
RTVSPropertyOp21
 70
     1
102
RTVSPropertyOp22
 70
     1
102
RTVSPropertyOp23
 70
     1
102
RTVSPropertyOp24
 70
     1
102
RTVSPropertyOp25
 70
     1
102
RTVSPropertyOp26
 70
     1
102
RTVSPropertyOp27
 70
     1
102
RTVSPropertyOp28
 70
     1
102
RTVSPropertyOp29
 70
     1
102
RTVSPropertyOp30
 70
     1
102
RTVSPropertyOp31
 70
     1
102
RTVSPropertyOp32
 70
     1
102
RTVSPropertyOp33
 70
     1
102
RTVSPropertyOp34
 70
     1
102
RTVSPropertyOp35
 70
     1
102
RTVSPropertyOp36
 70
     1
102
RTVSPropertyOp37
 70
     1
102
RTVSPropertyOp38
 70
     1
102
RTVSPropertyOp39
 70
     1
102
RTVSPropertyOp40
 70
     1
102
RTVSPropertyOp41
 70
     1
102
RTVSPropertyOp42
 70
     1
102
RTVSPropertyOp43
 70
     1
102
RTVSPropertyOp44
 70
     1
102
RTVSPropertyOp45
 70
     1
102
RTVSPropertyOp46
 70
     1
102
RTVSPropertyOp47
 70
     1
102
RTVSPropertyOp48
 70
     1
102
RTVSPropertyOp49
 70
     1
102
RTVSPropertyOp50
 70
     1
102
RTVSPropertyOp51
 70
     0
102
RTVSPropertyOp52
 70
     0
102
RTVSPropertyOp53
 70
     1
102
RTVSPropertyOp54
 70
     1
102
RTVSPropertyOp55
 70
     1
102
RTVSPropertyOp56
 70
     1
102
RTVSPropertyOp57
 70
     1
102
RTVSPropertyOp58
 70
     1
102
RTVSPropertyOp59
 70
     1
102
RTVSPropertyOp60
 70
     1
102
RTVSPropertyOp61
 70
     1
102
RTVSPropertyOp62
 70
     1
  0
XRECORD
  5
12C8
102
{ACAD_REACTORS
330
12C7
102
}
330
12C7
100
AcDbXrecord
280
     1
102
RTVSPost2010Prop28
280
     0
102
RTVSPost2010PropOp28
 70
     1
102
RTVSPost2010Prop29
280
     1
102
RTVSPost2010PropOp29
 70
     1
102
RTVSPost2010Prop30
280
     1
102
RTVSPost2010PropOp30
 70
     1
102
RTVSPost2010Prop31
280
     0
102
RTVSPost2010PropOp31
 70
     1
102
RTVSPost2010Prop32
280
     0
102
RTVSPost2010PropOp32
 70
     1
102
RTVSPost2010Prop33
280
     0
102
RTVSPost2010PropOp33
 70
     1
102
RTVSPost2010Prop34
280
     0
102
RTVSPost2010PropOp34
 70
     1
102
RTVSPost2010Prop35
280
     0
102
RTVSPost2010PropOp35
 70
     1
102
RTVSPost2010Prop36
280
     0
102
RTVSPost2010PropOp36
 70
     1
102
RTVSPost2010Prop37
 90
       50
102
RTVSPost2010PropOp37
 70
     0
102
RTVSPost2010Prop38
140
0.0
102
RTVSPost2010PropOp38
 70
     0
102
RTVSPost2010Prop39
140
1.0
102
RTVSPost2010PropOp39
 70
     0
102
RTVSPost2010Prop40
 90
        0
102
RTVSPost2010PropOp40
 70
     0
102
RTVSPost2010Prop41ColorIndex
 90
       18
102
RTVSPost2010Prop41ColorRGB
 90
        0
102
RTVSPost2010PropOp41
 70
     0
102
RTVSPost2010Prop42
 90
       50
102
RTVSPost2010PropOp42
 70
     0
102
RTVSPost2010Prop43
 90
        3
102
RTVSPost2010PropOp43
 70
     0
102
RTVSPost2010Prop44ColorIndex
 90
        5
102
RTVSPost2010Prop44ColorRGB
 90
      255
102
RTVSPost2010PropOp44
 70
     0
102
RTVSPost2010Prop45
280
     0
102
RTVSPost2010PropOp45
 70
     1
102
RTVSPost2010Prop46
 90
       50
102
RTVSPost2010PropOp46
 70
     0
102
RTVSPost2010Prop47
 90
       50
102
RTVSPost2010PropOp47
 70
     0
102
RTVSPost2010Prop48
 90
       50
102
RTVSPost2010PropOp48
 70
     0
102
RTVSPost2010Prop49
280
     0
102
RTVSPost2010PropOp49
 70
     1
102
RTVSPost2010Prop50
 90
       50
102
RTVSPost2010PropOp50
 70
     0
102
RTVSPost2010Prop51ColorIndex
 90
      256
102
RTVSPost2010Prop51ColorRGB
 90
-16777216
102
RTVSPost2010PropOp51
 70
     0
102
RTVSPost2010Prop52
140
1.0
102
RTVSPost2010PropOp52
 70
     0
102
RTVSPost2010Prop53
 90
        2
102
RTVSPost2010PropOp53
 70
     0
102
RTVSPost2010Prop54
  1
strokes_ogs.tif
102
RTVSPost2010PropOp54
 70
     0
102
RTVSPost2010Prop55
280
     0
102
RTVSPost2010PropOp55
 70
     1
102
RTVSPost2010Prop56
140
1.0
102
RTVSPost2010PropOp56
 70
     0
102
RTVSPost2010Prop57
140
1.0
102
RTVSPost2010PropOp57
 70
     0
102
RTVSPropertyOp0
 70
     0
102
RTVSPropertyOp1
 70
     0
102
RTVSPropertyOp2
 70
     0
102
RTVSPropertyOp3
 70
     0
102
RTVSPropertyOp4
 70
     0
102
RTVSPropertyOp5
 70
     0
102
RTVSPropertyOp6
 70
     0
102
RTVSPropertyOp7
 70
     0
102
RTVSPropertyOp8
 70
     0
102
RTVSPropertyOp9
 70
     0
102
RTVSPropertyOp10
 70
     0
102
RTVSPropertyOp11
 70
     0
102
RTVSPropertyOp12
 70
     0
102
RTVSPropertyOp13
 70
     0
102
RTVSPropertyOp14
 70
     2
102
RTVSPropertyOp15
 70
     0
102
RTVSPropertyOp16
 70
     0
102
RTVSPropertyOp17
 70
     0
102
RTVSPropertyOp18
 70
     0
102
RTVSPropertyOp19
 70
     0
102
RTVSPropertyOp20
 70
     0
102
RTVSPropertyOp21
 70
     0
102
RTVSPropertyOp22
 70
     0
102
RTVSPropertyOp23
 70
     0
102
RTVSPropertyOp24
 70
     0
102
RTVSPropertyOp25
 70
     0
102
RTVSPropertyOp26
 70
     0
102
RTVSPropertyOp27
 70
     0
102
RTVSPropertyOp28
 70
     1
102
RTVSPropertyOp29
 70
     1
102
RTVSPropertyOp30
 70
     1
102
RTVSPropertyOp31
 70
     1
102
RTVSPropertyOp32
 70
     1
102
RTVSPropertyOp33
 70
     1
102
RTVSPropertyOp34
 70
     1
102
RTVSPropertyOp35
 70
     1
102
RTVSPropertyOp36
 70
     1
102
RTVSPropertyOp37
 70
     0
102
RTVSPropertyOp38
 70
     0
102
RTVSPropertyOp39
 70
     0
102
RTVSPropertyOp40
 70
     0
102
RTVSPropertyOp41
 70
     0
102
RTVSPropertyOp42
 70
     0
102
RTVSPropertyOp43
 70
     0
102
RTVSPropertyOp44
 70
     0
102
RTVSPropertyOp45
 70
     1
102
RTVSPropertyOp46
 70
     0
102
RTVSPropertyOp47
 70
     0
102
RTVSPropertyOp48
 70
     0
102
RTVSPropertyOp49
 70
     1
102
RTVSPropertyOp50
 70
     0
102
RTVSPropertyOp51
 70
     0
102
RTVSPropertyOp52
 70
     0
102
RTVSPropertyOp53
 70
     0
102
RTVSPropertyOp54
 70
     0
102
RTVSPropertyOp55
 70
     1
102
RTVSPropertyOp56
 70
     0
102
RTVSPropertyOp57
 70
     0
102
RTVSPropertyOp58
 70
     0
102
RTVSPropertyOp59
 70
     0
102
RTVSPropertyOp60
 70
     0
102
RTVSPropertyOp61
 70
     0
102
RTVSPropertyOp62
 70
     0
  0
XRECORD
  5
12AE
102
{ACAD_REACTORS
330
12AD
102
}
330
12AD
100
AcDbXrecord
280
     1
102
RTVSPost2010Prop28
280
     0
102
RTVSPost2010PropOp28
 70
     1
102
RTVSPost2010Prop29
280
     1
102
RTVSPost2010PropOp29
 70
     1
102
RTVSPost2010Prop30
280
     1
102
RTVSPost2010PropOp30
 70
     1
102
RTVSPost2010Prop31
280
     0
102
RTVSPost2010PropOp31
 70
     1
102
RTVSPost2010Prop32
280
     0
102
RTVSPost2010PropOp32
 70
     1
102
RTVSPost2010Prop33
280
     0
102
RTVSPost2010PropOp33
 70
     1
102
RTVSPost2010Prop34
280
     0
102
RTVSPost2010PropOp34
 70
     1
102
RTVSPost2010Prop35
280
     0
102
RTVSPost2010PropOp35
 70
     1
102
RTVSPost2010Prop36
280
     0
102
RTVSPost2010PropOp36
 70
     1
102
RTVSPost2010Prop37
 90
       50
102
RTVSPost2010PropOp37
 70
     1
102
RTVSPost2010Prop38
140
0.0
102
RTVSPost2010PropOp38
 70
     1
102
RTVSPost2010Prop39
140
1.0
102
RTVSPost2010PropOp39
 70
     1
102
RTVSPost2010Prop40
 90
        0
102
RTVSPost2010PropOp40
 70
     1
102
RTVSPost2010Prop41ColorIndex
 90
       18
102
RTVSPost2010Prop41ColorRGB
 90
        0
102
RTVSPost2010PropOp41
 70
     1
102
RTVSPost2010Prop42
 90
       50
102
RTVSPost2010PropOp42
 70
     1
102
RTVSPost2010Prop43
 90
        3
102
RTVSPost2010PropOp43
 70
     1
102
RTVSPost2010Prop44ColorIndex
 90
        5
102
RTVSPost2010Prop44ColorRGB
 90
      255
102
RTVSPost2010PropOp44
 70
     1
102
RTVSPost2010Prop45
280
     0
102
RTVSPost2010PropOp45
 70
     1
102
RTVSPost2010Prop46
 90
       50
102
RTVSPost2010PropOp46
 70
     1
102
RTVSPost2010Prop47
 90
       50
102
RTVSPost2010PropOp47
 70
     1
102
RTVSPost2010Prop48
 90
       50
102
RTVSPost2010PropOp48
 70
     1
102
RTVSPost2010Prop49
280
     0
102
RTVSPost2010PropOp49
 70
     1
102
RTVSPost2010Prop50
 90
       50
102
RTVSPost2010PropOp50
 70
     1
102
RTVSPost2010Prop51ColorIndex
 90
      256
102
RTVSPost2010Prop51ColorRGB
 90
-16777216
102
RTVSPost2010PropOp51
 70
     0
102
RTVSPost2010Prop52
140
1.0
102
RTVSPost2010PropOp52
 70
     0
102
RTVSPost2010Prop53
 90
        2
102
RTVSPost2010PropOp53
 70
     1
102
RTVSPost2010Prop54
  1
strokes_ogs.tif
102
RTVSPost2010PropOp54
 70
     1
102
RTVSPost2010Prop55
280
     0
102
RTVSPost2010PropOp55
 70
     1
102
RTVSPost2010Prop56
140
1.0
102
RTVSPost2010PropOp56
 70
     1
102
RTVSPost2010Prop57
140
1.0
102
RTVSPost2010PropOp57
 70
     1
102
RTVSPropertyOp0
 70
     1
102
RTVSPropertyOp1
 70
     1
102
RTVSPropertyOp2
 70
     1
102
RTVSPropertyOp3
 70
     1
102
RTVSPropertyOp4
 70
     1
102
RTVSPropertyOp5
 70
     1
102
RTVSPropertyOp6
 70
     1
102
RTVSPropertyOp7
 70
     1
102
RTVSPropertyOp8
 70
     1
102
RTVSPropertyOp9
 70
     1
102
RTVSPropertyOp10
 70
     1
102
RTVSPropertyOp11
 70
     1
102
RTVSPropertyOp12
 70
     1
102
RTVSPropertyOp13
 70
     1
102
RTVSPropertyOp14
 70
     1
102
RTVSPropertyOp15
 70
     1
102
RTVSPropertyOp16
 70
     1
102
RTVSPropertyOp17
 70
     1
102
RTVSPropertyOp18
 70
     1
102
RTVSPropertyOp19
 70
     1
102
RTVSPropertyOp20
 70
     1
102
RTVSPropertyOp21
 70
     1
102
RTVSPropertyOp22
 70
     1
102
RTVSPropertyOp23
 70
     1
102
RTVSPropertyOp24
 70
     1
102
RTVSPropertyOp25
 70
     1
102
RTVSPropertyOp26
 70
     1
102
RTVSPropertyOp27
 70
     1
102
RTVSPropertyOp28
 70
     1
102
RTVSPropertyOp29
 70
     1
102
RTVSPropertyOp30
 70
     1
102
RTVSPropertyOp31
 70
     1
102
RTVSPropertyOp32
 70
     1
102
RTVSPropertyOp33
 70
     1
102
RTVSPropertyOp34
 70
     1
102
RTVSPropertyOp35
 70
     1
102
RTVSPropertyOp36
 70
     1
102
RTVSPropertyOp37
 70
     1
102
RTVSPropertyOp38
 70
     1
102
RTVSPropertyOp39
 70
     1
102
RTVSPropertyOp40
 70
     1
102
RTVSPropertyOp41
 70
     1
102
RTVSPropertyOp42
 70
     1
102
RTVSPropertyOp43
 70
     1
102
RTVSPropertyOp44
 70
     1
102
RTVSPropertyOp45
 70
     1
102
RTVSPropertyOp46
 70
     1
102
RTVSPropertyOp47
 70
     1
102
RTVSPropertyOp48
 70
     1
102
RTVSPropertyOp49
 70
     1
102
RTVSPropertyOp50
 70
     1
102
RTVSPropertyOp51
 70
     0
102
RTVSPropertyOp52
 70
     0
102
RTVSPropertyOp53
 70
     1
102
RTVSPropertyOp54
 70
     1
102
RTVSPropertyOp55
 70
     1
102
RTVSPropertyOp56
 70
     1
102
RTVSPropertyOp57
 70
     1
102
RTVSPropertyOp58
 70
     1
102
RTVSPropertyOp59
 70
     1
102
RTVSPropertyOp60
 70
     1
102
RTVSPropertyOp61
 70
     1
102
RTVSPropertyOp62
 70
     1
  0
XRECORD
  5
12C4
102
{ACAD_REACTORS
330
12C3
102
}
330
12C3
100
AcDbXrecord
280
     1
102
RTVSPost2010Prop28
280
     0
102
RTVSPost2010PropOp28
 70
     1
102
RTVSPost2010Prop29
280
     1
102
RTVSPost2010PropOp29
 70
     1
102
RTVSPost2010Prop30
280
     1
102
RTVSPost2010PropOp30
 70
     1
102
RTVSPost2010Prop31
280
     0
102
RTVSPost2010PropOp31
 70
     1
102
RTVSPost2010Prop32
280
     0
102
RTVSPost2010PropOp32
 70
     1
102
RTVSPost2010Prop33
280
     0
102
RTVSPost2010PropOp33
 70
     1
102
RTVSPost2010Prop34
280
     0
102
RTVSPost2010PropOp34
 70
     1
102
RTVSPost2010Prop35
280
     0
102
RTVSPost2010PropOp35
 70
     1
102
RTVSPost2010Prop36
280
     0
102
RTVSPost2010PropOp36
 70
     1
102
RTVSPost2010Prop37
 90
       50
102
RTVSPost2010PropOp37
 70
     1
102
RTVSPost2010Prop38
140
0.0
102
RTVSPost2010PropOp38
 70
     1
102
RTVSPost2010Prop39
140
1.0
102
RTVSPost2010PropOp39
 70
     1
102
RTVSPost2010Prop40
 90
        0
102
RTVSPost2010PropOp40
 70
     1
102
RTVSPost2010Prop41ColorIndex
 90
       18
102
RTVSPost2010Prop41ColorRGB
 90
        0
102
RTVSPost2010PropOp41
 70
     1
102
RTVSPost2010Prop42
 90
       50
102
RTVSPost2010PropOp42
 70
     1
102
RTVSPost2010Prop43
 90
        3
102
RTVSPost2010PropOp43
 70
     1
102
RTVSPost2010Prop44ColorIndex
 90
        5
102
RTVSPost2010Prop44ColorRGB
 90
      255
102
RTVSPost2010PropOp44
 70
     1
102
RTVSPost2010Prop45
280
     0
102
RTVSPost2010PropOp45
 70
     1
102
RTVSPost2010Prop46
 90
       50
102
RTVSPost2010PropOp46
 70
     1
102
RTVSPost2010Prop47
 90
       50
102
RTVSPost2010PropOp47
 70
     1
102
RTVSPost2010Prop48
 90
       50
102
RTVSPost2010PropOp48
 70
     1
102
RTVSPost2010Prop49
280
     0
102
RTVSPost2010PropOp49
 70
     1
102
RTVSPost2010Prop50
 90
       50
102
RTVSPost2010PropOp50
 70
     1
102
RTVSPost2010Prop51ColorIndex
 90
      256
102
RTVSPost2010Prop51ColorRGB
 90
-16777216
102
RTVSPost2010PropOp51
 70
     0
102
RTVSPost2010Prop52
140
1.0
102
RTVSPost2010PropOp52
 70
     0
102
RTVSPost2010Prop53
 90
        2
102
RTVSPost2010PropOp53
 70
     1
102
RTVSPost2010Prop54
  1
strokes_ogs.tif
102
RTVSPost2010PropOp54
 70
     1
102
RTVSPost2010Prop55
280
     0
102
RTVSPost2010PropOp55
 70
     1
102
RTVSPost2010Prop56
140
1.0
102
RTVSPost2010PropOp56
 70
     1
102
RTVSPost2010Prop57
140
1.0
102
RTVSPost2010PropOp57
 70
     1
102
RTVSPropertyOp0
 70
     1
102
RTVSPropertyOp1
 70
     1
102
RTVSPropertyOp2
 70
     1
102
RTVSPropertyOp3
 70
     1
102
RTVSPropertyOp4
 70
     1
102
RTVSPropertyOp5
 70
     1
102
RTVSPropertyOp6
 70
     1
102
RTVSPropertyOp7
 70
     1
102
RTVSPropertyOp8
 70
     1
102
RTVSPropertyOp9
 70
     1
102
RTVSPropertyOp10
 70
     1
102
RTVSPropertyOp11
 70
     1
102
RTVSPropertyOp12
 70
     1
102
RTVSPropertyOp13
 70
     1
102
RTVSPropertyOp14
 70
     1
102
RTVSPropertyOp15
 70
     1
102
RTVSPropertyOp16
 70
     1
102
RTVSPropertyOp17
 70
     1
102
RTVSPropertyOp18
 70
     1
102
RTVSPropertyOp19
 70
     1
102
RTVSPropertyOp20
 70
     1
102
RTVSPropertyOp21
 70
     1
102
RTVSPropertyOp22
 70
     1
102
RTVSPropertyOp23
 70
     1
102
RTVSPropertyOp24
 70
     1
102
RTVSPropertyOp25
 70
     1
102
RTVSPropertyOp26
 70
     1
102
RTVSPropertyOp27
 70
     1
102
RTVSPropertyOp28
 70
     1
102
RTVSPropertyOp29
 70
     1
102
RTVSPropertyOp30
 70
     1
102
RTVSPropertyOp31
 70
     1
102
RTVSPropertyOp32
 70
     1
102
RTVSPropertyOp33
 70
     1
102
RTVSPropertyOp34
 70
     1
102
RTVSPropertyOp35
 70
     1
102
RTVSPropertyOp36
 70
     1
102
RTVSPropertyOp37
 70
     1
102
RTVSPropertyOp38
 70
     1
102
RTVSPropertyOp39
 70
     1
102
RTVSPropertyOp40
 70
     1
102
RTVSPropertyOp41
 70
     1
102
RTVSPropertyOp42
 70
     1
102
RTVSPropertyOp43
 70
     1
102
RTVSPropertyOp44
 70
     1
102
RTVSPropertyOp45
 70
     1
102
RTVSPropertyOp46
 70
     1
102
RTVSPropertyOp47
 70
     1
102
RTVSPropertyOp48
 70
     1
102
RTVSPropertyOp49
 70
     1
102
RTVSPropertyOp50
 70
     1
102
RTVSPropertyOp51
 70
     0
102
RTVSPropertyOp52
 70
     0
102
RTVSPropertyOp53
 70
     1
102
RTVSPropertyOp54
 70
     1
102
RTVSPropertyOp55
 70
     1
102
RTVSPropertyOp56
 70
     1
102
RTVSPropertyOp57
 70
     1
102
RTVSPropertyOp58
 70
     1
102
RTVSPropertyOp59
 70
     1
102
RTVSPropertyOp60
 70
     1
102
RTVSPropertyOp61
 70
     1
102
RTVSPropertyOp62
 70
     1
  0
XRECORD
  5
12C2
102
{ACAD_REACTORS
330
12C1
102
}
330
12C1
100
AcDbXrecord
280
     1
102
RTVSPost2010Prop28
280
     0
102
RTVSPost2010PropOp28
 70
     1
102
RTVSPost2010Prop29
280
     1
102
RTVSPost2010PropOp29
 70
     1
102
RTVSPost2010Prop30
280
     1
102
RTVSPost2010PropOp30
 70
     1
102
RTVSPost2010Prop31
280
     0
102
RTVSPost2010PropOp31
 70
     1
102
RTVSPost2010Prop32
280
     0
102
RTVSPost2010PropOp32
 70
     1
102
RTVSPost2010Prop33
280
     0
102
RTVSPost2010PropOp33
 70
     1
102
RTVSPost2010Prop34
280
     0
102
RTVSPost2010PropOp34
 70
     1
102
RTVSPost2010Prop35
280
     0
102
RTVSPost2010PropOp35
 70
     1
102
RTVSPost2010Prop36
280
     0
102
RTVSPost2010PropOp36
 70
     1
102
RTVSPost2010Prop37
 90
       50
102
RTVSPost2010PropOp37
 70
     1
102
RTVSPost2010Prop38
140
0.0
102
RTVSPost2010PropOp38
 70
     1
102
RTVSPost2010Prop39
140
1.0
102
RTVSPost2010PropOp39
 70
     1
102
RTVSPost2010Prop40
 90
        0
102
RTVSPost2010PropOp40
 70
     1
102
RTVSPost2010Prop41ColorIndex
 90
       18
102
RTVSPost2010Prop41ColorRGB
 90
        0
102
RTVSPost2010PropOp41
 70
     1
102
RTVSPost2010Prop42
 90
       50
102
RTVSPost2010PropOp42
 70
     1
102
RTVSPost2010Prop43
 90
        3
102
RTVSPost2010PropOp43
 70
     1
102
RTVSPost2010Prop44ColorIndex
 90
        5
102
RTVSPost2010Prop44ColorRGB
 90
      255
102
RTVSPost2010PropOp44
 70
     1
102
RTVSPost2010Prop45
280
     0
102
RTVSPost2010PropOp45
 70
     1
102
RTVSPost2010Prop46
 90
       50
102
RTVSPost2010PropOp46
 70
     1
102
RTVSPost2010Prop47
 90
       50
102
RTVSPost2010PropOp47
 70
     1
102
RTVSPost2010Prop48
 90
       50
102
RTVSPost2010PropOp48
 70
     1
102
RTVSPost2010Prop49
280
     0
102
RTVSPost2010PropOp49
 70
     1
102
RTVSPost2010Prop50
 90
       50
102
RTVSPost2010PropOp50
 70
     1
102
RTVSPost2010Prop51ColorIndex
 90
      256
102
RTVSPost2010Prop51ColorRGB
 90
-16777216
102
RTVSPost2010PropOp51
 70
     0
102
RTVSPost2010Prop52
140
1.0
102
RTVSPost2010PropOp52
 70
     0
102
RTVSPost2010Prop53
 90
        2
102
RTVSPost2010PropOp53
 70
     1
102
RTVSPost2010Prop54
  1
strokes_ogs.tif
102
RTVSPost2010PropOp54
 70
     1
102
RTVSPost2010Prop55
280
     0
102
RTVSPost2010PropOp55
 70
     1
102
RTVSPost2010Prop56
140
1.0
102
RTVSPost2010PropOp56
 70
     1
102
RTVSPost2010Prop57
140
1.0
102
RTVSPost2010PropOp57
 70
     1
102
RTVSPropertyOp0
 70
     1
102
RTVSPropertyOp1
 70
     1
102
RTVSPropertyOp2
 70
     1
102
RTVSPropertyOp3
 70
     1
102
RTVSPropertyOp4
 70
     1
102
RTVSPropertyOp5
 70
     1
102
RTVSPropertyOp6
 70
     1
102
RTVSPropertyOp7
 70
     1
102
RTVSPropertyOp8
 70
     1
102
RTVSPropertyOp9
 70
     1
102
RTVSPropertyOp10
 70
     1
102
RTVSPropertyOp11
 70
     1
102
RTVSPropertyOp12
 70
     1
102
RTVSPropertyOp13
 70
     1
102
RTVSPropertyOp14
 70
     1
102
RTVSPropertyOp15
 70
     1
102
RTVSPropertyOp16
 70
     1
102
RTVSPropertyOp17
 70
     1
102
RTVSPropertyOp18
 70
     1
102
RTVSPropertyOp19
 70
     1
102
RTVSPropertyOp20
 70
     1
102
RTVSPropertyOp21
 70
     1
102
RTVSPropertyOp22
 70
     1
102
RTVSPropertyOp23
 70
     1
102
RTVSPropertyOp24
 70
     1
102
RTVSPropertyOp25
 70
     1
102
RTVSPropertyOp26
 70
     1
102
RTVSPropertyOp27
 70
     1
102
RTVSPropertyOp28
 70
     1
102
RTVSPropertyOp29
 70
     1
102
RTVSPropertyOp30
 70
     1
102
RTVSPropertyOp31
 70
     1
102
RTVSPropertyOp32
 70
     1
102
RTVSPropertyOp33
 70
     1
102
RTVSPropertyOp34
 70
     1
102
RTVSPropertyOp35
 70
     1
102
RTVSPropertyOp36
 70
     1
102
RTVSPropertyOp37
 70
     1
102
RTVSPropertyOp38
 70
     1
102
RTVSPropertyOp39
 70
     1
102
RTVSPropertyOp40
 70
     1
102
RTVSPropertyOp41
 70
     1
102
RTVSPropertyOp42
 70
     1
102
RTVSPropertyOp43
 70
     1
102
RTVSPropertyOp44
 70
     1
102
RTVSPropertyOp45
 70
     1
102
RTVSPropertyOp46
 70
     1
102
RTVSPropertyOp47
 70
     1
102
RTVSPropertyOp48
 70
     1
102
RTVSPropertyOp49
 70
     1
102
RTVSPropertyOp50
 70
     1
102
RTVSPropertyOp51
 70
     0
102
RTVSPropertyOp52
 70
     0
102
RTVSPropertyOp53
 70
     1
102
RTVSPropertyOp54
 70
     1
102
RTVSPropertyOp55
 70
     1
102
RTVSPropertyOp56
 70
     1
102
RTVSPropertyOp57
 70
     1
102
RTVSPropertyOp58
 70
     1
102
RTVSPropertyOp59
 70
     1
102
RTVSPropertyOp60
 70
     1
102
RTVSPropertyOp61
 70
     1
102
RTVSPropertyOp62
 70
     1
  0
XRECORD
  5
12BC
102
{ACAD_REACTORS
330
12BB
102
}
330
12BB
100
AcDbXrecord
280
     1
102
RTVSPost2010Prop28
280
     0
102
RTVSPost2010PropOp28
 70
     1
102
RTVSPost2010Prop29
280
     1
102
RTVSPost2010PropOp29
 70
     1
102
RTVSPost2010Prop30
280
     1
102
RTVSPost2010PropOp30
 70
     1
102
RTVSPost2010Prop31
280
     0
102
RTVSPost2010PropOp31
 70
     1
102
RTVSPost2010Prop32
280
     0
102
RTVSPost2010PropOp32
 70
     1
102
RTVSPost2010Prop33
280
     0
102
RTVSPost2010PropOp33
 70
     1
102
RTVSPost2010Prop34
280
     0
102
RTVSPost2010PropOp34
 70
     1
102
RTVSPost2010Prop35
280
     0
102
RTVSPost2010PropOp35
 70
     1
102
RTVSPost2010Prop36
280
     0
102
RTVSPost2010PropOp36
 70
     1
102
RTVSPost2010Prop37
 90
       50
102
RTVSPost2010PropOp37
 70
     1
102
RTVSPost2010Prop38
140
0.0
102
RTVSPost2010PropOp38
 70
     1
102
RTVSPost2010Prop39
140
1.0
102
RTVSPost2010PropOp39
 70
     1
102
RTVSPost2010Prop40
 90
        0
102
RTVSPost2010PropOp40
 70
     1
102
RTVSPost2010Prop41ColorIndex
 90
       18
102
RTVSPost2010Prop41ColorRGB
 90
        0
102
RTVSPost2010PropOp41
 70
     1
102
RTVSPost2010Prop42
 90
       50
102
RTVSPost2010PropOp42
 70
     1
102
RTVSPost2010Prop43
 90
        3
102
RTVSPost2010PropOp43
 70
     1
102
RTVSPost2010Prop44ColorIndex
 90
        5
102
RTVSPost2010Prop44ColorRGB
 90
      255
102
RTVSPost2010PropOp44
 70
     1
102
RTVSPost2010Prop45
280
     0
102
RTVSPost2010PropOp45
 70
     1
102
RTVSPost2010Prop46
 90
       50
102
RTVSPost2010PropOp46
 70
     1
102
RTVSPost2010Prop47
 90
       50
102
RTVSPost2010PropOp47
 70
     1
102
RTVSPost2010Prop48
 90
       50
102
RTVSPost2010PropOp48
 70
     1
102
RTVSPost2010Prop49
280
     0
102
RTVSPost2010PropOp49
 70
     1
102
RTVSPost2010Prop50
 90
       50
102
RTVSPost2010PropOp50
 70
     1
102
RTVSPost2010Prop51ColorIndex
 90
      256
102
RTVSPost2010Prop51ColorRGB
 90
-16777216
102
RTVSPost2010PropOp51
 70
     0
102
RTVSPost2010Prop52
140
1.0
102
RTVSPost2010PropOp52
 70
     0
102
RTVSPost2010Prop53
 90
        2
102
RTVSPost2010PropOp53
 70
     1
102
RTVSPost2010Prop54
  1
strokes_ogs.tif
102
RTVSPost2010PropOp54
 70
     1
102
RTVSPost2010Prop55
280
     0
102
RTVSPost2010PropOp55
 70
     1
102
RTVSPost2010Prop56
140
1.0
102
RTVSPost2010PropOp56
 70
     1
102
RTVSPost2010Prop57
140
1.0
102
RTVSPost2010PropOp57
 70
     1
102
RTVSPropertyOp0
 70
     1
102
RTVSPropertyOp1
 70
     1
102
RTVSPropertyOp2
 70
     1
102
RTVSPropertyOp3
 70
     1
102
RTVSPropertyOp4
 70
     1
102
RTVSPropertyOp5
 70
     1
102
RTVSPropertyOp6
 70
     1
102
RTVSPropertyOp7
 70
     1
102
RTVSPropertyOp8
 70
     1
102
RTVSPropertyOp9
 70
     1
102
RTVSPropertyOp10
 70
     1
102
RTVSPropertyOp11
 70
     1
102
RTVSPropertyOp12
 70
     1
102
RTVSPropertyOp13
 70
     1
102
RTVSPropertyOp14
 70
     1
102
RTVSPropertyOp15
 70
     1
102
RTVSPropertyOp16
 70
     1
102
RTVSPropertyOp17
 70
     1
102
RTVSPropertyOp18
 70
     1
102
RTVSPropertyOp19
 70
     1
102
RTVSPropertyOp20
 70
     1
102
RTVSPropertyOp21
 70
     1
102
RTVSPropertyOp22
 70
     1
102
RTVSPropertyOp23
 70
     1
102
RTVSPropertyOp24
 70
     1
102
RTVSPropertyOp25
 70
     1
102
RTVSPropertyOp26
 70
     1
102
RTVSPropertyOp27
 70
     1
102
RTVSPropertyOp28
 70
     1
102
RTVSPropertyOp29
 70
     1
102
RTVSPropertyOp30
 70
     1
102
RTVSPropertyOp31
 70
     1
102
RTVSPropertyOp32
 70
     1
102
RTVSPropertyOp33
 70
     1
102
RTVSPropertyOp34
 70
     1
102
RTVSPropertyOp35
 70
     1
102
RTVSPropertyOp36
 70
     1
102
RTVSPropertyOp37
 70
     1
102
RTVSPropertyOp38
 70
     1
102
RTVSPropertyOp39
 70
     1
102
RTVSPropertyOp40
 70
     1
102
RTVSPropertyOp41
 70
     1
102
RTVSPropertyOp42
 70
     1
102
RTVSPropertyOp43
 70
     1
102
RTVSPropertyOp44
 70
     1
102
RTVSPropertyOp45
 70
     1
102
RTVSPropertyOp46
 70
     1
102
RTVSPropertyOp47
 70
     1
102
RTVSPropertyOp48
 70
     1
102
RTVSPropertyOp49
 70
     1
102
RTVSPropertyOp50
 70
     1
102
RTVSPropertyOp51
 70
     0
102
RTVSPropertyOp52
 70
     0
102
RTVSPropertyOp53
 70
     1
102
RTVSPropertyOp54
 70
     1
102
RTVSPropertyOp55
 70
     1
102
RTVSPropertyOp56
 70
     1
102
RTVSPropertyOp57
 70
     1
102
RTVSPropertyOp58
 70
     1
102
RTVSPropertyOp59
 70
     1
102
RTVSPropertyOp60
 70
     1
102
RTVSPropertyOp61
 70
     1
102
RTVSPropertyOp62
 70
     1
  0
XRECORD
  5
12BE
102
{ACAD_REACTORS
330
12BD
102
}
330
12BD
100
AcDbXrecord
280
     1
102
RTVSPost2010Prop28
280
     0
102
RTVSPost2010PropOp28
 70
     1
102
RTVSPost2010Prop29
280
     1
102
RTVSPost2010PropOp29
 70
     1
102
RTVSPost2010Prop30
280
     1
102
RTVSPost2010PropOp30
 70
     1
102
RTVSPost2010Prop31
280
     0
102
RTVSPost2010PropOp31
 70
     1
102
RTVSPost2010Prop32
280
     0
102
RTVSPost2010PropOp32
 70
     1
102
RTVSPost2010Prop33
280
     0
102
RTVSPost2010PropOp33
 70
     1
102
RTVSPost2010Prop34
280
     0
102
RTVSPost2010PropOp34
 70
     1
102
RTVSPost2010Prop35
280
     0
102
RTVSPost2010PropOp35
 70
     1
102
RTVSPost2010Prop36
280
     0
102
RTVSPost2010PropOp36
 70
     1
102
RTVSPost2010Prop37
 90
       50
102
RTVSPost2010PropOp37
 70
     1
102
RTVSPost2010Prop38
140
0.0
102
RTVSPost2010PropOp38
 70
     1
102
RTVSPost2010Prop39
140
1.0
102
RTVSPost2010PropOp39
 70
     1
102
RTVSPost2010Prop40
 90
        0
102
RTVSPost2010PropOp40
 70
     1
102
RTVSPost2010Prop41ColorIndex
 90
       18
102
RTVSPost2010Prop41ColorRGB
 90
        0
102
RTVSPost2010PropOp41
 70
     1
102
RTVSPost2010Prop42
 90
       50
102
RTVSPost2010PropOp42
 70
     1
102
RTVSPost2010Prop43
 90
        3
102
RTVSPost2010PropOp43
 70
     1
102
RTVSPost2010Prop44ColorIndex
 90
        5
102
RTVSPost2010Prop44ColorRGB
 90
      255
102
RTVSPost2010PropOp44
 70
     1
102
RTVSPost2010Prop45
280
     0
102
RTVSPost2010PropOp45
 70
     1
102
RTVSPost2010Prop46
 90
       50
102
RTVSPost2010PropOp46
 70
     1
102
RTVSPost2010Prop47
 90
       50
102
RTVSPost2010PropOp47
 70
     1
102
RTVSPost2010Prop48
 90
       50
102
RTVSPost2010PropOp48
 70
     1
102
RTVSPost2010Prop49
280
     0
102
RTVSPost2010PropOp49
 70
     1
102
RTVSPost2010Prop50
 90
       50
102
RTVSPost2010PropOp50
 70
     1
102
RTVSPost2010Prop51ColorIndex
 90
      256
102
RTVSPost2010Prop51ColorRGB
 90
-16777216
102
RTVSPost2010PropOp51
 70
     0
102
RTVSPost2010Prop52
140
1.0
102
RTVSPost2010PropOp52
 70
     0
102
RTVSPost2010Prop53
 90
        2
102
RTVSPost2010PropOp53
 70
     1
102
RTVSPost2010Prop54
  1
strokes_ogs.tif
102
RTVSPost2010PropOp54
 70
     1
102
RTVSPost2010Prop55
280
     0
102
RTVSPost2010PropOp55
 70
     1
102
RTVSPost2010Prop56
140
1.0
102
RTVSPost2010PropOp56
 70
     1
102
RTVSPost2010Prop57
140
1.0
102
RTVSPost2010PropOp57
 70
     1
102
RTVSPropertyOp0
 70
     1
102
RTVSPropertyOp1
 70
     1
102
RTVSPropertyOp2
 70
     1
102
RTVSPropertyOp3
 70
     1
102
RTVSPropertyOp4
 70
     1
102
RTVSPropertyOp5
 70
     1
102
RTVSPropertyOp6
 70
     1
102
RTVSPropertyOp7
 70
     1
102
RTVSPropertyOp8
 70
     1
102
RTVSPropertyOp9
 70
     1
102
RTVSPropertyOp10
 70
     1
102
RTVSPropertyOp11
 70
     1
102
RTVSPropertyOp12
 70
     1
102
RTVSPropertyOp13
 70
     1
102
RTVSPropertyOp14
 70
     1
102
RTVSPropertyOp15
 70
     1
102
RTVSPropertyOp16
 70
     1
102
RTVSPropertyOp17
 70
     1
102
RTVSPropertyOp18
 70
     1
102
RTVSPropertyOp19
 70
     1
102
RTVSPropertyOp20
 70
     1
102
RTVSPropertyOp21
 70
     1
102
RTVSPropertyOp22
 70
     1
102
RTVSPropertyOp23
 70
     1
102
RTVSPropertyOp24
 70
     1
102
RTVSPropertyOp25
 70
     1
102
RTVSPropertyOp26
 70
     1
102
RTVSPropertyOp27
 70
     1
102
RTVSPropertyOp28
 70
     1
102
RTVSPropertyOp29
 70
     1
102
RTVSPropertyOp30
 70
     1
102
RTVSPropertyOp31
 70
     1
102
RTVSPropertyOp32
 70
     1
102
RTVSPropertyOp33
 70
     1
102
RTVSPropertyOp34
 70
     1
102
RTVSPropertyOp35
 70
     1
102
RTVSPropertyOp36
 70
     1
102
RTVSPropertyOp37
 70
     1
102
RTVSPropertyOp38
 70
     1
102
RTVSPropertyOp39
 70
     1
102
RTVSPropertyOp40
 70
     1
102
RTVSPropertyOp41
 70
     1
102
RTVSPropertyOp42
 70
     1
102
RTVSPropertyOp43
 70
     1
102
RTVSPropertyOp44
 70
     1
102
RTVSPropertyOp45
 70
     1
102
RTVSPropertyOp46
 70
     1
102
RTVSPropertyOp47
 70
     1
102
RTVSPropertyOp48
 70
     1
102
RTVSPropertyOp49
 70
     1
102
RTVSPropertyOp50
 70
     1
102
RTVSPropertyOp51
 70
     0
102
RTVSPropertyOp52
 70
     0
102
RTVSPropertyOp53
 70
     1
102
RTVSPropertyOp54
 70
     1
102
RTVSPropertyOp55
 70
     1
102
RTVSPropertyOp56
 70
     1
102
RTVSPropertyOp57
 70
     1
102
RTVSPropertyOp58
 70
     1
102
RTVSPropertyOp59
 70
     1
102
RTVSPropertyOp60
 70
     1
102
RTVSPropertyOp61
 70
     1
102
RTVSPropertyOp62
 70
     1
  0
XRECORD
  5
12B4
102
{ACAD_REACTORS
330
12B3
102
}
330
12B3
100
AcDbXrecord
280
     1
102
RTVSPost2010Prop28
280
     0
102
RTVSPost2010PropOp28
 70
     1
102
RTVSPost2010Prop29
280
     1
102
RTVSPost2010PropOp29
 70
     1
102
RTVSPost2010Prop30
280
     1
102
RTVSPost2010PropOp30
 70
     1
102
RTVSPost2010Prop31
280
     0
102
RTVSPost2010PropOp31
 70
     1
102
RTVSPost2010Prop32
280
     0
102
RTVSPost2010PropOp32
 70
     1
102
RTVSPost2010Prop33
280
     0
102
RTVSPost2010PropOp33
 70
     1
102
RTVSPost2010Prop34
280
     0
102
RTVSPost2010PropOp34
 70
     1
102
RTVSPost2010Prop35
280
     0
102
RTVSPost2010PropOp35
 70
     1
102
RTVSPost2010Prop36
280
     0
102
RTVSPost2010PropOp36
 70
     1
102
RTVSPost2010Prop37
 90
       50
102
RTVSPost2010PropOp37
 70
     1
102
RTVSPost2010Prop38
140
0.0
102
RTVSPost2010PropOp38
 70
     1
102
RTVSPost2010Prop39
140
1.0
102
RTVSPost2010PropOp39
 70
     1
102
RTVSPost2010Prop40
 90
        0
102
RTVSPost2010PropOp40
 70
     1
102
RTVSPost2010Prop41ColorIndex
 90
       18
102
RTVSPost2010Prop41ColorRGB
 90
        0
102
RTVSPost2010PropOp41
 70
     1
102
RTVSPost2010Prop42
 90
       50
102
RTVSPost2010PropOp42
 70
     1
102
RTVSPost2010Prop43
 90
        3
102
RTVSPost2010PropOp43
 70
     1
102
RTVSPost2010Prop44ColorIndex
 90
        5
102
RTVSPost2010Prop44ColorRGB
 90
      255
102
RTVSPost2010PropOp44
 70
     1
102
RTVSPost2010Prop45
280
     0
102
RTVSPost2010PropOp45
 70
     1
102
RTVSPost2010Prop46
 90
       50
102
RTVSPost2010PropOp46
 70
     1
102
RTVSPost2010Prop47
 90
       50
102
RTVSPost2010PropOp47
 70
     1
102
RTVSPost2010Prop48
 90
       50
102
RTVSPost2010PropOp48
 70
     1
102
RTVSPost2010Prop49
280
     0
102
RTVSPost2010PropOp49
 70
     1
102
RTVSPost2010Prop50
 90
       50
102
RTVSPost2010PropOp50
 70
     1
102
RTVSPost2010Prop51ColorIndex
 90
      256
102
RTVSPost2010Prop51ColorRGB
 90
-16777216
102
RTVSPost2010PropOp51
 70
     0
102
RTVSPost2010Prop52
140
1.0
102
RTVSPost2010PropOp52
 70
     0
102
RTVSPost2010Prop53
 90
        2
102
RTVSPost2010PropOp53
 70
     1
102
RTVSPost2010Prop54
  1
strokes_ogs.tif
102
RTVSPost2010PropOp54
 70
     1
102
RTVSPost2010Prop55
280
     0
102
RTVSPost2010PropOp55
 70
     1
102
RTVSPost2010Prop56
140
1.0
102
RTVSPost2010PropOp56
 70
     1
102
RTVSPost2010Prop57
140
1.0
102
RTVSPost2010PropOp57
 70
     1
102
RTVSPropertyOp0
 70
     1
102
RTVSPropertyOp1
 70
     1
102
RTVSPropertyOp2
 70
     1
102
RTVSPropertyOp3
 70
     1
102
RTVSPropertyOp4
 70
     1
102
RTVSPropertyOp5
 70
     1
102
RTVSPropertyOp6
 70
     1
102
RTVSPropertyOp7
 70
     1
102
RTVSPropertyOp8
 70
     1
102
RTVSPropertyOp9
 70
     1
102
RTVSPropertyOp10
 70
     1
102
RTVSPropertyOp11
 70
     1
102
RTVSPropertyOp12
 70
     1
102
RTVSPropertyOp13
 70
     1
102
RTVSPropertyOp14
 70
     1
102
RTVSPropertyOp15
 70
     1
102
RTVSPropertyOp16
 70
     1
102
RTVSPropertyOp17
 70
     1
102
RTVSPropertyOp18
 70
     1
102
RTVSPropertyOp19
 70
     1
102
RTVSPropertyOp20
 70
     1
102
RTVSPropertyOp21
 70
     1
102
RTVSPropertyOp22
 70
     1
102
RTVSPropertyOp23
 70
     1
102
RTVSPropertyOp24
 70
     1
102
RTVSPropertyOp25
 70
     1
102
RTVSPropertyOp26
 70
     1
102
RTVSPropertyOp27
 70
     1
102
RTVSPropertyOp28
 70
     1
102
RTVSPropertyOp29
 70
     1
102
RTVSPropertyOp30
 70
     1
102
RTVSPropertyOp31
 70
     1
102
RTVSPropertyOp32
 70
     1
102
RTVSPropertyOp33
 70
     1
102
RTVSPropertyOp34
 70
     1
102
RTVSPropertyOp35
 70
     1
102
RTVSPropertyOp36
 70
     1
102
RTVSPropertyOp37
 70
     1
102
RTVSPropertyOp38
 70
     1
102
RTVSPropertyOp39
 70
     1
102
RTVSPropertyOp40
 70
     1
102
RTVSPropertyOp41
 70
     1
102
RTVSPropertyOp42
 70
     1
102
RTVSPropertyOp43
 70
     1
102
RTVSPropertyOp44
 70
     1
102
RTVSPropertyOp45
 70
     1
102
RTVSPropertyOp46
 70
     1
102
RTVSPropertyOp47
 70
     1
102
RTVSPropertyOp48
 70
     1
102
RTVSPropertyOp49
 70
     1
102
RTVSPropertyOp50
 70
     1
102
RTVSPropertyOp51
 70
     0
102
RTVSPropertyOp52
 70
     0
102
RTVSPropertyOp53
 70
     1
102
RTVSPropertyOp54
 70
     1
102
RTVSPropertyOp55
 70
     1
102
RTVSPropertyOp56
 70
     1
102
RTVSPropertyOp57
 70
     1
102
RTVSPropertyOp58
 70
     1
102
RTVSPropertyOp59
 70
     1
102
RTVSPropertyOp60
 70
     1
102
RTVSPropertyOp61
 70
     1
102
RTVSPropertyOp62
 70
     1
  0
XRECORD
  5
12A8
102
{ACAD_REACTORS
330
12A7
102
}
330
12A7
100
AcDbXrecord
280
     1
102
RTVSPost2010Prop28
280
     0
102
RTVSPost2010PropOp28
 70
     1
102
RTVSPost2010Prop29
280
     1
102
RTVSPost2010PropOp29
 70
     1
102
RTVSPost2010Prop30
280
     1
102
RTVSPost2010PropOp30
 70
     1
102
RTVSPost2010Prop31
280
     0
102
RTVSPost2010PropOp31
 70
     1
102
RTVSPost2010Prop32
280
     0
102
RTVSPost2010PropOp32
 70
     1
102
RTVSPost2010Prop33
280
     0
102
RTVSPost2010PropOp33
 70
     1
102
RTVSPost2010Prop34
280
     0
102
RTVSPost2010PropOp34
 70
     1
102
RTVSPost2010Prop35
280
     0
102
RTVSPost2010PropOp35
 70
     1
102
RTVSPost2010Prop36
280
     0
102
RTVSPost2010PropOp36
 70
     1
102
RTVSPost2010Prop37
 90
       50
102
RTVSPost2010PropOp37
 70
     1
102
RTVSPost2010Prop38
140
0.0
102
RTVSPost2010PropOp38
 70
     1
102
RTVSPost2010Prop39
140
1.0
102
RTVSPost2010PropOp39
 70
     1
102
RTVSPost2010Prop40
 90
        0
102
RTVSPost2010PropOp40
 70
     1
102
RTVSPost2010Prop41ColorIndex
 90
       18
102
RTVSPost2010Prop41ColorRGB
 90
        0
102
RTVSPost2010PropOp41
 70
     1
102
RTVSPost2010Prop42
 90
       50
102
RTVSPost2010PropOp42
 70
     1
102
RTVSPost2010Prop43
 90
        3
102
RTVSPost2010PropOp43
 70
     1
102
RTVSPost2010Prop44ColorIndex
 90
        5
102
RTVSPost2010Prop44ColorRGB
 90
      255
102
RTVSPost2010PropOp44
 70
     1
102
RTVSPost2010Prop45
280
     0
102
RTVSPost2010PropOp45
 70
     1
102
RTVSPost2010Prop46
 90
       50
102
RTVSPost2010PropOp46
 70
     1
102
RTVSPost2010Prop47
 90
       50
102
RTVSPost2010PropOp47
 70
     1
102
RTVSPost2010Prop48
 90
       50
102
RTVSPost2010PropOp48
 70
     1
102
RTVSPost2010Prop49
280
     0
102
RTVSPost2010PropOp49
 70
     1
102
RTVSPost2010Prop50
 90
       50
102
RTVSPost2010PropOp50
 70
     1
102
RTVSPost2010Prop51ColorIndex
 90
      256
102
RTVSPost2010Prop51ColorRGB
 90
-16777216
102
RTVSPost2010PropOp51
 70
     0
102
RTVSPost2010Prop52
140
1.0
102
RTVSPost2010PropOp52
 70
     0
102
RTVSPost2010Prop53
 90
        2
102
RTVSPost2010PropOp53
 70
     1
102
RTVSPost2010Prop54
  1
strokes_ogs.tif
102
RTVSPost2010PropOp54
 70
     1
102
RTVSPost2010Prop55
280
     0
102
RTVSPost2010PropOp55
 70
     1
102
RTVSPost2010Prop56
140
1.0
102
RTVSPost2010PropOp56
 70
     1
102
RTVSPost2010Prop57
140
1.0
102
RTVSPost2010PropOp57
 70
     1
102
RTVSPropertyOp0
 70
     1
102
RTVSPropertyOp1
 70
     1
102
RTVSPropertyOp2
 70
     1
102
RTVSPropertyOp3
 70
     1
102
RTVSPropertyOp4
 70
     1
102
RTVSPropertyOp5
 70
     1
102
RTVSPropertyOp6
 70
     1
102
RTVSPropertyOp7
 70
     1
102
RTVSPropertyOp8
 70
     1
102
RTVSPropertyOp9
 70
     1
102
RTVSPropertyOp10
 70
     1
102
RTVSPropertyOp11
 70
     1
102
RTVSPropertyOp12
 70
     1
102
RTVSPropertyOp13
 70
     1
102
RTVSPropertyOp14
 70
     1
102
RTVSPropertyOp15
 70
     1
102
RTVSPropertyOp16
 70
     1
102
RTVSPropertyOp17
 70
     1
102
RTVSPropertyOp18
 70
     1
102
RTVSPropertyOp19
 70
     1
102
RTVSPropertyOp20
 70
     1
102
RTVSPropertyOp21
 70
     1
102
RTVSPropertyOp22
 70
     1
102
RTVSPropertyOp23
 70
     1
102
RTVSPropertyOp24
 70
     1
102
RTVSPropertyOp25
 70
     1
102
RTVSPropertyOp26
 70
     1
102
RTVSPropertyOp27
 70
     1
102
RTVSPropertyOp28
 70
     1
102
RTVSPropertyOp29
 70
     1
102
RTVSPropertyOp30
 70
     1
102
RTVSPropertyOp31
 70
     1
102
RTVSPropertyOp32
 70
     1
102
RTVSPropertyOp33
 70
     1
102
RTVSPropertyOp34
 70
     1
102
RTVSPropertyOp35
 70
     1
102
RTVSPropertyOp36
 70
     1
102
RTVSPropertyOp37
 70
     1
102
RTVSPropertyOp38
 70
     1
102
RTVSPropertyOp39
 70
     1
102
RTVSPropertyOp40
 70
     1
102
RTVSPropertyOp41
 70
     1
102
RTVSPropertyOp42
 70
     1
102
RTVSPropertyOp43
 70
     1
102
RTVSPropertyOp44
 70
     1
102
RTVSPropertyOp45
 70
     1
102
RTVSPropertyOp46
 70
     1
102
RTVSPropertyOp47
 70
     1
102
RTVSPropertyOp48
 70
     1
102
RTVSPropertyOp49
 70
     1
102
RTVSPropertyOp50
 70
     1
102
RTVSPropertyOp51
 70
     0
102
RTVSPropertyOp52
 70
     0
102
RTVSPropertyOp53
 70
     1
102
RTVSPropertyOp54
 70
     1
102
RTVSPropertyOp55
 70
     1
102
RTVSPropertyOp56
 70
     1
102
RTVSPropertyOp57
 70
     1
102
RTVSPropertyOp58
 70
     1
102
RTVSPropertyOp59
 70
     1
102
RTVSPropertyOp60
 70
     1
102
RTVSPropertyOp61
 70
     1
102
RTVSPropertyOp62
 70
     1
  0
XRECORD
  5
12C0
102
{ACAD_REACTORS
330
12BF
102
}
330
12BF
100
AcDbXrecord
280
     1
102
RTVSPost2010Prop28
280
     0
102
RTVSPost2010PropOp28
 70
     1
102
RTVSPost2010Prop29
280
     1
102
RTVSPost2010PropOp29
 70
     1
102
RTVSPost2010Prop30
280
     1
102
RTVSPost2010PropOp30
 70
     1
102
RTVSPost2010Prop31
280
     0
102
RTVSPost2010PropOp31
 70
     1
102
RTVSPost2010Prop32
280
     0
102
RTVSPost2010PropOp32
 70
     1
102
RTVSPost2010Prop33
280
     0
102
RTVSPost2010PropOp33
 70
     1
102
RTVSPost2010Prop34
280
     0
102
RTVSPost2010PropOp34
 70
     1
102
RTVSPost2010Prop35
280
     0
102
RTVSPost2010PropOp35
 70
     1
102
RTVSPost2010Prop36
280
     0
102
RTVSPost2010PropOp36
 70
     1
102
RTVSPost2010Prop37
 90
       50
102
RTVSPost2010PropOp37
 70
     1
102
RTVSPost2010Prop38
140
0.0
102
RTVSPost2010PropOp38
 70
     1
102
RTVSPost2010Prop39
140
1.0
102
RTVSPost2010PropOp39
 70
     1
102
RTVSPost2010Prop40
 90
        0
102
RTVSPost2010PropOp40
 70
     1
102
RTVSPost2010Prop41ColorIndex
 90
       18
102
RTVSPost2010Prop41ColorRGB
 90
        0
102
RTVSPost2010PropOp41
 70
     1
102
RTVSPost2010Prop42
 90
       50
102
RTVSPost2010PropOp42
 70
     1
102
RTVSPost2010Prop43
 90
        3
102
RTVSPost2010PropOp43
 70
     1
102
RTVSPost2010Prop44ColorIndex
 90
        5
102
RTVSPost2010Prop44ColorRGB
 90
      255
102
RTVSPost2010PropOp44
 70
     1
102
RTVSPost2010Prop45
280
     0
102
RTVSPost2010PropOp45
 70
     1
102
RTVSPost2010Prop46
 90
       50
102
RTVSPost2010PropOp46
 70
     1
102
RTVSPost2010Prop47
 90
       50
102
RTVSPost2010PropOp47
 70
     1
102
RTVSPost2010Prop48
 90
       50
102
RTVSPost2010PropOp48
 70
     1
102
RTVSPost2010Prop49
280
     0
102
RTVSPost2010PropOp49
 70
     1
102
RTVSPost2010Prop50
 90
       50
102
RTVSPost2010PropOp50
 70
     1
102
RTVSPost2010Prop51ColorIndex
 90
      256
102
RTVSPost2010Prop51ColorRGB
 90
-16777216
102
RTVSPost2010PropOp51
 70
     0
102
RTVSPost2010Prop52
140
1.0
102
RTVSPost2010PropOp52
 70
     0
102
RTVSPost2010Prop53
 90
        2
102
RTVSPost2010PropOp53
 70
     1
102
RTVSPost2010Prop54
  1
strokes_ogs.tif
102
RTVSPost2010PropOp54
 70
     1
102
RTVSPost2010Prop55
280
     0
102
RTVSPost2010PropOp55
 70
     1
102
RTVSPost2010Prop56
140
1.0
102
RTVSPost2010PropOp56
 70
     1
102
RTVSPost2010Prop57
140
1.0
102
RTVSPost2010PropOp57
 70
     1
102
RTVSPropertyOp0
 70
     1
102
RTVSPropertyOp1
 70
     1
102
RTVSPropertyOp2
 70
     1
102
RTVSPropertyOp3
 70
     1
102
RTVSPropertyOp4
 70
     1
102
RTVSPropertyOp5
 70
     1
102
RTVSPropertyOp6
 70
     1
102
RTVSPropertyOp7
 70
     1
102
RTVSPropertyOp8
 70
     1
102
RTVSPropertyOp9
 70
     1
102
RTVSPropertyOp10
 70
     1
102
RTVSPropertyOp11
 70
     1
102
RTVSPropertyOp12
 70
     1
102
RTVSPropertyOp13
 70
     1
102
RTVSPropertyOp14
 70
     1
102
RTVSPropertyOp15
 70
     1
102
RTVSPropertyOp16
 70
     1
102
RTVSPropertyOp17
 70
     1
102
RTVSPropertyOp18
 70
     1
102
RTVSPropertyOp19
 70
     1
102
RTVSPropertyOp20
 70
     1
102
RTVSPropertyOp21
 70
     1
102
RTVSPropertyOp22
 70
     1
102
RTVSPropertyOp23
 70
     1
102
RTVSPropertyOp24
 70
     1
102
RTVSPropertyOp25
 70
     1
102
RTVSPropertyOp26
 70
     1
102
RTVSPropertyOp27
 70
     1
102
RTVSPropertyOp28
 70
     1
102
RTVSPropertyOp29
 70
     1
102
RTVSPropertyOp30
 70
     1
102
RTVSPropertyOp31
 70
     1
102
RTVSPropertyOp32
 70
     1
102
RTVSPropertyOp33
 70
     1
102
RTVSPropertyOp34
 70
     1
102
RTVSPropertyOp35
 70
     1
102
RTVSPropertyOp36
 70
     1
102
RTVSPropertyOp37
 70
     1
102
RTVSPropertyOp38
 70
     1
102
RTVSPropertyOp39
 70
     1
102
RTVSPropertyOp40
 70
     1
102
RTVSPropertyOp41
 70
     1
102
RTVSPropertyOp42
 70
     1
102
RTVSPropertyOp43
 70
     1
102
RTVSPropertyOp44
 70
     1
102
RTVSPropertyOp45
 70
     1
102
RTVSPropertyOp46
 70
     1
102
RTVSPropertyOp47
 70
     1
102
RTVSPropertyOp48
 70
     1
102
RTVSPropertyOp49
 70
     1
102
RTVSPropertyOp50
 70
     1
102
RTVSPropertyOp51
 70
     0
102
RTVSPropertyOp52
 70
     0
102
RTVSPropertyOp53
 70
     1
102
RTVSPropertyOp54
 70
     1
102
RTVSPropertyOp55
 70
     1
102
RTVSPropertyOp56
 70
     1
102
RTVSPropertyOp57
 70
     1
102
RTVSPropertyOp58
 70
     1
102
RTVSPropertyOp59
 70
     1
102
RTVSPropertyOp60
 70
     1
102
RTVSPropertyOp61
 70
     1
102
RTVSPropertyOp62
 70
     1
  0
ENDSEC
  0
EOF
