  0
SECTION
  2
HEADER
  9
$ACADVER
  1
AC1015
  9
$ACADMAINTVER
 70
    20
  9
$DWGCODEPAGE
  3
ANSI_932
  9
$INSBASE
 10
0.0
 20
0.0
 30
0.0
  9
$EXTMIN
 10
-36.5
 20
-30.0
 30
0.0
  9
$EXTMAX
 10
63.5
 20
34.99987909325575
 30
0.0
  9
$LIMMIN
 10
0.0
 20
0.0
  9
$LIMMAX
 10
420.0
 20
297.0
  9
$ORTHOMODE
 70
     0
  9
$REGENMODE
 70
     1
  9
$FILLMODE
 70
     1
  9
$QTEXTMODE
 70
     0
  9
$MIRRTEXT
 70
     1
  9
$LTSCALE
 40
7.549999999999998
  9
$ATTMODE
 70
     1
  9
$TEXTSIZE
 40
2.5
  9
$TRACEWID
 40
1.0
  9
$TEXTSTYLE
  7
Standard
  9
$CLAYER
  8
4
  9
$CELTYPE
  6
ByLayer
  9
$CECOLOR
 62
   256
  9
$CELTSCALE
 40
1.0
  9
$DISPSILH
 70
     0
  9
$DIMSCALE
 40
1.0
  9
$DIMASZ
 40
2.5
  9
$DIMEXO
 40
0.625
  9
$DIMDLI
 40
3.75
  9
$DIMRND
 40
0.0
  9
$DIMDLE
 40
0.0
  9
$DIMEXE
 40
1.25
  9
$DIMTP
 40
0.0
  9
$DIMTM
 40
0.0
  9
$DIMTXT
 40
2.5
  9
$DIMCEN
 40
2.5
  9
$DIMTSZ
 40
0.0
  9
$DIMTOL
 70
     0
  9
$DIMLIM
 70
     0
  9
$DIMTIH
 70
     0
  9
$DIMTOH
 70
     0
  9
$DIMSE1
 70
     0
  9
$DIMSE2
 70
     0
  9
$DIMTAD
 70
     1
  9
$DIMZIN
 70
     8
  9
$DIMBLK
  1

  9
$DIMASO
 70
     1
  9
$DIMSHO
 70
     1
  9
$DIMPOST
  1

  9
$DIMAPOST
  1

  9
$DIMALT
 70
     0
  9
$DIMALTD
 70
     3
  9
$DIMALTF
 40
0.03937007874016
  9
$DIMLFAC
 40
1.0
  9
$DIMTOFL
 70
     1
  9
$DIMTVP
 40
0.0
  9
$DIMTIX
 70
     0
  9
$DIMSOXD
 70
     0
  9
$DIMSAH
 70
     0
  9
$DIMBLK1
  1

  9
$DIMBLK2
  1

  9
$DIMSTYLE
  2
ISO-25
  9
$DIMCLRD
 70
     0
  9
$DIMCLRE
 70
     0
  9
$DIMCLRT
 70
     0
  9
$DIMTFAC
 40
1.0
  9
$DIMGAP
 40
0.625
  9
$DIMJUST
 70
     0
  9
$DIMSD1
 70
     0
  9
$DIMSD2
 70
     0
  9
$DIMTOLJ
 70
     0
  9
$DIMTZIN
 70
     8
  9
$DIMALTZ
 70
     0
  9
$DIMALTTZ
 70
     0
  9
$DIMUPT
 70
     0
  9
$DIMDEC
 70
     2
  9
$DIMTDEC
 70
     2
  9
$DIMALTU
 70
     2
  9
$DIMALTTD
 70
     3
  9
$DIMTXSTY
  7
Standard
  9
$DIMAUNIT
 70
     0
  9
$DIMADEC
 70
     0
  9
$DIMALTRND
 40
0.0
  9
$DIMAZIN
 70
     0
  9
$DIMDSEP
 70
    44
  9
$DIMATFIT
 70
     3
  9
$DIMFRAC
 70
     0
  9
$DIMLDRBLK
  1

  9
$DIMLUNIT
 70
     2
  9
$DIMLWD
 70
    -2
  9
$DIMLWE
 70
    -2
  9
$DIMTMOVE
 70
     0
  9
$LUNITS
 70
     2
  9
$LUPREC
 70
     4
  9
$SKETCHINC
 40
1.0
  9
$FILLETRAD
 40
10.0
  9
$AUNITS
 70
     0
  9
$AUPREC
 70
     0
  9
$MENU
  1
.
  9
$ELEVATION
 40
0.0
  9
$PELEVATION
 40
0.0
  9
$THICKNESS
 40
0.0
  9
$LIMCHECK
 70
     0
  9
$CHAMFERA
 40
10.0
  9
$CHAMFERB
 40
10.0
  9
$CHAMFERC
 40
20.0
  9
$CHAMFERD
 40
0.0
  9
$SKPOLY
 70
     0
  9
$TDCREATE
 40
2458765.839571759
  9
$TDUCREATE
 40
2458765.464583322
  9
$TDUPDATE
 40
2458885.673935185
  9
$TDUUPDATE
 40
2458885.298935185
  9
$TDINDWG
 40
0.0406163542
  9
$TDUSRTIMER
 40
2458836.239116285
  9
$USRTIMER
 70
     1
  9
$ANGBASE
 50
0.0
  9
$ANGDIR
 70
     0
  9
$PDMODE
 70
     0
  9
$PDSIZE
 40
0.0
  9
$PLINEWID
 40
0.0
  9
$SPLFRAME
 70
     0
  9
$SPLINETYPE
 70
     6
  9
$SPLINESEGS
 70
     8
  9
$HANDSEED
  5
F11
  9
$SURFTAB1
 70
     6
  9
$SURFTAB2
 70
     6
  9
$SURFTYPE
 70
     6
  9
$SURFU
 70
     6
  9
$SURFV
 70
     6
  9
$UCSBASE
  2

  9
$UCSNAME
  2

  9
$UCSORG
 10
0.0
 20
0.0
 30
0.0
  9
$UCSXDIR
 10
1.0
 20
0.0
 30
0.0
  9
$UCSYDIR
 10
0.0
 20
1.0
 30
0.0
  9
$UCSORTHOREF
  2

  9
$UCSORTHOVIEW
 70
     0
  9
$UCSORGTOP
 10
0.0
 20
0.0
 30
0.0
  9
$UCSORGBOTTOM
 10
0.0
 20
0.0
 30
0.0
  9
$UCSORGLEFT
 10
0.0
 20
0.0
 30
0.0
  9
$UCSORGRIGHT
 10
0.0
 20
0.0
 30
0.0
  9
$UCSORGFRONT
 10
0.0
 20
0.0
 30
0.0
  9
$UCSORGBACK
 10
0.0
 20
0.0
 30
0.0
  9
$PUCSBASE
  2

  9
$PUCSNAME
  2

  9
$PUCSORG
 10
0.0
 20
0.0
 30
0.0
  9
$PUCSXDIR
 10
1.0
 20
0.0
 30
0.0
  9
$PUCSYDIR
 10
0.0
 20
1.0
 30
0.0
  9
$PUCSORTHOREF
  2

  9
$PUCSORTHOVIEW
 70
     0
  9
$PUCSORGTOP
 10
0.0
 20
0.0
 30
0.0
  9
$PUCSORGBOTTOM
 10
0.0
 20
0.0
 30
0.0
  9
$PUCSORGLEFT
 10
0.0
 20
0.0
 30
0.0
  9
$PUCSORGRIGHT
 10
0.0
 20
0.0
 30
0.0
  9
$PUCSORGFRONT
 10
0.0
 20
0.0
 30
0.0
  9
$PUCSORGBACK
 10
0.0
 20
0.0
 30
0.0
  9
$USERI1
 70
     0
  9
$USERI2
 70
     0
  9
$USERI3
 70
     0
  9
$USERI4
 70
     0
  9
$USERI5
 70
     0
  9
$USERR1
 40
0.0
  9
$USERR2
 40
0.0
  9
$USERR3
 40
0.0
  9
$USERR4
 40
0.0
  9
$USERR5
 40
0.0
  9
$WORLDVIEW
 70
     1
  9
$SHADEDGE
 70
     3
  9
$SHADEDIF
 70
    70
  9
$TILEMODE
 70
     1
  9
$MAXACTVP
 70
    64
  9
$PINSBASE
 10
0.0
 20
0.0
 30
0.0
  9
$PLIMCHECK
 70
     0
  9
$PEXTMIN
 10
1.000000000000000E+20
 20
1.000000000000000E+20
 30
1.000000000000000E+20
  9
$PEXTMAX
 10
-1.000000000000000E+20
 20
-1.000000000000000E+20
 30
-1.000000000000000E+20
  9
$PLIMMIN
 10
0.0
 20
0.0
  9
$PLIMMAX
 10
0.0
 20
0.0
  9
$UNITMODE
 70
     0
  9
$VISRETAIN
 70
     1
  9
$PLINEGEN
 70
     0
  9
$PSLTSCALE
 70
     1
  9
$TREEDEPTH
 70
  3020
  9
$CMLSTYLE
  2
Standard
  9
$CMLJUST
 70
     0
  9
$CMLSCALE
 40
20.0
  9
$PROXYGRAPHICS
 70
     1
  9
$MEASUREMENT
 70
     1
  9
$CELWEIGHT
370
    -1
  9
$ENDCAPS
280
     0
  9
$JOINSTYLE
280
     0
  9
$LWDISPLAY
290
     0
  9
$INSUNITS
 70
     4
  9
$HYPERLINKBASE
  1

  9
$STYLESHEET
  1

  9
$XEDIT
290
     1
  9
$CEPSNTYPE
380
     0
  9
$PSTYLEMODE
290
     1
  9
$FINGERPRINTGUID
  2
{4E574D77-AF2F-4C2B-BABC-C73A7248EB60}
  9
$VERSIONGUID
  2
{2CEE2B98-1FDB-4B45-B977-7297092EE2B6}
  9
$EXTNAMES
290
     1
  9
$PSVPSCALE
 40
0.0
  9
$OLESTARTUP
290
     0
  0
ENDSEC
  0
SECTION
  2
CLASSES
  0
CLASS
  1
ACDBDICTIONARYWDFLT
  2
AcDbDictionaryWithDefault
  3
ObjectDBX Classes
 90
        0
280
     0
281
     0
  0
CLASS
  1
VISUALSTYLE
  2
AcDbVisualStyle
  3
ObjectDBX Classes
 90
     4095
280
     0
281
     0
  0
CLASS
  1
MATERIAL
  2
AcDbMaterial
  3
ObjectDBX Classes
 90
     1153
280
     0
281
     0
  0
CLASS
  1
SCALE
  2
AcDbScale
  3
ObjectDBX Classes
 90
     1153
280
     0
281
     0
  0
CLASS
  1
DICTIONARYVAR
  2
AcDbDictionaryVar
  3
ObjectDBX Classes
 90
        0
280
     0
281
     0
  0
CLASS
  1
ACDBPLACEHOLDER
  2
AcDbPlaceHolder
  3
ObjectDBX Classes
 90
        0
280
     0
281
     0
  0
CLASS
  1
LAYOUT
  2
AcDbLayout
  3
ObjectDBX Classes
 90
        0
280
     0
281
     0
  0
CLASS
  1
TABLESTYLE
  2
AcDbTableStyle
  3
ObjectDBX Classes
 90
     4095
280
     0
281
     0
  0
CLASS
  1
MLEADERSTYLE
  2
AcDbMLeaderStyle
  3
ACDB_MLEADERSTYLE_CLASS
 90
     4095
280
     0
281
     0
  0
CLASS
  1
SUN
  2
AcDbSun
  3
SCENEOE
 90
    33921
280
     0
281
     0
  0
CLASS
  1
RASTERVARIABLES
  2
AcDbRasterVariables
  3
ISM
 90
        0
280
     0
281
     0
  0
CLASS
  1
DIMASSOC
  2
AcDbDimAssoc
  3
"AcDbDimAssoc|Product Desc:     AcDim ARX App For Dimension|Company:          Autodesk, Inc.|WEB Address:      www.autodesk.com"
 90
        0
280
     0
281
     0
  0
CLASS
  1
ACDBSECTIONVIEWSTYLE
  2
AcDbSectionViewStyle
  3
ObjectDBX Classes
 90
     1025
280
     0
281
     0
  0
CLASS
  1
ACDBDETAILVIEWSTYLE
  2
AcDbDetailViewStyle
  3
ObjectDBX Classes
 90
     1025
280
     0
281
     0
  0
CLASS
  1
EXACXREFPANELOBJECT
  2
ExAcXREFPanelObject
  3
EXAC_ESW
 90
     1025
280
     0
281
     0
  0
CLASS
  1
NPOCOLLECTION
  2
AcDbImpNonPersistentObjectsCollection
  3
ObjectDBX Classes
 90
     1153
280
     0
281
     0
  0
CLASS
  1
CELLSTYLEMAP
  2
AcDbCellStyleMap
  3
ObjectDBX Classes
 90
     1152
280
     0
281
     0
  0
CLASS
  1
SOLID_BACKGROUND
  2
AcDbSolidBackground
  3
SCENEOE
 90
    36863
280
     0
281
     0
  0
ENDSEC
  0
SECTION
  2
TABLES
  0
TABLE
  2
VPORT
  5
8
330
0
100
AcDbSymbolTable
 70
     1
  0
VPORT
  5
29
330
8
100
AcDbSymbolTableRecord
100
AcDbViewportTableRecord
  2
*Active
 70
     0
 10
0.0
 20
0.0
 11
1.0
 21
1.0
 12
38.76289246044342
 22
-0.4209726514049095
 13
0.0
 23
0.0
 14
10.0
 24
10.0
 15
10.0
 25
10.0
 16
0.0
 26
0.0
 36
1.0
 17
0.0
 27
0.0
 37
0.0
 40
87.03948200805482
 41
2.283154121863799
 42
50.0
 43
0.0
 44
0.0
 50
0.0
 51
0.0
 71
    16
 72
   100
 73
     1
 74
     3
 75
     0
 76
     0
 77
     0
 78
     0
281
     0
 65
     1
110
0.0
120
0.0
130
0.0
111
1.0
121
0.0
131
0.0
112
0.0
122
1.0
132
0.0
 79
     0
146
0.0
1001
ACAD_NAV_VCDISPLAY
1070
     3
  0
ENDTAB
  0
TABLE
  2
LTYPE
  5
5
330
0
100
AcDbSymbolTable
 70
    11
  0
LTYPE
  5
14
330
5
100
AcDbSymbolTableRecord
100
AcDbLinetypeTableRecord
  2
ByBlock
 70
     0
  3

 72
    65
 73
     0
 40
0.0
  0
LTYPE
  5
15
330
5
100
AcDbSymbolTableRecord
100
AcDbLinetypeTableRecord
  2
ByLayer
 70
     0
  3

 72
    65
 73
     0
 40
0.0
  0
LTYPE
  5
16
330
5
100
AcDbSymbolTableRecord
100
AcDbLinetypeTableRecord
  2
Continuous
 70
     0
  3
Solid line
 72
    65
 73
     0
 40
0.0
  0
LTYPE
  5
45
330
5
100
AcDbSymbolTableRecord
100
AcDbLinetypeTableRecord
  2
phl_thick
 70
     0
  3
THICK
 72
    65
 73
     0
 40
0.0
  0
LTYPE
  5
48
330
5
100
AcDbSymbolTableRecord
100
AcDbLinetypeTableRecord
  2
CUT
 70
     0
  3
THICK
 72
    65
 73
     0
 40
0.0
  0
LTYPE
  5
4B
330
5
100
AcDbSymbolTableRecord
100
AcDbLinetypeTableRecord
  2
SKVIEW1
 70
     0
  3
THICK
 72
    65
 73
     0
 40
0.0
  0
LTYPE
  5
51
330
5
100
AcDbSymbolTableRecord
100
AcDbLinetypeTableRecord
  2
ls_SKVIEW2
 70
     0
  3
THIN
 72
    65
 73
     0
 40
0.0
  0
LTYPE
  5
F9
330
5
100
AcDbSymbolTableRecord
100
AcDbLinetypeTableRecord
  2
ls_SK2
 70
     0
  3
THIN
 72
    65
 73
     0
 40
0.0
  0
LTYPE
  5
13F
330
5
100
AcDbSymbolTableRecord
100
AcDbLinetypeTableRecord
  2
ls1
 70
     0
  3
THICK
 72
    65
 73
     0
 40
0.0
  0
LTYPE
  5
14B
330
5
100
AcDbSymbolTableRecord
100
AcDbLinetypeTableRecord
  2
INFTOTAL
 70
     0
  3
THIN
 72
    65
 73
     0
 40
0.0
  0
LTYPE
  5
677
330
5
100
AcDbSymbolTableRecord
100
AcDbLinetypeTableRecord
  2
CENTER
 70
     0
  3
Center ____ _ ____ _ ____ _ ____ _ ____ _ ____
 72
    65
 73
     4
 40
10.16
 49
6.349999999999997
 74
     0
 49
-1.27
 74
     0
 49
1.27
 74
     0
 49
-1.27
 74
     0
  0
LTYPE
  5
822
330
5
100
AcDbSymbolTableRecord
100
AcDbLinetypeTableRecord
  2
AM_DIN_G_W050
 70
     0
  3
____ . ____ . ____ . ____ . ____ . ____ . ____
 72
    65
 73
     4
 40
13.75
 49
9.75
 74
     0
 49
-1.5
 74
     0
 49
1.0
 74
     0
 49
-1.5
 74
     0
  0
ENDTAB
  0
TABLE
  2
LAYER
  5
2
102
{ACAD_XDICTIONARY
360
470
102
}
330
0
100
AcDbSymbolTable
 70
    11
  0
LAYER
  5
10
102
{ACAD_XDICTIONARY
360
929
102
}
330
2
100
AcDbSymbolTableRecord
100
AcDbLayerTableRecord
  2
0
 70
     0
 62
     7
  6
Continuous
370
    -3
390
F
  0
LAYER
  5
44
102
{ACAD_XDICTIONARY
360
92B
102
}
330
2
100
AcDbSymbolTableRecord
100
AcDbLayerTableRecord
  2
1
 70
     0
 62
     4
  6
Continuous
370
    -3
390
F
  0
LAYER
  5
47
102
{ACAD_XDICTIONARY
360
92D
102
}
330
2
100
AcDbSymbolTableRecord
100
AcDbLayerTableRecord
  2
CUT
 70
     0
 62
     1
  6
Continuous
370
    -3
390
F
  0
LAYER
  5
14A
102
{ACAD_XDICTIONARY
360
92F
102
}
330
2
100
AcDbSymbolTableRecord
100
AcDbLayerTableRecord
  2
INFTOTAL
 70
     0
 62
     9
  6
Continuous
370
    -3
390
F
  0
LAYER
  5
5AF
102
{ACAD_XDICTIONARY
360
5B0
102
}
330
2
100
AcDbSymbolTableRecord
100
AcDbLayerTableRecord
  2
2
 70
     0
 62
     7
  6
Continuous
370
    -3
390
F
  0
LAYER
  5
673
102
{ACAD_XDICTIONARY
360
674
102
}
330
2
100
AcDbSymbolTableRecord
100
AcDbLayerTableRecord
  2
SK4
 70
     0
 62
     2
  6
CENTER
370
    -3
390
F
  0
LAYER
  5
6A0
102
{ACAD_XDICTIONARY
360
6A1
102
}
330
2
100
AcDbSymbolTableRecord
100
AcDbLayerTableRecord
  2
4
 70
     0
 62
     2
  6
CENTER
370
    -3
390
F
  0
LAYER
  5
759
102
{ACAD_XDICTIONARY
360
75A
102
}
330
2
100
AcDbSymbolTableRecord
100
AcDbLayerTableRecord
  2
SK1
 70
     0
 62
     4
  6
Continuous
370
    -3
390
F
  0
LAYER
  5
7B1
102
{ACAD_XDICTIONARY
360
931
102
}
330
2
100
AcDbSymbolTableRecord
100
AcDbLayerTableRecord
  2
SKVIEW1
 70
     0
 62
     4
  6
ByBlock
370
    -3
390
F
  0
LAYER
  5
7E7
102
{ACAD_XDICTIONARY
360
933
102
}
330
2
100
AcDbSymbolTableRecord
100
AcDbLayerTableRecord
  2
SKVIEW2
 70
     0
 62
     7
  6
ByBlock
370
    -3
390
F
  0
LAYER
  5
820
102
{ACAD_XDICTIONARY
360
935
102
}
330
2
100
AcDbSymbolTableRecord
100
AcDbLayerTableRecord
  2
SKVIEW4
 70
     0
 62
     2
  6
CENTER
370
    -3
390
F
  0
ENDTAB
  0
TABLE
  2
STYLE
  5
3
330
0
100
AcDbSymbolTable
 70
     3
  0
STYLE
  5
11
330
3
100
AcDbSymbolTableRecord
100
AcDbTextStyleTableRecord
  2
Standard
 70
     0
 40
0.0
 41
1.0
 50
0.0
 71
     0
 42
2.5
  3
Monospac821 BT
  4

  0
STYLE
  5
442
330
3
100
AcDbSymbolTableRecord
100
AcDbTextStyleTableRecord
  2
BMG_TEXT
 70
     0
 40
3.5
 41
1.0
 50
0.0
 71
     0
 42
2.5
  3
Monos.ttf
  4

1001
ACAD
1000
Monospac821 BT
1071
       49
  0
STYLE
  5
7B5
330
3
100
AcDbSymbolTableRecord
100
AcDbTextStyleTableRecord
  2
MX_NOTE_STANDARD
 70
     0
 40
0.0
 41
1.0
 50
0.0
 71
     0
 42
2.5
  3
txt.shx
  4
extfont.shx
  0
ENDTAB
  0
TABLE
  2
VIEW
  5
6
330
0
100
AcDbSymbolTable
 70
     0
  0
ENDTAB
  0
TABLE
  2
UCS
  5
7
330
0
100
AcDbSymbolTable
 70
     0
  0
ENDTAB
  0
TABLE
  2
APPID
  5
9
330
0
100
AcDbSymbolTable
 70
     8
  0
APPID
  5
12
330
9
100
AcDbSymbolTableRecord
100
AcDbRegAppTableRecord
  2
ACAD
 70
     0
  0
APPID
  5
3F
330
9
100
AcDbSymbolTableRecord
100
AcDbRegAppTableRecord
  2
ccLab
 70
     0
  0
APPID
  5
443
330
9
100
AcDbSymbolTableRecord
100
AcDbRegAppTableRecord
  2
ACAD_NAV_VCDISPLAY
 70
     0
  0
APPID
  5
4F8
330
9
100
AcDbSymbolTableRecord
100
AcDbRegAppTableRecord
  2
ACAD_DSTYLE_DIMRADIAL_EXTENSION
 70
     0
  0
APPID
  5
5B6
330
9
100
AcDbSymbolTableRecord
100
AcDbRegAppTableRecord
  2
ACAD_DSTYLE_DIMINSPECT
 70
     0
  0
APPID
  5
AC6
330
9
100
AcDbSymbolTableRecord
100
AcDbRegAppTableRecord
  2
ACAD_EXEMPT_FROM_CAD_STANDARDS
 70
     0
  0
APPID
  5
CFD
330
9
100
AcDbSymbolTableRecord
100
AcDbRegAppTableRecord
  2
AcadAnnoMonitorAlertIconDisabled
 70
     0
  0
APPID
  5
D7F
330
9
100
AcDbSymbolTableRecord
100
AcDbRegAppTableRecord
  2
ACAD_MLEADERVER
 70
     0
  0
ENDTAB
  0
TABLE
  2
DIMSTYLE
  5
A
330
0
100
AcDbSymbolTable
 70
     3
100
AcDbDimStyleTable
 71
     1
340
27
  0
DIMSTYLE
105
27
102
{ACAD_REACTORS
330
6DE
330
705
330
714
330
BF3
330
C0F
330
CCB
102
}
330
A
100
AcDbSymbolTableRecord
100
AcDbDimStyleTableRecord
  2
ISO-25
 70
     0
 41
2.5
 42
0.625
 43
3.75
 44
1.25
 73
     0
 74
     0
 77
     1
 78
     8
140
2.5
141
2.5
143
0.03937007874016
147
0.625
171
     3
172
     1
271
     2
272
     2
274
     3
278
    44
283
     0
284
     8
340
11
  0
DIMSTYLE
105
7B4
330
A
100
AcDbSymbolTableRecord
100
AcDbDimStyleTableRecord
  2
MXDIMSTYLE
 70
     0
 41
2.5
 42
0.5
 43
3.75
 44
1.0
 73
     0
 74
     0
 77
     1
 78
     8
140
3.0
141
2.5
143
0.03937
147
1.0
171
     4
172
     1
173
     1
271
     2
272
     2
274
     4
283
     0
288
     1
340
7B5
341
7B6
343
7B6
344
7B6
  0
ENDTAB
  0
TABLE
  2
BLOCK_RECORD
  5
1
330
0
100
AcDbSymbolTable
 70
    24
  0
BLOCK_RECORD
  5
1F
330
1
100
AcDbSymbolTableRecord
100
AcDbBlockTableRecord
  2
*Model_Space
340
22
  0
BLOCK_RECORD
  5
1B
330
1
100
AcDbSymbolTableRecord
100
AcDbBlockTableRecord
  2
*Paper_Space
340
1E
  0
BLOCK_RECORD
  5
23
330
1
100
AcDbSymbolTableRecord
100
AcDbBlockTableRecord
  2
*Paper_Space0
340
26
  0
BLOCK_RECORD
  5
3DF
330
1
100
AcDbSymbolTableRecord
100
AcDbBlockTableRecord
  2
*D1
340
0
  0
BLOCK_RECORD
  5
4CC
330
1
100
AcDbSymbolTableRecord
100
AcDbBlockTableRecord
  2
*D2
340
0
  0
BLOCK_RECORD
  5
4DB
330
1
100
AcDbSymbolTableRecord
100
AcDbBlockTableRecord
  2
*D3
340
0
  0
BLOCK_RECORD
  5
4EC
330
1
100
AcDbSymbolTableRecord
100
AcDbBlockTableRecord
  2
*D4
340
0
  0
BLOCK_RECORD
  5
4FC
330
1
100
AcDbSymbolTableRecord
100
AcDbBlockTableRecord
  2
*D5
340
0
  0
BLOCK_RECORD
  5
508
330
1
100
AcDbSymbolTableRecord
100
AcDbBlockTableRecord
  2
*D6
340
0
  0
BLOCK_RECORD
  5
5D7
330
1
100
AcDbSymbolTableRecord
100
AcDbBlockTableRecord
  2
*D7
340
0
  0
BLOCK_RECORD
  5
5E8
330
1
100
AcDbSymbolTableRecord
100
AcDbBlockTableRecord
  2
*D8
340
0
  0
BLOCK_RECORD
  5
620
330
1
100
AcDbSymbolTableRecord
100
AcDbBlockTableRecord
  2
*D9
340
0
  0
BLOCK_RECORD
  5
630
330
1
100
AcDbSymbolTableRecord
100
AcDbBlockTableRecord
  2
*D10
340
0
  0
BLOCK_RECORD
  5
6D0
330
1
100
AcDbSymbolTableRecord
100
AcDbBlockTableRecord
  2
*D11
340
0
  0
BLOCK_RECORD
  5
6E1
330
1
100
AcDbSymbolTableRecord
100
AcDbBlockTableRecord
  2
*D12
340
0
  0
BLOCK_RECORD
  5
6F0
330
1
100
AcDbSymbolTableRecord
100
AcDbBlockTableRecord
  2
*D13
340
0
  0
BLOCK_RECORD
  5
6FC
330
1
100
AcDbSymbolTableRecord
100
AcDbBlockTableRecord
  2
*D14
340
0
  0
BLOCK_RECORD
  5
708
330
1
100
AcDbSymbolTableRecord
100
AcDbBlockTableRecord
  2
*D15
340
0
  0
BLOCK_RECORD
  5
717
330
1
100
AcDbSymbolTableRecord
100
AcDbBlockTableRecord
  2
*D16
340
0
  0
BLOCK_RECORD
  5
7B6
330
1
100
AcDbSymbolTableRecord
100
AcDbBlockTableRecord
  2
_OPEN30
340
0
  0
BLOCK_RECORD
  5
BBF
330
1
100
AcDbSymbolTableRecord
100
AcDbBlockTableRecord
  2
*D18
340
0
  0
BLOCK_RECORD
  5
BF4
330
1
100
AcDbSymbolTableRecord
100
AcDbBlockTableRecord
  2
*D19
340
0
  0
BLOCK_RECORD
  5
C10
330
1
100
AcDbSymbolTableRecord
100
AcDbBlockTableRecord
  2
*D20
340
0
  0
BLOCK_RECORD
  5
C9A
330
1
100
AcDbSymbolTableRecord
100
AcDbBlockTableRecord
  2
*D21
340
0
  0
BLOCK_RECORD
  5
CCC
330
1
100
AcDbSymbolTableRecord
100
AcDbBlockTableRecord
  2
*D22
340
0
  0
ENDTAB
  0
ENDSEC
  0
SECTION
  2
BLOCKS
  0
BLOCK
  5
20
330
1F
100
AcDbEntity
  8
0
100
AcDbBlockBegin
  2
*Model_Space
 70
     0
 10
0.0
 20
0.0
 30
0.0
  3
*Model_Space
  1

  0
ENDBLK
  5
21
330
1F
100
AcDbEntity
  8
0
100
AcDbBlockEnd
  0
BLOCK
  5
1C
330
1B
100
AcDbEntity
 67
     1
  8
0
100
AcDbBlockBegin
  2
*Paper_Space
 70
     0
 10
0.0
 20
0.0
 30
0.0
  3
*Paper_Space
  1

  0
ENDBLK
  5
1D
330
1B
100
AcDbEntity
 67
     1
  8
0
100
AcDbBlockEnd
  0
BLOCK
  5
24
330
23
100
AcDbEntity
 67
     1
  8
0
100
AcDbBlockBegin
  2
*Paper_Space0
 70
     0
 10
0.0
 20
0.0
 30
0.0
  3
*Paper_Space0
  1

  0
ENDBLK
  5
25
330
23
100
AcDbEntity
 67
     1
  8
0
100
AcDbBlockEnd
  0
BLOCK
  5
3E0
330
3DF
100
AcDbEntity
  8
0
100
AcDbBlockBegin
  2
*D1
 70
     1
 10
0.0
 20
0.0
 30
0.0
  3
*D1
  1

  0
LINE
  5
3E2
330
3DF
100
AcDbEntity
  8
0
 62
     0
370
    -2
100
AcDbLine
 10
21.30099661597363
 20
5.276711841531747
 30
0.0
 11
21.30099661597363
 21
13.64718688895714
 31
0.0
  0
LINE
  5
3E3
330
3DF
100
AcDbEntity
  8
0
 62
     0
370
    -2
100
AcDbLine
 10
18.70000000000001
 20
5.189434722714266
 30
0.0
 11
18.70000000000001
 21
13.64718688895714
 31
0.0
  0
LINE
  5
3E4
330
3DF
100
AcDbEntity
  8
0
 62
     0
370
    -2
100
AcDbLine
 10
21.30099661597363
 20
12.39718688895714
 30
0.0
 11
33.64349661597363
 21
12.39718688895714
 31
0.0
  0
LINE
  5
3E5
330
3DF
100
AcDbEntity
  8
0
 62
     0
370
    -2
100
AcDbLine
 10
21.30099661597363
 20
12.39718688895714
 30
0.0
 11
18.70000000000001
 21
12.39718688895714
 31
0.0
  0
LINE
  5
3E6
330
3DF
100
AcDbEntity
  8
0
 62
     0
370
    -2
100
AcDbLine
 10
23.80099661597363
 20
12.39718688895714
 30
0.0
 11
26.30099661597363
 21
12.39718688895714
 31
0.0
  0
LINE
  5
3E7
330
3DF
100
AcDbEntity
  8
0
 62
     0
370
    -2
100
AcDbLine
 10
16.20000000000001
 20
12.39718688895714
 30
0.0
 11
13.70000000000001
 21
12.39718688895714
 31
0.0
  0
SOLID
  5
3E8
330
3DF
100
AcDbEntity
  8
0
 62
     0
100
AcDbTrace
 10
23.80099661597363
 20
12.8138535556238
 30
0.0
 11
23.80099661597363
 21
11.98052022229047
 31
0.0
 12
21.30099661597363
 22
12.39718688895714
 32
0.0
 13
21.30099661597363
 23
12.39718688895714
 33
0.0
  0
SOLID
  5
3E9
330
3DF
100
AcDbEntity
  8
0
 62
     0
100
AcDbTrace
 10
16.20000000000001
 20
11.98052022229047
 30
0.0
 11
16.20000000000001
 21
12.8138535556238
 31
0.0
 12
18.70000000000001
 22
12.39718688895714
 32
0.0
 13
18.70000000000001
 23
12.39718688895714
 33
0.0
  0
MTEXT
  5
3EA
330
3DF
100
AcDbEntity
  8
0
 62
     0
100
AcDbMText
 10
29.97224661597363
 20
14.64343688895714
 30
0.0
 40
2.5
 41
0.0
 71
     5
 72
     1
  1
2,6
 73
     1
 44
1.0
1001
ACAD
1000
MTEXTBEGIN
1070
    73
1070
     1
1070
    44
1040
1.0
1070
    74
1070
     0
1000
MTEXTEND
  0
ENDBLK
  5
3E1
330
3DF
100
AcDbEntity
  8
0
100
AcDbBlockEnd
  0
BLOCK
  5
4CD
330
4CC
100
AcDbEntity
  8
0
100
AcDbBlockBegin
  2
*D2
 70
     1
 10
0.0
 20
0.0
 30
0.0
  3
*D2
  1

  0
LINE
  5
4CF
330
4CC
100
AcDbEntity
  8
0
 62
     0
370
    -2
100
AcDbLine
 10
-4.375
 20
-4.99999999999991
 30
0.0
 11
5.807327035936522
 21
-4.999999999999911
 31
0.0
  0
LINE
  5
4D0
330
4CC
100
AcDbEntity
  8
0
 62
     0
370
    -2
100
AcDbLine
 10
-4.374999999999999
 20
4.999999999999769
 30
0.0
 11
5.807327035936522
 21
4.999999999999766
 31
0.0
  0
LINE
  5
4D1
330
4CC
100
AcDbEntity
  8
0
 62
     0
370
    -2
100
AcDbLine
 10
4.557327035936523
 20
-2.499999999999911
 30
0.0
 11
4.557327035936523
 21
2.499999999999765
 31
0.0
  0
SOLID
  5
4D2
330
4CC
100
AcDbEntity
  8
0
 62
     0
100
AcDbTrace
 10
4.140660369269856
 20
-2.499999999999911
 30
0.0
 11
4.97399370260319
 21
-2.499999999999911
 31
0.0
 12
4.557327035936523
 22
-4.999999999999911
 32
0.0
 13
4.557327035936523
 23
-4.999999999999911
 33
0.0
  0
SOLID
  5
4D3
330
4CC
100
AcDbEntity
  8
0
 62
     0
100
AcDbTrace
 10
4.97399370260319
 20
2.499999999999765
 30
0.0
 11
4.140660369269856
 21
2.499999999999765
 31
0.0
 12
4.557327035936525
 22
4.999999999999766
 32
0.0
 13
4.557327035936525
 23
4.999999999999766
 33
0.0
  0
MTEXT
  5
4D4
330
4CC
100
AcDbEntity
  8
0
 62
     0
100
AcDbMText
 10
2.602327035936522
 20
-0.0000000000000716
 30
0.0
 40
2.5
 41
0.0
 71
     5
 72
     1
  1
%%c10
 11
0.0000000000000002
 21
1.0
 31
0.0
 73
     1
 44
1.0
1001
ACAD
1000
MTEXTBEGIN
1070
    73
1070
     1
1070
    44
1040
1.0
1070
    74
1070
     0
1000
MTEXTEND
  0
ENDBLK
  5
4CE
330
4CC
100
AcDbEntity
  8
0
100
AcDbBlockEnd
  0
BLOCK
  5
4DC
330
4DB
100
AcDbEntity
  8
0
100
AcDbBlockBegin
  2
*D3
 70
     1
 10
0.0
 20
0.0
 30
0.0
  3
*D3
  1

  0
LINE
  5
4DE
330
4DB
100
AcDbEntity
  8
0
 62
     0
370
    -2
100
AcDbLine
 10
0.0000000000000048
 20
-4.04140786500004
 30
0.0
 11
0.0000000000000055
 21
-8.357876414791547
 31
0.0
  0
LINE
  5
4DF
330
4DB
100
AcDbEntity
  8
0
 62
     0
370
    -2
100
AcDbLine
 10
-4.999999999999839
 20
-5.624948220013672
 30
0.0
 11
-4.999999999999839
 21
-8.357876414791547
 31
0.0
  0
LINE
  5
4E0
330
4DB
100
AcDbEntity
  8
0
 62
     0
370
    -2
100
AcDbLine
 10
0.0000000000000053
 20
-7.107876414791547
 30
0.0
 11
7.990000000000001
 21
-7.107876414791547
 31
0.0
  0
LINE
  5
4E1
330
4DB
100
AcDbEntity
  8
0
 62
     0
370
    -2
100
AcDbLine
 10
0.0000000000000053
 20
-7.107876414791547
 30
0.0
 11
-4.999999999999839
 21
-7.107876414791547
 31
0.0
  0
LINE
  5
4E2
330
4DB
100
AcDbEntity
  8
0
 62
     0
370
    -2
100
AcDbLine
 10
2.500000000000003
 20
-7.107876414791547
 30
0.0
 11
5.000000000000004
 21
-7.107876414791547
 31
0.0
  0
LINE
  5
4E3
330
4DB
100
AcDbEntity
  8
0
 62
     0
370
    -2
100
AcDbLine
 10
-7.49999999999984
 20
-7.107876414791547
 30
0.0
 11
-9.99999999999984
 21
-7.107876414791547
 31
0.0
  0
SOLID
  5
4E4
330
4DB
100
AcDbEntity
  8
0
 62
     0
100
AcDbTrace
 10
2.500000000000003
 20
-6.691209748124884
 30
0.0
 11
2.500000000000003
 21
-7.524543081458218
 31
0.0
 12
0.0000000000000053
 22
-7.107876414791547
 32
0.0
 13
0.0000000000000053
 23
-7.107876414791547
 33
0.0
  0
SOLID
  5
4E5
330
4DB
100
AcDbEntity
  8
0
 62
     0
100
AcDbTrace
 10
-7.49999999999984
 20
-7.524543081458213
 30
0.0
 11
-7.49999999999984
 21
-6.69120974812488
 31
0.0
 12
-4.999999999999839
 22
-7.107876414791547
 32
0.0
 13
-4.999999999999839
 23
-7.107876414791547
 33
0.0
  0
MTEXT
  5
4E6
330
4DB
100
AcDbEntity
  8
0
 62
     0
100
AcDbMText
 10
6.495000000000002
 20
-5.196626414791547
 30
0.0
 40
2.5
 41
0.0
 71
     5
 72
     1
  1
5
 73
     1
 44
1.0
1001
ACAD
1000
MTEXTBEGIN
1070
    73
1070
     1
1070
    44
1040
1.0
1070
    74
1070
     0
1000
MTEXTEND
  0
ENDBLK
  5
4DD
330
4DB
100
AcDbEntity
  8
0
100
AcDbBlockEnd
  0
BLOCK
  5
4ED
330
4EC
100
AcDbEntity
  8
0
100
AcDbBlockBegin
  2
*D4
 70
     1
 10
0.0
 20
0.0
 30
0.0
  3
*D4
  1

  0
LINE
  5
4EF
330
4EC
100
AcDbEntity
  8
0
 62
     0
370
    -2
100
AcDbLine
 10
0.0000000000000004
 20
4.041407864999959
 30
0.0
 11
-0.0000000000000001
 21
10.29710097817105
 31
0.0
  0
LINE
  5
4F0
330
4EC
100
AcDbEntity
  8
0
 62
     0
370
    -2
100
AcDbLine
 10
-8.5
 20
5.210952145799961
 30
0.0
 11
-8.5
 21
10.29710097817105
 31
0.0
  0
LINE
  5
4F1
330
4EC
100
AcDbEntity
  8
0
 62
     0
370
    -2
100
AcDbLine
 10
0.0
 20
9.047100978171052
 30
0.0
 11
-18.29
 21
9.047100978171055
 31
0.0
  0
LINE
  5
4F2
330
4EC
100
AcDbEntity
  8
0
 62
     0
370
    -2
100
AcDbLine
 10
-2.5
 20
9.047100978171052
 30
0.0
 11
-6.0
 21
9.047100978171052
 31
0.0
  0
SOLID
  5
4F3
330
4EC
100
AcDbEntity
  8
0
 62
     0
100
AcDbTrace
 10
-2.5
 20
8.630434311504386
 30
0.0
 11
-2.5
 21
9.463767644837716
 31
0.0
 12
0.0
 22
9.047100978171052
 32
0.0
 13
0.0
 23
9.047100978171052
 33
0.0
  0
SOLID
  5
4F4
330
4EC
100
AcDbEntity
  8
0
 62
     0
100
AcDbTrace
 10
-6.0
 20
9.463767644837719
 30
0.0
 11
-6.0
 21
8.630434311504387
 31
0.0
 12
-8.5
 22
9.047100978171052
 32
0.0
 13
-8.5
 23
9.047100978171052
 33
0.0
  0
MTEXT
  5
4F5
330
4EC
100
AcDbEntity
  8
0
 62
     0
100
AcDbMText
 10
-14.645
 20
11.29335097817106
 30
0.0
 40
2.5
 41
0.0
 71
     5
 72
     1
  1
8,5
 73
     1
 44
1.0
1001
ACAD
1000
MTEXTBEGIN
1070
    73
1070
     1
1070
    44
1040
1.0
1070
    74
1070
     0
1000
MTEXTEND
  0
ENDBLK
  5
4EE
330
4EC
100
AcDbEntity
  8
0
100
AcDbBlockEnd
  0
BLOCK
  5
4FD
330
4FC
100
AcDbEntity
  8
0
100
AcDbBlockBegin
  2
*D5
 70
     1
 10
0.0
 20
0.0
 30
0.0
  3
*D5
  1

  0
LINE
  5
4FF
330
4FC
100
AcDbEntity
  8
0
 62
     0
370
    -2
100
AcDbLine
 10
-3.368950475502207
 20
7.423824994792527
 30
0.0
 11
-2.324732578948998
 21
18.57877131229665
 31
0.0
  0
MTEXT
  5
500
330
4FC
100
AcDbEntity
  8
0
 62
     0
100
AcDbMText
 10
-4.57217526759971
 20
15.1570952630146
 30
0.0
 40
2.5
 41
0.0
 71
     5
 72
     1
  1
R15
 11
0.0932028299661956
 21
0.9956471425591962
 31
0.0
 73
     1
 44
1.0
1001
ACAD
1000
MTEXTBEGIN
1070
    73
1070
     1
1070
    44
1040
1.0
1070
    74
1070
     0
1000
MTEXTEND
  0
LINE
  5
501
330
4FC
100
AcDbEntity
  8
0
 62
     0
370
    -2
100
AcDbLine
 10
-4.999999999910615
 20
-9.999999999993235
 30
0.0
 11
-3.601957550417696
 21
4.934707138394538
 31
0.0
  0
SOLID
  5
502
330
4FC
100
AcDbEntity
  8
0
 62
     0
100
AcDbTrace
 10
-3.783803451568537
 20
7.462659507278442
 30
0.0
 11
-2.954097499435876
 21
7.384990482306612
 31
0.0
 12
-3.601957550417696
 22
4.934707138394538
 32
0.0
 13
-3.601957550417696
 23
4.934707138394538
 33
0.0
  0
ARC
  5
5A4
330
4FC
100
AcDbEntity
  8
0
 62
     0
370
    -2
100
AcDbCircle
 10
-4.999999999910615
 20
-9.999999999993235
 30
0.0
 40
14.99999999999983
100
AcDbArc
 50
285.8808956961851
 51
89.42814034161058
  0
ENDBLK
  5
4FE
330
4FC
100
AcDbEntity
  8
0
100
AcDbBlockEnd
  0
BLOCK
  5
509
330
508
100
AcDbEntity
  8
0
100
AcDbBlockBegin
  2
*D6
 70
     1
 10
0.0
 20
0.0
 30
0.0
  3
*D6
  1

  0
LINE
  5
50B
330
508
100
AcDbEntity
  8
0
 62
     0
370
    -2
100
AcDbLine
 10
1.16381567289585
 20
6.167389823131227
 30
0.0
 11
5.710034541466817
 21
11.94725649190162
 31
0.0
  0
MTEXT
  5
50C
330
508
100
AcDbEntity
  8
0
 62
     0
100
AcDbMText
 10
2.844784423476508
 20
11.34946926064243
 30
0.0
 40
2.5
 41
0.0
 71
     5
 72
     1
  1
R1
 11
0.6182330493935635
 21
0.7859948451723687
 31
0.0
 73
     1
 44
1.0
1001
ACAD
1000
MTEXTBEGIN
1070
    73
1070
     1
1070
    44
1040
1.0
1070
    74
1070
     0
1000
MTEXTEND
  0
LINE
  5
50D
330
508
100
AcDbEntity
  8
0
 62
     0
370
    -2
100
AcDbLine
 10
-0.9999999999816248
 20
3.416407865027935
 30
0.0
 11
-0.3817669505880584
 21
4.202402710200304
 31
0.0
  0
SOLID
  5
50E
330
508
100
AcDbEntity
  8
0
 62
     0
100
AcDbTrace
 10
0.8363178207406967
 20
6.424986927045214
 30
0.0
 11
1.491313525051004
 21
5.909792719217244
 31
0.0
 12
-0.3817669505880584
 22
4.202402710200304
 32
0.0
 13
-0.3817669505880584
 23
4.202402710200304
 33
0.0
  0
ARC
  5
5A7
330
508
100
AcDbEntity
  8
0
 62
     0
370
    -2
100
AcDbCircle
 10
-0.9999999999816248
 20
3.416407865027935
 30
0.0
 40
1.000000000000005
100
AcDbArc
 50
334.4484082116892
 51
143.5800862717375
  0
ENDBLK
  5
50A
330
508
100
AcDbEntity
  8
0
100
AcDbBlockEnd
  0
BLOCK
  5
5D8
330
5D7
100
AcDbEntity
  8
0
100
AcDbBlockBegin
  2
*D7
 70
     1
 10
0.0
 20
0.0
 30
0.0
  3
*D7
  1

  0
LINE
  5
5D9
330
5D7
100
AcDbEntity
  8
2
 62
     0
370
    -2
100
AcDbLine
 10
-0.0000000000121929
 20
-0.625000000011739
 30
0.0
 11
-0.0000000000121929
 21
-13.27444247487102
 31
0.0
  0
LINE
  5
5DA
330
5D7
100
AcDbEntity
  8
2
 62
     0
370
    -2
100
AcDbLine
 10
8.5
 20
0.5445442807999941
 30
0.0
 11
8.5
 21
-13.27444247487102
 31
0.0
  0
LINE
  5
5DB
330
5D7
100
AcDbEntity
  8
2
 62
     0
370
    -2
100
AcDbLine
 10
-0.0000000000121929
 20
-12.02444247487102
 30
0.0
 11
-24.0019962403495
 21
-12.02444247487102
 31
0.0
  0
LINE
  5
5DC
330
5D7
100
AcDbEntity
  8
2
 62
     0
370
    -2
100
AcDbLine
 10
2.499999999987806
 20
-12.02444247487102
 30
0.0
 11
6.0
 21
-12.02444247487102
 31
0.0
  0
SOLID
  5
5DD
330
5D7
100
AcDbEntity
  8
2
 62
     0
100
AcDbTrace
 10
2.499999999987806
 20
-11.60777580820436
 30
0.0
 11
2.499999999987806
 21
-12.44110914153769
 31
0.0
 12
-0.0000000000121929
 22
-12.02444247487102
 32
0.0
 13
-0.0000000000121929
 23
-12.02444247487102
 33
0.0
  0
SOLID
  5
5DE
330
5D7
100
AcDbEntity
  8
2
 62
     0
100
AcDbTrace
 10
6.0
 20
-12.44110914153769
 30
0.0
 11
6.0
 21
-11.60777580820436
 31
0.0
 12
8.5
 22
-12.02444247487102
 32
0.0
 13
8.5
 23
-12.02444247487102
 33
0.0
  0
MTEXT
  5
5DF
330
5D7
100
AcDbEntity
  8
2
 62
     0
100
AcDbMText
 10
-19.2682462403495
 20
-9.778192474871023
 30
0.0
 40
2.5
 41
0.0
 71
     5
 72
     1
  1
\A1;8,50
 73
     1
 44
1.0
1001
ACAD
1000
MTEXTBEGIN
1070
    73
1070
     1
1070
    44
1040
1.0
1070
    74
1070
     0
1000
MTEXTEND
  0
ENDBLK
  5
5E0
330
5D7
100
AcDbEntity
  8
0
100
AcDbBlockEnd
  0
BLOCK
  5
5E9
330
5E8
100
AcDbEntity
  8
0
100
AcDbBlockBegin
  2
*D8
 70
     1
 10
0.0
 20
0.0
 30
0.0
  3
*D8
  1

  0
LINE
  5
AE5
330
5E8
100
AcDbEntity
  8
SKVIEW2
 62
     0
370
    -2
100
AcDbLine
 10
31.66270099092738
 20
8.468360071673856
 30
0.0
 11
31.66270099092738
 21
16.45221607702704
 31
0.0
  0
LINE
  5
AE6
330
5E8
100
AcDbEntity
  8
SKVIEW2
 62
     0
370
    -2
100
AcDbLine
 10
36.66270099092736
 20
9.400579139061202
 30
0.0
 11
36.66270099092736
 21
16.45221607702704
 31
0.0
  0
LINE
  5
AE7
330
5E8
100
AcDbEntity
  8
SKVIEW2
 62
     0
370
    -2
100
AcDbLine
 10
29.16270099092738
 20
15.20221607702704
 30
0.0
 11
26.66270099092738
 21
15.20221607702704
 31
0.0
  0
LINE
  5
AE8
330
5E8
100
AcDbEntity
  8
SKVIEW2
 62
     0
370
    -2
100
AcDbLine
 10
39.16270099092736
 20
15.20221607702704
 30
0.0
 11
54.46786613498917
 21
15.20221607702704
 31
0.0
  0
LINE
  5
AE9
330
5E8
100
AcDbEntity
  8
SKVIEW2
 62
     0
370
    -2
100
AcDbLine
 10
31.66270099092738
 20
15.20221607702704
 30
0.0
 11
36.66270099092736
 21
15.20221607702704
 31
0.0
  0
SOLID
  5
AEA
330
5E8
100
AcDbEntity
  8
SKVIEW2
 62
     0
100
AcDbTrace
 10
29.16270099092738
 20
15.6188827436937
 30
0.0
 11
29.16270099092738
 21
14.78554941036037
 31
0.0
 12
31.66270099092738
 22
15.20221607702704
 32
0.0
 13
31.66270099092738
 23
15.20221607702704
 33
0.0
  0
SOLID
  5
AEB
330
5E8
100
AcDbEntity
  8
SKVIEW2
 62
     0
100
AcDbTrace
 10
39.16270099092736
 20
15.6188827436937
 30
0.0
 11
39.16270099092736
 21
14.78554941036037
 31
0.0
 12
36.66270099092736
 22
15.20221607702704
 32
0.0
 13
36.66270099092736
 23
15.20221607702704
 33
0.0
  0
MTEXT
  5
AEC
330
5E8
100
AcDbEntity
  8
SKVIEW2
 62
     0
100
AcDbMText
 10
48.06528356295827
 20
18.09741987182676
 30
0.0
 40
3.5
 41
0.0
 71
     5
 72
     1
  1
\A1;5,00
  7
BMG_TEXT
 73
     1
 44
1.0
1001
ACAD
1000
MTEXTBEGIN
1070
    73
1070
     1
1070
    44
1040
1.0
1070
    74
1070
     0
1000
MTEXTEND
  0
ENDBLK
  5
5EA
330
5E8
100
AcDbEntity
  8
0
100
AcDbBlockEnd
  0
BLOCK
  5
621
330
620
100
AcDbEntity
  8
0
100
AcDbBlockBegin
  2
*D9
 70
     1
 10
0.0
 20
0.0
 30
0.0
  3
*D9
  1

  0
ENDBLK
  5
628
330
620
100
AcDbEntity
  8
0
100
AcDbBlockEnd
  0
BLOCK
  5
631
330
630
100
AcDbEntity
  8
0
100
AcDbBlockBegin
  2
*D10
 70
     1
 10
0.0
 20
0.0
 30
0.0
  3
*D10
  1

  0
ENDBLK
  5
632
330
630
100
AcDbEntity
  8
0
100
AcDbBlockEnd
  0
BLOCK
  5
6D1
330
6D0
100
AcDbEntity
  8
0
100
AcDbBlockBegin
  2
*D11
 70
     1
 10
0.0
 20
0.0
 30
0.0
  3
*D11
  1

  0
LINE
  5
6D3
330
6D0
100
AcDbEntity
  8
0
 62
     0
370
    -2
100
AcDbLine
 10
0.0000000000183802
 20
4.041407865033225
 30
0.0
 11
0.0000000000183799
 21
11.2868084874276
 31
0.0
  0
LINE
  5
6D4
330
6D0
100
AcDbEntity
  8
0
 62
     0
370
    -2
100
AcDbLine
 10
-4.999999999999833
 20
5.624948220013679
 30
0.0
 11
-4.999999999999833
 21
11.2868084874276
 31
0.0
  0
LINE
  5
6D5
330
6D0
100
AcDbEntity
  8
0
 62
     0
370
    -2
100
AcDbLine
 10
0.00000000001838
 20
10.0368084874276
 30
0.0
 11
-4.999999999999833
 21
10.0368084874276
 31
0.0
  0
LINE
  5
6D6
330
6D0
100
AcDbEntity
  8
0
 62
     0
370
    -2
100
AcDbLine
 10
2.500000000018375
 20
10.0368084874276
 30
0.0
 11
5.000000000018379
 21
10.0368084874276
 31
0.0
  0
LINE
  5
6D7
330
6D0
100
AcDbEntity
  8
0
 62
     0
370
    -2
100
AcDbLine
 10
-7.499999999999837
 20
10.0368084874276
 30
0.0
 11
-9.999999999999838
 21
10.0368084874276
 31
0.0
  0
SOLID
  5
6D8
330
6D0
100
AcDbEntity
  8
0
 62
     0
100
AcDbTrace
 10
2.500000000018375
 20
10.45347515409427
 30
0.0
 11
2.500000000018375
 21
9.620141820760935
 31
0.0
 12
0.00000000001838
 22
10.0368084874276
 32
0.0
 13
0.00000000001838
 23
10.0368084874276
 33
0.0
  0
SOLID
  5
6D9
330
6D0
100
AcDbEntity
  8
0
 62
     0
100
AcDbTrace
 10
-7.499999999999837
 20
9.620141820760935
 30
0.0
 11
-7.499999999999837
 21
10.45347515409427
 31
0.0
 12
-4.999999999999833
 22
10.0368084874276
 32
0.0
 13
-4.999999999999833
 23
10.0368084874276
 33
0.0
  0
MTEXT
  5
6DA
330
6D0
100
AcDbEntity
  8
0
 62
     0
100
AcDbMText
 10
-2.499999999990729
 20
12.4625584874276
 30
0.0
 40
3.5
 41
0.0
 71
     5
 72
     1
  1
5
  7
BMG_TEXT
 73
     1
 44
1.0
1001
ACAD
1000
MTEXTBEGIN
1070
    73
1070
     1
1070
    44
1040
1.0
1070
    74
1070
     0
1000
MTEXTEND
  0
ENDBLK
  5
6D2
330
6D0
100
AcDbEntity
  8
0
100
AcDbBlockEnd
  0
BLOCK
  5
6E2
330
6E1
100
AcDbEntity
  8
0
100
AcDbBlockBegin
  2
*D12
 70
     1
 10
0.0
 20
0.0
 30
0.0
  3
*D12
  1

  0
LINE
  5
C8D
330
6E1
100
AcDbEntity
  8
2
 62
     0
370
    -2
100
AcDbLine
 10
5.624997549397886
 20
10.00000000252967
 30
0.0
 11
26.24343407957111
 21
10.00000000252967
 31
0.0
  0
LINE
  5
C8E
330
6E1
100
AcDbEntity
  8
2
 62
     0
370
    -2
100
AcDbLine
 10
5.625000000015721
 20
-10.00169704343512
 30
0.0
 11
26.24343407957111
 21
-10.00169704343512
 31
0.0
  0
LINE
  5
C8F
330
6E1
100
AcDbEntity
  8
2
 62
     0
370
    -2
100
AcDbLine
 10
24.99343407957111
 20
-7.501697043435116
 30
0.0
 11
24.99343407957111
 21
7.500000002529672
 31
0.0
  0
LINE
  5
C90
330
6E1
100
AcDbEntity
  8
2
 62
     0
370
    -2
100
AcDbLine
 10
24.99343407957111
 20
10.00000000252967
 30
0.0
 11
24.9934340795711
 21
31.77463838200658
 31
0.0
  0
SOLID
  5
C91
330
6E1
100
AcDbEntity
  8
2
 62
     0
100
AcDbTrace
 10
24.57676741290445
 20
-7.501697043435116
 30
0.0
 11
25.41010074623779
 21
-7.501697043435116
 31
0.0
 12
24.99343407957111
 22
-10.00169704343512
 32
0.0
 13
24.99343407957111
 23
-10.00169704343512
 33
0.0
  0
SOLID
  5
C92
330
6E1
100
AcDbEntity
  8
2
 62
     0
100
AcDbTrace
 10
24.57676741290445
 20
7.500000002529672
 30
0.0
 11
25.41010074623779
 21
7.500000002529672
 31
0.0
 12
24.99343407957111
 22
10.00000000252967
 32
0.0
 13
24.99343407957111
 23
10.00000000252967
 33
0.0
  0
MTEXT
  5
C93
330
6E1
100
AcDbEntity
  8
2
 62
     0
100
AcDbMText
 10
22.05149802897377
 20
22.27296937287093
 30
0.0
 40
3.5
 41
0.0
 71
     5
 72
     1
  1
%%c20,00
  7
BMG_TEXT
 11
0.0000000000000001
 21
1.0
 31
0.0
 73
     1
 44
1.0
1001
ACAD
1000
MTEXTBEGIN
1070
    73
1070
     1
1070
    44
1040
1.0
1070
    74
1070
     0
1000
MTEXTEND
  0
ENDBLK
  5
6E3
330
6E1
100
AcDbEntity
  8
0
100
AcDbBlockEnd
  0
BLOCK
  5
6F1
330
6F0
100
AcDbEntity
  8
0
100
AcDbBlockBegin
  2
*D13
 70
     1
 10
0.0
 20
0.0
 30
0.0
  3
*D13
  1

  0
LINE
  5
6F3
330
6F0
100
AcDbEntity
  8
2
 62
     0
370
    -2
100
AcDbLine
 10
2.222108790613098
 20
7.453280323680512
 30
0.0
 11
1.336676227155676
 21
19.54640892737812
 31
0.0
  0
MTEXT
  5
6F4
330
6F0
100
AcDbEntity
  8
2
 62
     0
100
AcDbMText
 10
4.117860518981828
 20
14.92440821773955
 30
0.0
 40
3.5
 41
0.0
 71
     5
 72
     1
  1
R15
  7
BMG_TEXT
 11
0.0730223548272171
 21
-0.9973303042099384
 31
0.0
 73
     1
 44
1.0
1001
ACAD
1000
MTEXTBEGIN
1070
    73
1070
     1
1070
    44
1040
1.0
1070
    74
1070
     0
1000
MTEXTEND
  0
LINE
  5
6F5
330
6F0
100
AcDbEntity
  8
2
 62
     0
370
    -2
100
AcDbLine
 10
3.500000000089383
 20
-9.999999999993235
 30
0.0
 11
2.404664677681141
 21
4.959954563155669
 31
0.0
  0
SOLID
  5
6F6
330
6F0
100
AcDbEntity
  8
2
 62
     0
100
AcDbTrace
 10
1.80655449719229
 20
7.422854342502508
 30
0.0
 11
2.637663084033904
 21
7.483706304858522
 31
0.0
 12
2.404664677681141
 22
4.959954563155669
 32
0.0
 13
2.404664677681141
 23
4.959954563155669
 33
0.0
  0
ENDBLK
  5
6F2
330
6F0
100
AcDbEntity
  8
0
100
AcDbBlockEnd
  0
BLOCK
  5
6FD
330
6FC
100
AcDbEntity
  8
0
100
AcDbBlockBegin
  2
*D14
 70
     1
 10
0.0
 20
0.0
 30
0.0
  3
*D14
  1

  0
LINE
  5
6FF
330
6FC
100
AcDbEntity
  8
2
 62
     0
370
    -2
100
AcDbLine
 10
9.658515575599738
 20
6.171550422133227
 30
0.0
 11
14.7621714743779
 21
12.68588820251175
 31
0.0
  0
MTEXT
  5
700
330
6FC
100
AcDbEntity
  8
2
 62
     0
100
AcDbMText
 10
11.10341549627511
 20
11.88388134144562
 30
0.0
 40
3.5
 41
0.0
 71
     5
 72
     1
  1
R1
  7
BMG_TEXT
 11
0.6167187358803891
 21
0.7871835877443682
 31
0.0
 73
     1
 44
1.0
1001
ACAD
1000
MTEXTBEGIN
1070
    73
1070
     1
1070
    44
1040
1.0
1070
    74
1070
     0
1000
MTEXTEND
  0
LINE
  5
701
330
6FC
100
AcDbEntity
  8
2
 62
     0
370
    -2
100
AcDbLine
 10
7.500000000018372
 20
3.416407865027935
 30
0.0
 11
8.116718735898766
 21
4.203591452772307
 31
0.0
  0
SOLID
  5
702
330
6FC
100
AcDbEntity
  8
2
 62
     0
100
AcDbTrace
 10
9.330522414039585
 20
6.428516562083387
 30
0.0
 11
9.986508737159892
 21
5.914584282183063
 31
0.0
 12
8.116718735898766
 22
4.203591452772307
 32
0.0
 13
8.116718735898766
 23
4.203591452772307
 33
0.0
  0
ENDBLK
  5
6FE
330
6FC
100
AcDbEntity
  8
0
100
AcDbBlockEnd
  0
BLOCK
  5
709
330
708
100
AcDbEntity
  8
0
100
AcDbBlockBegin
  2
*D15
 70
     1
 10
0.0
 20
0.0
 30
0.0
  3
*D15
  1

  0
LINE
  5
BDF
330
708
100
AcDbEntity
  8
2
 62
     0
370
    -2
100
AcDbLine
 10
-0.0000000000000071
 20
-5.167401293153922
 30
0.0
 11
-0.0000000000000084
 21
-25.54719465562812
 31
0.0
  0
LINE
  5
BE0
330
708
100
AcDbEntity
  8
2
 62
     0
370
    -2
100
AcDbLine
 10
14.99999754939788
 20
-0.6250000172704448
 30
0.0
 11
14.99999754939788
 21
-25.54719465562812
 31
0.0
  0
LINE
  5
BE1
330
708
100
AcDbEntity
  8
2
 62
     0
370
    -2
100
AcDbLine
 10
2.49999999999999
 20
-24.29719465562812
 30
0.0
 11
12.49999754939788
 21
-24.29719465562812
 31
0.0
  0
LINE
  5
BE2
330
708
100
AcDbEntity
  8
2
 62
     0
370
    -2
100
AcDbLine
 10
14.99999754939788
 20
-24.29719465562812
 30
0.0
 11
32.99595679043795
 21
-24.29719465562812
 31
0.0
  0
SOLID
  5
BE3
330
708
100
AcDbEntity
  8
2
 62
     0
100
AcDbTrace
 10
2.49999999999999
 20
-23.88052798896145
 30
0.0
 11
2.49999999999999
 21
-24.71386132229479
 31
0.0
 12
-0.0000000000000083
 22
-24.29719465562812
 32
0.0
 13
-0.0000000000000083
 23
-24.29719465562812
 33
0.0
  0
SOLID
  5
BE4
330
708
100
AcDbEntity
  8
2
 62
     0
100
AcDbTrace
 10
12.49999754939788
 20
-23.88052798896145
 30
0.0
 11
12.49999754939788
 21
-24.71386132229479
 31
0.0
 12
14.99999754939788
 22
-24.29719465562812
 32
0.0
 13
14.99999754939788
 23
-24.29719465562812
 33
0.0
  0
MTEXT
  5
BE5
330
708
100
AcDbEntity
  8
2
 62
     0
100
AcDbMText
 10
25.24797716991792
 20
-21.4019908608284
 30
0.0
 40
3.5
 41
0.0
 71
     5
 72
     1
  1
15,00
  7
BMG_TEXT
 73
     1
 44
1.0
1001
ACAD
1000
MTEXTBEGIN
1070
    73
1070
     1
1070
    44
1040
1.0
1070
    74
1070
     0
1000
MTEXTEND
  0
ENDBLK
  5
70A
330
708
100
AcDbEntity
  8
0
100
AcDbBlockEnd
  0
BLOCK
  5
718
330
717
100
AcDbEntity
  8
0
100
AcDbBlockBegin
  2
*D16
 70
     1
 10
0.0
 20
0.0
 30
0.0
  3
*D16
  1

  0
LINE
  5
BE9
330
717
100
AcDbEntity
  8
2
 62
     0
370
    -2
100
AcDbLine
 10
5.000000000014812
 20
-12.27877697517739
 30
0.0
 11
5.000000000014812
 21
-17.65627287142997
 31
0.0
  0
LINE
  5
BEA
330
717
100
AcDbEntity
  8
2
 62
     0
370
    -2
100
AcDbLine
 10
14.99999754939788
 20
-0.6250000172704448
 30
0.0
 11
14.99999754939788
 21
-17.65627287142997
 31
0.0
  0
LINE
  5
BEB
330
717
100
AcDbEntity
  8
2
 62
     0
370
    -2
100
AcDbLine
 10
7.500000000014813
 20
-16.40627287142997
 30
0.0
 11
12.49999754939788
 21
-16.40627287142997
 31
0.0
  0
LINE
  5
BEC
330
717
100
AcDbEntity
  8
2
 62
     0
370
    -2
100
AcDbLine
 10
14.99999754939788
 20
-16.40627287142997
 30
0.0
 11
32.99595679043795
 21
-16.40627287142997
 31
0.0
  0
SOLID
  5
BED
330
717
100
AcDbEntity
  8
2
 62
     0
100
AcDbTrace
 10
7.500000000014813
 20
-15.9896062047633
 30
0.0
 11
7.500000000014813
 21
-16.82293953809663
 31
0.0
 12
5.000000000014812
 22
-16.40627287142997
 32
0.0
 13
5.000000000014812
 23
-16.40627287142997
 33
0.0
  0
SOLID
  5
BEE
330
717
100
AcDbEntity
  8
2
 62
     0
100
AcDbTrace
 10
12.49999754939788
 20
-15.9896062047633
 30
0.0
 11
12.49999754939788
 21
-16.82293953809663
 31
0.0
 12
14.99999754939788
 22
-16.40627287142997
 32
0.0
 13
14.99999754939788
 23
-16.40627287142997
 33
0.0
  0
MTEXT
  5
BEF
330
717
100
AcDbEntity
  8
2
 62
     0
100
AcDbMText
 10
25.24797716991792
 20
-13.51106907663025
 30
0.0
 40
3.5
 41
0.0
 71
     5
 72
     1
  1
10,00
  7
BMG_TEXT
 73
     1
 44
1.0
1001
ACAD
1000
MTEXTBEGIN
1070
    73
1070
     1
1070
    44
1040
1.0
1070
    74
1070
     0
1000
MTEXTEND
  0
ENDBLK
  5
719
330
717
100
AcDbEntity
  8
0
100
AcDbBlockEnd
  0
BLOCK
  5
7B7
330
7B6
100
AcDbEntity
  8
0
  6
ByBlock
 62
     0
100
AcDbBlockBegin
  2
_OPEN30
 70
     0
 10
0.0
 20
0.0
 30
0.0
  3
_OPEN30
  1

  0
LINE
  5
7B8
330
7B6
100
AcDbEntity
  8
0
  6
ByBlock
 62
     0
100
AcDbLine
 10
-1.0
 20
0.267949
 30
0.0
 11
0.0
 21
0.0
 31
0.0
  0
LINE
  5
7B9
330
7B6
100
AcDbEntity
  8
0
  6
ByBlock
 62
     0
100
AcDbLine
 10
0.0
 20
0.0
 30
0.0
 11
-1.0
 21
-0.267949
 31
0.0
  0
LINE
  5
7BA
330
7B6
100
AcDbEntity
  8
0
  6
ByBlock
 62
     0
100
AcDbLine
 10
0.0
 20
0.0
 30
0.0
 11
-1.0
 21
0.0
 31
0.0
  0
ENDBLK
  5
7BB
330
7B6
100
AcDbEntity
  8
0
  6
ByBlock
 62
     0
100
AcDbBlockEnd
  0
BLOCK
  5
BC0
330
BBF
100
AcDbEntity
  8
0
100
AcDbBlockBegin
  2
*D18
 70
     1
 10
0.0
 20
0.0
 30
0.0
  3
*D18
  1

  0
LINE
  5
BD6
330
BBF
100
AcDbEntity
  8
0
 62
     0
370
    -2
100
AcDbLine
 10
59.12500000000003
 20
34.99987909325577
 30
0.0
 11
74.51726638468013
 21
34.99987909325577
 31
0.0
  0
LINE
  5
BD7
330
BBF
100
AcDbEntity
  8
0
 62
     0
370
    -2
100
AcDbLine
 10
59.12500000000003
 20
-30.00000000000002
 30
0.0
 11
74.51726638468014
 21
-30.00000000000001
 31
0.0
  0
LINE
  5
BD8
330
BBF
100
AcDbEntity
  8
0
 62
     0
370
    -2
100
AcDbLine
 10
73.26726638468013
 20
32.49987909325577
 30
0.0
 11
73.26726638468014
 21
-27.50000000000001
 31
0.0
  0
SOLID
  5
BD9
330
BBF
100
AcDbEntity
  8
0
 62
     0
100
AcDbTrace
 10
72.85059971801345
 20
32.49987909325577
 30
0.0
 11
73.6839330513468
 21
32.49987909325577
 31
0.0
 12
73.26726638468013
 22
34.99987909325577
 32
0.0
 13
73.26726638468013
 23
34.99987909325577
 33
0.0
  0
SOLID
  5
BDA
330
BBF
100
AcDbEntity
  8
0
 62
     0
100
AcDbTrace
 10
72.85059971801347
 20
-27.50000000000001
 30
0.0
 11
73.68393305134681
 21
-27.50000000000001
 31
0.0
 12
73.26726638468014
 22
-30.00000000000001
 32
0.0
 13
73.26726638468014
 23
-30.00000000000001
 33
0.0
  0
MTEXT
  5
BDB
330
BBF
100
AcDbEntity
  8
0
 62
     0
100
AcDbMText
 10
71.34834509163723
 20
2.499939546627854
 30
0.0
 40
2.5
 41
0.0
 71
     5
 72
     1
  1
65
 11
0.0000000000000001
 21
1.0
 31
0.0
 73
     1
 44
1.0
1001
ACAD
1000
MTEXTBEGIN
1070
    73
1070
     1
1070
    44
1040
1.0
1070
    74
1070
     0
1000
MTEXTEND
  0
ENDBLK
  5
BC1
330
BBF
100
AcDbEntity
  8
0
100
AcDbBlockEnd
  0
BLOCK
  5
BF5
330
BF4
100
AcDbEntity
  8
0
100
AcDbBlockBegin
  2
*D19
 70
     1
 10
0.0
 20
0.0
 30
0.0
  3
*D19
  1

  0
LINE
  5
DB6
330
BF4
100
AcDbEntity
  8
2
 62
     0
370
    -2
100
AcDbLine
 10
19.41936105670384
 20
25.10817334954885
 30
0.0
 11
14.49133130592969
 21
11.07851044913701
 31
0.0
  0
MTEXT
  5
DB7
330
BF4
100
AcDbEntity
  8
2
 62
     0
100
AcDbMText
 10
16.07781485598167
 20
22.79488949321197
 30
0.0
 40
3.5
 41
0.0
 71
     5
 72
     1
  1
R2
  7
BMG_TEXT
 11
0.3314075014515158
 21
0.9434877148016628
 31
0.0
 73
     1
 44
1.0
1001
ACAD
1000
MTEXTBEGIN
1070
    73
1070
     1
1070
    44
1040
1.0
1070
    74
1070
     0
1000
MTEXTEND
  0
LINE
  5
DB8
330
BF4
100
AcDbEntity
  8
2
 62
     0
370
    -2
100
AcDbLine
 10
12.99999754939787
 20
6.832815732529526
 30
0.0
 11
13.6628125523009
 21
8.719791162132851
 31
0.0
  0
SOLID
  5
DB9
330
BF4
100
AcDbEntity
  8
2
 62
     0
100
AcDbTrace
 10
14.09821142476233
 20
11.21659690807514
 30
0.0
 11
14.88445118709704
 21
10.94042399019887
 31
0.0
 12
13.6628125523009
 22
8.719791162132851
 32
0.0
 13
13.6628125523009
 23
8.719791162132851
 33
0.0
  0
ENDBLK
  5
BF6
330
BF4
100
AcDbEntity
  8
0
100
AcDbBlockEnd
  0
BLOCK
  5
C11
330
C10
100
AcDbEntity
  8
0
100
AcDbBlockBegin
  2
*D20
 70
     1
 10
0.0
 20
0.0
 30
0.0
  3
*D20
  1

  0
LINE
  5
D9E
330
C10
100
AcDbEntity
  8
2
 62
     0
370
    -2
100
AcDbLine
 10
0.9129254579343623
 20
26.8647577148522
 30
0.0
 11
2.176392154173981
 21
12.37711001210376
 31
0.0
  0
MTEXT
  5
D9F
330
C10
100
AcDbEntity
  8
2
 62
     0
100
AcDbMText
 10
3.759270925777748
 20
22.2711549663566
 30
0.0
 40
3.5
 41
0.0
 71
     5
 72
     1
  1
R30
  7
BMG_TEXT
 11
0.0868801660068884
 21
-0.9962187695253565
 31
0.0
 73
     1
 44
1.0
1001
ACAD
1000
MTEXTBEGIN
1070
    73
1070
     1
1070
    44
1040
1.0
1070
    74
1070
     0
1000
MTEXTEND
  0
LINE
  5
DA0
330
C10
100
AcDbEntity
  8
2
 62
     0
370
    -2
100
AcDbLine
 10
4.999997549397873
 20
-19.99999999747043
 30
0.0
 11
2.393592569191203
 21
9.886563088290373
 31
0.0
  0
SOLID
  5
DA1
330
C10
100
AcDbEntity
  8
2
 62
     0
100
AcDbTrace
 10
2.591483308142877
 20
12.4133100812733
 30
0.0
 11
1.761301000205081
 21
12.34090994293423
 31
0.0
 12
2.393592569191203
 22
9.886563088290373
 32
0.0
 13
2.393592569191203
 23
9.886563088290373
 33
0.0
  0
ENDBLK
  5
C12
330
C10
100
AcDbEntity
  8
0
100
AcDbBlockEnd
  0
BLOCK
  5
C9B
330
C9A
100
AcDbEntity
  8
0
100
AcDbBlockBegin
  2
*D21
 70
     1
 10
0.0
 20
0.0
 30
0.0
  3
*D21
  1

  0
LINE
  5
CC0
330
C9A
100
AcDbEntity
  8
0
 62
     0
370
    -2
100
AcDbLine
 10
33.66270099092738
 20
9.34916887815563
 30
0.0
 11
33.66270099092738
 21
15.34289047175758
 31
0.0
  0
LINE
  5
CC1
330
C9A
100
AcDbEntity
  8
0
 62
     0
370
    -2
100
AcDbLine
 10
38.66270099092736
 20
10.08553399247593
 30
0.0
 11
38.66270099092736
 21
15.34289047175758
 31
0.0
  0
LINE
  5
CC2
330
C9A
100
AcDbEntity
  8
0
 62
     0
370
    -2
100
AcDbLine
 10
31.16270099092738
 20
14.09289047175758
 30
0.0
 11
28.66270099092738
 21
14.09289047175758
 31
0.0
  0
LINE
  5
CC3
330
C9A
100
AcDbEntity
  8
0
 62
     0
370
    -2
100
AcDbLine
 10
41.16270099092735
 20
14.09289047175758
 30
0.0
 11
43.66270099092736
 21
14.09289047175758
 31
0.0
  0
LINE
  5
CC4
330
C9A
100
AcDbEntity
  8
0
 62
     0
370
    -2
100
AcDbLine
 10
33.66270099092738
 20
14.09289047175758
 30
0.0
 11
38.66270099092736
 21
14.09289047175758
 31
0.0
  0
SOLID
  5
CC5
330
C9A
100
AcDbEntity
  8
0
 62
     0
100
AcDbTrace
 10
31.16270099092738
 20
14.50955713842425
 30
0.0
 11
31.16270099092738
 21
13.67622380509092
 31
0.0
 12
33.66270099092738
 22
14.09289047175758
 32
0.0
 13
33.66270099092738
 23
14.09289047175758
 33
0.0
  0
SOLID
  5
CC6
330
C9A
100
AcDbEntity
  8
0
 62
     0
100
AcDbTrace
 10
41.16270099092735
 20
14.50955713842425
 30
0.0
 11
41.16270099092735
 21
13.67622380509092
 31
0.0
 12
38.66270099092736
 22
14.09289047175758
 32
0.0
 13
38.66270099092736
 23
14.09289047175758
 33
0.0
  0
MTEXT
  5
CC7
330
C9A
100
AcDbEntity
  8
0
 62
     0
100
AcDbMText
 10
36.16270099092737
 20
16.5183121161708
 30
0.0
 40
3.5
 41
0.0
 71
     5
 72
     1
  1
5
  7
BMG_TEXT
 73
     1
 44
1.0
1001
ACAD
1000
MTEXTBEGIN
1070
    73
1070
     1
1070
    44
1040
1.0
1070
    74
1070
     0
1000
MTEXTEND
  0
ENDBLK
  5
C9C
330
C9A
100
AcDbEntity
  8
0
100
AcDbBlockEnd
  0
BLOCK
  5
CCD
330
CCC
100
AcDbEntity
  8
0
100
AcDbBlockBegin
  2
*D22
 70
     1
 10
0.0
 20
0.0
 30
0.0
  3
*D22
  1

  0
LINE
  5
DC7
330
CCC
100
AcDbEntity
  8
SKVIEW2
 62
     0
370
    -2
100
AcDbLine
 10
33.66270099092738
 20
9.349168878155627
 30
0.0
 11
33.66270099092738
 21
15.58703819685644
 31
0.0
  0
LINE
  5
DC8
330
CCC
100
AcDbEntity
  8
SKVIEW2
 62
     0
370
    -2
100
AcDbLine
 10
38.66270099092736
 20
9.349168878034744
 30
0.0
 11
38.66270099092736
 21
15.58703819685644
 31
0.0
  0
LINE
  5
DC9
330
CCC
100
AcDbEntity
  8
SKVIEW2
 62
     0
370
    -2
100
AcDbLine
 10
31.16270099092738
 20
14.33703819685644
 30
0.0
 11
28.66270099092738
 21
14.33703819685644
 31
0.0
  0
LINE
  5
DCA
330
CCC
100
AcDbEntity
  8
SKVIEW2
 62
     0
370
    -2
100
AcDbLine
 10
41.16270099092735
 20
14.33703819685644
 30
0.0
 11
43.66270099092735
 21
14.33703819685644
 31
0.0
  0
LINE
  5
DCB
330
CCC
100
AcDbEntity
  8
SKVIEW2
 62
     0
370
    -2
100
AcDbLine
 10
33.66270099092738
 20
14.33703819685644
 30
0.0
 11
38.66270099092736
 21
14.33703819685644
 31
0.0
  0
SOLID
  5
DCC
330
CCC
100
AcDbEntity
  8
SKVIEW2
 62
     0
100
AcDbTrace
 10
31.16270099092738
 20
14.7537048635231
 30
0.0
 11
31.16270099092738
 21
13.92037153018977
 31
0.0
 12
33.66270099092738
 22
14.33703819685644
 32
0.0
 13
33.66270099092738
 23
14.33703819685644
 33
0.0
  0
SOLID
  5
DCD
330
CCC
100
AcDbEntity
  8
SKVIEW2
 62
     0
100
AcDbTrace
 10
41.16270099092735
 20
14.7537048635231
 30
0.0
 11
41.16270099092735
 21
13.92037153018977
 31
0.0
 12
38.66270099092736
 22
14.33703819685644
 32
0.0
 13
38.66270099092736
 23
14.33703819685644
 33
0.0
  0
MTEXT
  5
DCE
330
CCC
100
AcDbEntity
  8
SKVIEW2
 62
     0
100
AcDbMText
 10
36.16270099092736
 20
17.23224199165615
 30
0.0
 40
3.5
 41
0.0
 71
     5
 72
     1
  1
5,00
  7
BMG_TEXT
 73
     1
 44
1.0
1001
ACAD
1000
MTEXTBEGIN
1070
    73
1070
     1
1070
    44
1040
1.0
1070
    74
1070
     0
1000
MTEXTEND
  0
ENDBLK
  5
CCE
330
CCC
100
AcDbEntity
  8
0
100
AcDbBlockEnd
  0
ENDSEC
  0
SECTION
  2
ENTITIES
  0
LINE
  5
53D
330
1F
100
AcDbEntity
  8
INFTOTAL
100
AcDbLine
 10
-36.5
 20
-30.0
 30
0.0
 11
63.5
 21
-30.0
 31
0.0
  0
LINE
  5
53E
330
1F
100
AcDbEntity
  8
INFTOTAL
100
AcDbLine
 10
63.5
 20
-30.0
 30
0.0
 11
63.5
 21
34.99987909325575
 31
0.0
  0
LINE
  5
53F
330
1F
100
AcDbEntity
  8
INFTOTAL
100
AcDbLine
 10
63.5
 20
34.99987909325575
 30
0.0
 11
-36.5
 21
34.99987909325575
 31
0.0
  0
LINE
  5
540
330
1F
100
AcDbEntity
  8
INFTOTAL
100
AcDbLine
 10
-36.5
 20
34.99987909325575
 30
0.0
 11
-36.5
 21
-30.0
 31
0.0
  0
CIRCLE
  5
66D
330
1F
100
AcDbEntity
  8
SK1
100
AcDbCircle
 10
0.0
 20
-0.0000000000000355
 30
0.0
 40
1.75
  0
LINE
  5
66E
330
1F
100
AcDbEntity
  8
SK1
100
AcDbLine
 10
-0.0000024505913588
 20
-1.752374116708389
 30
0.0
 11
-0.0000024506128456
 21
1.747625883291608
 31
0.0
  0
LINE
  5
66F
330
1F
100
AcDbEntity
  8
SK1
100
AcDbLine
 10
-1.749999999999968
 20
-0.0000000000000347
 30
0.0
 11
1.75
 21
-0.0000000000000363
 31
0.0
  0
HATCH
  5
670
330
1F
100
AcDbEntity
  8
SK1
  6
Continuous
100
AcDbHatch
 10
0.0
 20
0.0
 30
0.0
210
0.0
220
0.0
230
1.0
  2
_U
 70
     0
 71
     0
 91
        1
 92
        1
 93
        3
 72
     1
 10
-1.749999999999988
 20
-0.0000000000000355
 11
0.0
 21
-0.0000000000000355
 72
     1
 10
0.0
 20
-0.0000000000000355
 11
0.0000000000115676
 21
1.749999999999964
 72
     2
 10
0.0
 20
-0.0000000000000355
 40
1.75
 50
89.99999999962124
 51
179.9999999999999
 73
     1
 97
        0
 75
     0
 76
     0
 52
45.0
 41
0.3200000000000001
 77
     0
 78
     1
 53
45.0
 43
-79.99999999996695
 44
-0.0000000000000355
 45
-0.2262741699796952
 46
0.2262741699796952
 79
     0
 98
        1
 10
-79.99999999996695
 20
-0.0000000000000355
  0
HATCH
  5
671
330
1F
100
AcDbEntity
  8
SK1
  6
Continuous
100
AcDbHatch
 10
0.0
 20
0.0
 30
0.0
210
0.0
220
0.0
230
1.0
  2
_U
 70
     0
 71
     0
 91
        1
 92
        1
 93
        3
 72
     1
 10
-0.000002450624399
 20
-0.0023741167083879
 11
-0.0000024505913445
 21
-1.752374116708385
 72
     2
 10
-0.000002450624399
 20
-0.0023741167083879
 40
1.75
 50
270.0000000010821
 51
359.9999999999998
 73
     1
 72
     1
 10
1.749997549375585
 20
-0.0023741167083895
 11
-0.000002450624399
 21
-0.0023741167083879
 97
        0
 75
     0
 76
     0
 52
45.0
 41
0.3
 77
     0
 78
     1
 53
45.0
 43
-80.00000245059132
 44
-0.0023741167083879
 45
-0.2121320343559642
 46
0.2121320343559642
 79
     0
 98
        1
 10
-80.00000245059132
 20
-0.0023741167083879
  0
LINE
  5
6CB
330
1F
100
AcDbEntity
  8
SKVIEW4
100
AcDbLine
 10
28.66270099092738
 20
-0.0239167561443594
 30
0.0
 11
43.66270099092739
 21
-0.0239167561443594
 31
0.0
  0
LINE
  5
6CC
330
1F
100
AcDbEntity
  8
SK4
100
AcDbLine
 10
5.00000000001297
 20
-14.99475675122031
 30
0.0
 11
5.000000000029491
 21
14.9900085178037
 31
0.0
  0
DIMENSION
  5
6DE
330
1F
100
AcDbEntity
  8
2
100
AcDbDimension
  2
*D12
 10
24.99343407957111
 20
-10.00169704343512
 30
0.0
 11
24.9934340795711
 21
22.27296937287093
 31
0.0
 70
   160
  1
%%c<>
 71
     5
 42
20.00169704596479
  3
ISO-25
100
AcDbAlignedDimension
 13
4.999997549397884
 23
10.00000000252966
 33
0.0
 14
5.000000000015721
 24
-10.00169704343511
 34
0.0
 50
90.0
100
AcDbRotatedDimension
1001
ACAD
1000
DSTYLE
1002
{
1070
    78
1070
     0
1070
   340
1005
442
1002
}
  0
DIMENSION
  5
705
330
1F
100
AcDbEntity
  8
2
100
AcDbDimension
  2
*D15
 10
14.99999754939788
 20
-24.29719465562812
 30
0.0
 11
25.24797716991792
 21
-24.29719465562812
 31
0.0
 70
   160
 71
     5
 42
14.99999754939789
  3
ISO-25
100
AcDbAlignedDimension
 13
-0.0000000000000071
 23
-4.542401293153922
 33
0.0
 14
14.99999754939788
 24
-0.0000000172704446
 34
0.0
100
AcDbRotatedDimension
1001
ACAD
1000
DSTYLE
1002
{
1070
    78
1070
     0
1070
   340
1005
442
1002
}
  0
DIMENSION
  5
714
330
1F
100
AcDbEntity
  8
2
100
AcDbDimension
  2
*D16
 10
14.99999754939788
 20
-16.40627287142997
 30
0.0
 11
25.24797716991792
 21
-16.40627287142997
 31
0.0
 70
   160
  1
<>
 71
     5
 42
9.999997549383072
  3
ISO-25
100
AcDbAlignedDimension
 13
5.000000000014812
 23
-11.65377697517739
 33
0.0
 14
14.99999754939788
 24
-0.0000000172704446
 34
0.0
100
AcDbRotatedDimension
1001
ACAD
1000
DSTYLE
1002
{
1070
    78
1070
     0
1070
   340
1005
442
1002
}
  0
LINE
  5
876
330
1F
100
AcDbEntity
  8
SK4
100
AcDbLine
 10
-4.999999988882733
 20
0.0003334254051034
 30
0.0
 11
19.67190842255017
 21
-0.0013118228100811
 31
0.0
  0
SPLINE
  5
9CC
330
1F
100
AcDbEntity
  8
1
  6
Continuous
370
    25
100
AcDbSpline
210
0.0
220
0.0
230
1.0
 70
     8
 71
     3
 72
    12
 73
     8
 74
     0
 42
0.000000001
 43
0.0000000001
 40
0.0
 40
0.0
 40
0.0
 40
0.0
 40
0.2500000000000001
 40
0.2500000000000001
 40
0.5000000000000001
 40
0.5000000000000001
 40
1.0
 40
1.0
 40
1.0
 40
1.0
 10
1.848555944588974
 20
-9.380003216340575
 30
0.0
 10
2.814586576409462
 20
-9.465442777066787
 30
0.0
 10
3.78134107522606
 20
-9.501207110412401
 30
0.0
 10
5.716240461371294
 20
-9.477320644414595
 30
0.0
 10
6.686303098284442
 20
-9.416779380416095
 30
0.0
 10
9.562762920372051
 20
-9.096009006983829
 30
0.0
 10
11.44660626722393
 20
-8.698451028688253
 30
0.0
 10
13.29648021406577
 20
-8.116242326310931
 30
0.0
  0
SPLINE
  5
9CD
330
1F
100
AcDbEntity
  8
1
  6
Continuous
370
    25
100
AcDbSpline
210
0.0
220
0.0
230
1.0
 70
     8
 71
     3
 72
    18
 73
    14
 74
     0
 42
0.000000001
 43
0.0000000001
 40
0.1868864283139727
 40
0.1868864283139727
 40
0.1868864283139727
 40
0.1868864283139727
 40
0.3904778433073895
 40
0.3904778433073895
 40
0.4922735508038154
 40
0.4922735508038154
 40
0.5940692583004296
 40
0.5940692583004296
 40
0.7162374583645211
 40
0.7162374583645211
 40
0.7973029756775003
 40
0.7973029756775003
 40
0.9120934486506795
 40
0.9120934486506795
 40
0.9120934486506795
 40
0.9120934486506795
 10
13.49529418085269
 20
-8.536272731378282
 30
0.0
 10
12.42881710085098
 20
-8.845553643662192
 30
0.0
 10
11.35148075956626
 20
-9.091041418267259
 30
0.0
 10
9.719040947124319
 20
-9.36394790823882
 30
0.0
 10
9.172181367346027
 20
-9.438968519320916
 30
0.0
 10
8.072941920938541
 20
-9.556600737995175
 30
0.0
 10
7.521104527876723
 20
-9.599064609759983
 30
0.0
 10
6.312722251719804
 20
-9.655812698262957
 30
0.0
 10
5.656859320330456
 20
-9.663110704554297
 30
0.0
 10
4.564132576059401
 20
-9.635493191230196
 30
0.0
 10
4.127180006848186
 20
-9.613848106803224
 30
0.0
 10
3.075761268687877
 20
-9.535971044739746
 30
0.0
 10
2.461272788058488
 20
-9.469064754367595
 30
0.0
 10
1.848555944224779
 20
-9.38000321628764
 30
0.0
  0
SPLINE
  5
9CE
330
1F
100
AcDbEntity
  8
1
  6
Continuous
370
    25
100
AcDbSpline
210
0.0
220
0.0
230
1.0
 70
     8
 71
     3
 72
    10
 73
     6
 74
     0
 42
0.000000001
 43
0.0000000001
 40
0.0
 40
0.0
 40
0.0
 40
0.0
 40
0.5
 40
0.5
 40
1.0
 40
1.0
 40
1.0
 40
1.0
 10
13.90732050842932
 20
-7.895991269768281
 30
0.0
 10
14.00361642708382
 20
-7.831978173014809
 30
0.0
 10
14.07560372801885
 20
-7.742079239990793
 30
0.0
 10
14.19829839948804
 20
-7.549181391795549
 30
0.0
 10
14.24777893108872
 20
-7.445261489534907
 30
0.0
 10
14.28534114703495
 20
-7.336970694939102
 30
0.0
  0
SPLINE
  5
9CF
330
1F
100
AcDbEntity
  8
1
  6
Continuous
370
    25
100
AcDbSpline
210
0.0
220
0.0
230
1.0
 70
     8
 71
     3
 72
    10
 73
     6
 74
     0
 42
0.000000001
 43
0.0000000001
 40
0.0309744592168576
 40
0.0309744592168576
 40
0.0309744592168576
 40
0.0309744592168576
 40
0.0699393263147191
 40
0.0699393263147191
 40
0.1089041934125805
 40
0.1089041934125805
 40
0.1089041934125805
 40
0.1089041934125805
 10
14.78524345800809
 20
-6.925463111781574
 30
0.0
 10
14.77796955211545
 20
-7.104030917227483
 30
0.0
 10
14.74084207565944
 20
-7.290522375399502
 30
0.0
 10
14.6120792861022
 20
-7.64346348902513
 30
0.0
 10
14.52250679347644
 20
-7.806383104122673
 30
0.0
 10
14.40845616686974
 20
-7.948591767576772
 30
0.0
  0
SPLINE
  5
9D0
330
1F
100
AcDbEntity
  8
1
  6
Continuous
370
    25
100
AcDbSpline
210
0.0
220
0.0
230
1.0
 70
     8
 71
     3
 72
    10
 73
     6
 74
     0
 42
0.000000001
 43
0.0000000001
 40
0.0
 40
0.0
 40
0.0
 40
0.0
 40
0.5
 40
0.5
 40
1.0
 40
1.0
 40
1.0
 40
1.0
 10
13.29648021406577
 20
-8.116242326310931
 30
0.0
 10
13.40654719520887
 20
-8.110553620475464
 30
0.0
 10
13.51504188748135
 20
-8.090761955182365
 30
0.0
 10
13.72184718464731
 20
-8.015310855762741
 30
0.0
 10
13.8201801344165
 20
-7.963755961653966
 30
0.0
 10
13.90732050842932
 20
-7.895991269768281
 30
0.0
  0
SPLINE
  5
9D1
330
1F
100
AcDbEntity
  8
1
  6
Continuous
370
    25
100
AcDbSpline
210
0.0
220
0.0
230
1.0
 70
     8
 71
     3
 72
    10
 73
     6
 74
     0
 42
0.000000001
 43
0.0000000001
 40
0.1089041934125805
 40
0.1089041934125805
 40
0.1089041934125805
 40
0.1089041934125805
 40
0.1478953108632806
 40
0.1478953108632806
 40
0.1868864283139727
 40
0.1868864283139727
 40
0.1868864283139727
 40
0.1868864283139727
 10
14.40845616686974
 20
-7.948591767576777
 30
0.0
 10
14.29432870516997
 20
-8.09089623599238
 30
0.0
 10
14.15561624632642
 20
-8.217312372350383
 30
0.0
 10
13.84350217476489
 20
-8.418352771620668
 30
0.0
 10
13.6745637173294
 20
-8.491225880569492
 30
0.0
 10
13.49529418085269
 20
-8.536272731378282
 30
0.0
  0
SPLINE
  5
9D2
330
1F
100
AcDbEntity
  8
1
  6
Continuous
370
    25
100
AcDbSpline
210
0.0
220
0.0
230
1.0
 70
     8
 71
     3
 72
    14
 73
    10
 74
     0
 42
0.000000001
 43
0.0000000001
 40
0.0005878015184426
 40
0.0005878015184426
 40
0.0005878015184426
 40
0.0005878015184426
 40
0.0010576587445905
 40
0.0010576587445905
 40
0.0010576587445905
 40
0.0015824596179621
 40
0.0015824596179621
 40
0.0015824596179621
 40
0.0020946911382209
 40
0.0020946911382209
 40
0.0020946911382209
 40
0.0020946911382209
 10
14.31618272246573
 20
-6.550998772334437
 30
0.0
 10
14.36489419925022
 20
-6.531014579524074
 30
0.0
 10
14.41360571472863
 20
-6.51103933479051
 30
0.0
 10
14.46231726228181
 20
-6.491071594779517
 30
0.0
 10
14.51672498719785
 20
-6.468768889152543
 30
0.0
 10
14.57113275227876
 20
-6.446475546638943
 30
0.0
 10
14.62554054837219
 20
-6.424189511965378
 30
0.0
 10
14.67864523918035
 20
-6.402437243620461
 30
0.0
 10
14.73174995962854
 20
-6.380691936930793
 30
0.0
 10
14.78485470123373
 20
-6.358951639657512
 30
0.0
  0
SPLINE
  5
9D3
330
1F
100
AcDbEntity
  8
1
  6
Continuous
370
    25
100
AcDbSpline
210
0.0
220
0.0
230
1.0
 70
     8
 71
     3
 72
     8
 73
     4
 74
     0
 42
0.000000001
 43
0.0000000001
 40
0.0
 40
0.0
 40
0.0
 40
0.0
 40
0.0008488832960656
 40
0.0008488832960656
 40
0.0008488832960656
 40
0.0008488832960656
 10
-0.0000024506021021
 20
-9.232237931813481
 30
0.0
 10
0.1999861704930992
 20
-9.223515189360938
 30
0.0
 10
0.4000047244156959
 20
-9.216212715708783
 30
0.0
 10
0.5999975493978922
 20
-9.207684921017637
 30
0.0
  0
SPLINE
  5
9D4
330
1F
100
AcDbEntity
  8
1
  6
Continuous
370
    25
100
AcDbSpline
210
0.0
220
0.0
230
1.0
 70
     8
 71
     3
 72
     8
 73
     4
 74
     0
 42
0.000000001
 43
0.0000000001
 40
0.0
 40
0.0
 40
0.0
 40
0.0
 40
1.0
 40
1.0
 40
1.0
 40
1.0
 10
0.5999975493973877
 20
-9.207684921017552
 30
0.0
 10
1.014871751361489
 20
-9.27463013843672
 30
0.0
 10
1.431061654782303
 20
-9.332042243810702
 30
0.0
 10
1.848555944739624
 20
-9.380003215406953
 30
0.0
  0
SPLINE
  5
9D5
330
1F
100
AcDbEntity
  8
1
  6
Continuous
370
    25
100
AcDbSpline
210
0.0
220
0.0
230
1.0
 70
     8
 71
     3
 72
     8
 73
     4
 74
     0
 42
0.000000001
 43
0.0000000001
 40
0.0000000000000001
 40
0.0000000000000001
 40
0.0000000000000001
 40
0.0000000000000001
 40
0.0000467787985095
 40
0.0000467787985095
 40
0.0000467787985095
 40
0.0000467787985095
 10
13.5765306992776
 20
-8.734131334230461
 30
0.0
 10
13.59143099595043
 20
-8.72962339045349
 30
0.0
 10
13.60636334551671
 20
-8.72496714922137
 30
0.0
 10
13.62118845454734
 20
-8.720205469020136
 30
0.0
  0
SPLINE
  5
9D6
330
1F
100
AcDbEntity
  8
1
  6
Continuous
370
    25
100
AcDbSpline
210
0.0
220
0.0
230
1.0
 70
     8
 71
     3
 72
    12
 73
     8
 74
     0
 42
0.000000001
 43
0.0000000001
 40
0.0
 40
0.0
 40
0.0
 40
0.0
 40
0.2499999999999998
 40
0.2499999999999998
 40
0.5
 40
0.5
 40
1.0
 40
1.0
 40
1.0
 40
1.0
 10
5.530289175671933
 20
-9.997671474378087
 30
0.0
 10
6.211851044203775
 20
-9.985551508170225
 30
0.0
 10
6.891565057812812
 20
-9.950003367828564
 30
0.0
 10
8.247597701282304
 20
-9.832135795575203
 30
0.0
 10
8.924927352543344
 20
-9.749645618274776
 30
0.0
 10
10.94415295527006
 20
-9.432503728734806
 30
0.0
 10
12.27020497880144
 20
-9.129347820963623
 30
0.0
 10
13.57653069927803
 20
-8.734131334230317
 30
0.0
  0
SPLINE
  5
9D7
330
1F
100
AcDbEntity
  8
1
  6
Continuous
370
    25
100
AcDbSpline
210
0.0
220
0.0
230
1.0
 70
     8
 71
     3
 72
    12
 73
     8
 74
     0
 42
0.000000001
 43
0.0000000001
 40
0.6840381824778011
 40
0.6840381824778011
 40
0.6840381824778011
 40
0.6840381824778011
 40
0.8493569838771822
 40
0.8493569838771822
 40
0.9304225011901616
 40
0.9304225011901616
 40
0.9626217770768816
 40
0.9626217770768816
 40
0.9626217770768816
 40
0.9626217770768816
 10
0.9508345530182978
 20
-9.631343896934787
 30
0.0
 10
1.852168519465971
 20
-9.781751042565792
 30
0.0
 10
2.756509061152784
 20
-9.884400836088474
 30
0.0
 10
4.108317745081135
 20
-9.970549618811752
 30
0.0
 10
4.554792923600268
 20
-9.988061630397799
 30
0.0
 10
5.176833114595951
 20
-9.99741600604873
 30
0.0
 10
5.353569685562002
 20
-9.998386545426221
 30
0.0
 10
5.530289175672118
 20
-9.997671474377616
 30
0.0
  0
SPLINE
  5
9D8
330
1F
100
AcDbEntity
  8
1
  6
Continuous
370
    25
100
AcDbSpline
210
0.0
220
0.0
230
1.0
 70
     8
 71
     3
 72
     8
 73
     4
 74
     0
 42
0.000000001
 43
0.0000000001
 40
0.0
 40
0.0
 40
0.0
 40
0.0
 40
0.0000717915901373
 40
0.0000717915901373
 40
0.0000717915901373
 40
0.0000717915901373
 10
0.8850475670715894
 20
-9.628116091971484
 30
0.0
 10
0.9069711526886351
 20
-9.629211190491744
 30
0.0
 10
0.9289001631938603
 20
-9.630287138673855
 30
0.0
 10
0.9508345530183047
 20
-9.631343896934774
 30
0.0
  0
SPLINE
  5
9D9
330
1F
100
AcDbEntity
  8
1
  6
Continuous
370
    25
100
AcDbSpline
210
0.0
220
0.0
230
1.0
 70
     8
 71
     3
 72
    11
 73
     7
 74
     0
 42
0.000000001
 43
0.0000000001
 40
0.9665344395411278
 40
0.9665344395411278
 40
0.9665344395411278
 40
0.9665344395411278
 40
1.0
 40
1.0
 40
1.0
 40
1.020679481750164
 40
1.020679481750164
 40
1.020679481750164
 40
1.020679481750164
 10
0.8850475667163181
 20
-9.628116092791463
 30
0.0
 10
0.702534431387059
 20
-9.597235686528655
 30
0.0
 10
0.5201442466253368
 20
-9.564394647490054
 30
0.0
 10
0.3378796325470588
 20
-9.529568783013793
 30
0.0
 10
0.2252522714973337
 20
-9.508048724213175
 30
0.0
 10
0.1126249104476158
 20
-9.486528665412542
 30
0.0
 10
-0.0000024506021092
 20
-9.465008606611924
 30
0.0
  0
SPLINE
  5
9DA
330
1F
100
AcDbEntity
  8
1
  6
Continuous
370
    25
100
AcDbSpline
210
0.0
220
0.0
230
1.0
 70
    24
 71
     3
 72
    11
 73
     7
 74
     0
 42
0.000000001
 43
0.0000000001
 40
0.0
 40
0.0
 40
0.0
 40
0.0
 40
0.0005743862548438
 40
0.0005743862548438
 40
0.0005743862548438
 40
0.0011487725741851
 40
0.0011487725741851
 40
0.0011487725741851
 40
0.0011487725741851
 10
-0.0000024506021021
 20
-9.232237931813481
 30
0.0
 10
-0.0000024506021021
 20
-9.271096184277103
 30
0.0
 10
-0.0000024506021021
 20
-9.309922443334381
 30
0.0
 10
-0.0000024506021021
 20
-9.348717344135133
 30
0.0
 10
-0.0000024506021021
 20
-9.387512249306686
 30
0.0
 10
-0.0000024506021092
 20
-9.426275797264146
 30
0.0
 10
-0.0000024506021092
 20
-9.465008606611924
 30
0.0
  0
SPLINE
  5
9DB
330
1F
100
AcDbEntity
  8
1
  6
Continuous
370
    25
100
AcDbSpline
210
0.0
220
0.0
230
1.0
 70
     8
 71
     3
 72
     8
 73
     4
 74
     0
 42
0.000000001
 43
0.0000000001
 40
0.0
 40
0.0
 40
0.0
 40
0.0
 40
1.0
 40
1.0
 40
1.0
 40
1.0
 10
-0.0000024506021092
 20
9.457601674500773
 30
0.0
 10
0.0228262868789755
 20
9.482967442763717
 30
0.0
 10
0.0489740059437067
 20
9.505778445969292
 30
0.0
 10
0.0782808987858572
 20
9.526157695164391
 30
0.0
  0
SPLINE
  5
9DC
330
1F
100
AcDbEntity
  8
1
  6
Continuous
370
    25
100
AcDbSpline
210
0.0
220
0.0
230
1.0
 70
     8
 71
     3
 72
    11
 73
     7
 74
     0
 42
0.000000001
 43
0.0000000001
 40
0.0001308113730625
 40
0.0001308113730625
 40
0.0001308113730625
 40
0.0001308113730625
 40
0.0009693397724896
 40
0.0009693397724896
 40
0.0009693397724896
 40
0.0019138893997903
 40
0.0019138893997903
 40
0.0019138893997903
 40
0.0019138893997903
 10
0.0782808987858572
 20
9.526157695164377
 30
0.0
 10
0.1789450875560674
 20
9.53693691025156
 30
0.0
 10
0.2790258385646154
 20
9.548178268706783
 30
0.0
 10
0.3790922739503002
 20
9.55943071643302
 30
0.0
 10
0.4918108973522891
 20
9.572105899802103
 30
0.0
 10
0.6046719548209949
 20
9.584668425904006
 30
0.0
 10
0.7176801923871155
 20
9.597114425943779
 30
0.0
  0
SPLINE
  5
9DD
330
1F
100
AcDbEntity
  8
1
  6
Continuous
370
    25
100
AcDbSpline
210
0.0
220
0.0
230
1.0
 70
     8
 71
     3
 72
     8
 73
     4
 74
     0
 42
0.000000001
 43
0.0000000001
 40
0.0
 40
0.0
 40
0.0
 40
0.0
 40
1.0
 40
1.0
 40
1.0
 40
1.0
 10
14.68183871474146
 20
-0.1806946361640843
 30
0.0
 10
14.69047599653901
 20
-0.2386930195081266
 30
0.0
 10
14.70015632657989
 20
-0.297321776543463
 30
0.0
 10
14.70961894327163
 20
-0.3558189569538189
 30
0.0
  0
SPLINE
  5
9DE
330
1F
100
AcDbEntity
  8
1
  6
Continuous
370
    25
100
AcDbSpline
210
0.0
220
0.0
230
1.0
 70
     8
 71
     3
 72
    11
 73
     7
 74
     0
 42
0.000000001
 43
0.0000000001
 40
0.0008610920566
 40
0.0008610920566
 40
0.0008610920566
 40
0.0008610920566
 40
0.0010225120086002
 40
0.0010225120086002
 40
0.0010225120086002
 40
0.0020288619101805
 40
0.0020288619101805
 40
0.0020288619101805
 40
0.0020288619101805
 10
14.70961894326623
 20
-0.3558189569505647
 30
0.0
 10
14.70124423988821
 20
-0.3660359298916806
 30
0.0
 10
14.69286666670936
 20
-0.3762509174204713
 30
0.0
 10
14.68448623276245
 20
-0.3864639255848563
 30
0.0
 10
14.63223960407071
 20
-0.4501354787252513
 30
0.0
 10
14.57988178499382
 20
-0.5137301083905971
 30
0.0
 10
14.52741493113805
 20
-0.5772492585858874
 30
0.0
  0
SPLINE
  5
9DF
330
1F
100
AcDbEntity
  8
1
  6
Continuous
370
    25
100
AcDbSpline
210
0.0
220
0.0
230
1.0
 70
     8
 71
     3
 72
     8
 73
     4
 74
     0
 42
0.000000001
 43
0.0000000001
 40
0.0000209772072837
 40
0.0000209772072837
 40
0.0000209772072837
 40
0.0000209772072837
 40
0.0007324838182709
 40
0.0007324838182709
 40
0.0007324838182709
 40
0.0007324838182709
 10
14.52741493113805
 20
-0.5772492585858874
 30
0.0
 10
14.45337223823488
 20
-0.5952556833575148
 30
0.0
 10
14.37921314550339
 20
-0.6131729372965044
 30
0.0
 10
14.30494059276592
 20
-0.6310031862130149
 30
0.0
  0
SPLINE
  5
9E0
330
1F
100
AcDbEntity
  8
1
  6
Continuous
370
    25
100
AcDbSpline
210
0.0
220
0.0
230
1.0
 70
     8
 71
     3
 72
    12
 73
     8
 74
     0
 42
0.000000001
 43
0.0000000001
 40
0.0
 40
0.0
 40
0.0
 40
0.0
 40
0.5
 40
0.5
 40
0.75
 40
0.75
 40
1.0
 40
1.0
 40
1.0
 40
1.0
 10
14.31618272246573
 20
-6.550998772334446
 30
0.0
 10
14.30725321834981
 20
-5.564313870492248
 30
0.0
 10
14.29871862558941
 20
-4.57762349839907
 30
0.0
 10
14.2897481223099
 20
-3.097565099741643
 30
0.0
 10
14.28762591536651
 20
-2.604194066185562
 30
0.0
 10
14.28834230968874
 20
-1.617500251918938
 30
0.0
 10
14.29435860628531
 20
-1.124223438647725
 30
0.0
 10
14.30494059276592
 20
-0.6310031862130149
 30
0.0
  0
CIRCLE
  5
9E1
330
1F
100
AcDbEntity
  8
1
  6
Continuous
370
    25
100
AcDbCircle
 10
4.999997549397898
 20
-0.0023741167083888
 30
0.0
 40
2.699999999999985
  0
SPLINE
  5
9E2
330
1F
100
AcDbEntity
  8
1
  6
Continuous
370
    25
100
AcDbSpline
210
0.0
220
0.0
230
1.0
 70
     8
 71
     3
 72
    15
 73
    11
 74
     0
 42
0.000000001
 43
0.0000000001
 40
-0.0241336845636153
 40
-0.0241336845636153
 40
-0.0241336845636153
 40
-0.0241336845636153
 40
0.0
 40
0.0
 40
0.0
 40
0.2499999999999988
 40
0.2499999999999988
 40
0.5
 40
0.5
 40
0.9873189685425179
 40
0.9873189685425179
 40
0.9873189685425179
 40
0.9873189685425179
 10
14.52741493113805
 20
-0.5772492585858874
 30
0.0
 10
14.52819367080946
 20
-0.6236253205391411
 30
0.0
 10
14.52897241048086
 20
-0.6700013824923948
 30
0.0
 10
14.52975115015227
 20
-0.7163774444456486
 30
0.0
 10
14.53781808735525
 20
-1.196785459133714
 30
0.0
 10
14.55627390461622
 20
-1.674726184437379
 30
0.0
 10
14.59683416136384
 20
-2.627534896599688
 30
0.0
 10
14.61969159163189
 20
-3.103530728410468
 30
0.0
 10
14.68853398725169
 20
-4.505993208639161
 30
0.0
 10
14.7365840623518
 20
-5.432626518958548
 30
0.0
 10
14.78485510456839
 20
-6.358951621954027
 30
0.0
  0
CIRCLE
  5
9E3
330
1F
100
AcDbEntity
  8
1
  6
Continuous
370
    25
100
AcDbCircle
 10
4.999997549397898
 20
-0.0023741167083888
 30
0.0
 40
2.5
  0
LWPOLYLINE
  5
9E4
330
1F
100
AcDbEntity
  8
1
  6
Continuous
370
    25
100
AcDbPolyline
 90
        4
 70
   128
 43
0.0
 10
14.7848548879979
 20
-6.358951636908377
 10
14.8632094878979
 20
-6.29507920370839
 10
14.94347130989789
 20
-6.229671420308385
 10
14.9968976598979
 20
-6.186139043408378
  0
SPLINE
  5
9E5
330
1F
100
AcDbEntity
  8
1
  6
Continuous
370
    25
100
AcDbSpline
210
0.0
220
0.0
230
1.0
 70
     8
 71
     3
 72
    14
 73
    10
 74
     0
 42
0.000000001
 43
0.0000000001
 40
0.0
 40
0.0
 40
0.0
 40
0.0
 40
0.5
 40
0.5
 40
0.75
 40
0.75
 40
0.875
 40
0.875
 40
1.0
 40
1.0
 40
1.0
 40
1.0
 10
14.99689765987796
 20
-6.186139043438577
 30
0.0
 10
14.94487989112115
 20
-5.211150291243971
 30
0.0
 10
14.89285038231445
 20
-4.236343494863504
 30
0.0
 10
14.8160977380466
 20
-2.776952289966834
 30
0.0
 10
14.79060679623955
 20
-2.291053294919912
 30
0.0
 10
14.75455873958187
 20
-1.564383350013869
 30
0.0
 10
14.74287713245927
 20
-1.322607114716509
 30
0.0
 10
14.72243323015498
 20
-0.8398782289075374
 30
0.0
 10
14.71368184052514
 20
-0.5993204024957283
 30
0.0
 10
14.70961894327019
 20
-0.3558189569458751
 30
0.0
  0
SPLINE
  5
9E6
330
1F
100
AcDbEntity
  8
1
  6
Continuous
370
    25
100
AcDbSpline
210
0.0
220
0.0
230
1.0
 70
     8
 71
     3
 72
     8
 73
     4
 74
     0
 42
0.000000001
 43
0.0000000001
 40
0.0
 40
0.0
 40
0.0
 40
0.0
 40
1.0
 40
1.0
 40
1.0
 40
1.0
 10
-0.0000024506021021
 20
9.512446317124066
 30
0.0
 10
0.0261233336513498
 20
9.517027245390542
 30
0.0
 10
0.0522179284490192
 20
9.521597656093142
 30
0.0
 10
0.0782808987858572
 20
9.526157695164391
 30
0.0
  0
SPLINE
  5
9E7
330
1F
100
AcDbEntity
  8
1
  6
Continuous
370
    25
100
AcDbSpline
210
0.0
220
0.0
230
1.0
 70
     8
 71
     3
 72
    12
 73
     8
 74
     0
 42
0.000000001
 43
0.0000000001
 40
0.0
 40
0.0
 40
0.0
 40
0.0
 40
0.2499999999999998
 40
0.2499999999999998
 40
0.5
 40
0.5
 40
1.0
 40
1.0
 40
1.0
 40
1.0
 10
5.530289175671918
 20
9.992923240961339
 30
0.0
 10
6.206385987284692
 20
9.980808487484502
 30
0.0
 10
6.883685152906338
 20
9.944574910310032
 30
0.0
 10
8.240721061609256
 20
9.823210758434832
 30
0.0
 10
8.920289995613154
 20
9.737911708445727
 30
0.0
 10
10.93937273189027
 20
9.411301107793567
 30
0.0
 10
12.26718649614614
 20
9.099169481168154
 30
0.0
 10
13.57653069927761
 20
8.69146595953028
 30
0.0
  0
SPLINE
  5
9E8
330
1F
100
AcDbEntity
  8
1
  6
Continuous
370
    25
100
AcDbSpline
210
0.0
220
0.0
230
1.0
 70
     8
 71
     3
 72
    12
 73
     8
 74
     0
 42
0.000000001
 43
0.0000000001
 40
0.0
 40
0.0
 40
0.0
 40
0.0
 40
0.2500000000000001
 40
0.2500000000000001
 40
0.5000000000000002
 40
0.5000000000000002
 40
1.0
 40
1.0
 40
1.0
 40
1.0
 10
5.530289175671826
 20
9.992923240961339
 30
0.0
 10
6.211851044203677
 20
9.980803274753462
 30
0.0
 10
6.891565057812721
 20
9.945255134411786
 30
0.0
 10
8.24759770128224
 20
9.827387562158444
 30
0.0
 10
8.924927352543278
 20
9.744897384858012
 30
0.0
 10
10.94415295527002
 20
9.427755495318061
 30
0.0
 10
12.27020497880142
 20
9.124599587546843
 30
0.0
 10
13.57653069927803
 20
8.729383100813542
 30
0.0
  0
SPLINE
  5
9E9
330
1F
100
AcDbEntity
  8
1
  6
Continuous
370
    25
100
AcDbSpline
210
0.0
220
0.0
230
1.0
 70
     8
 71
     3
 72
    12
 73
     8
 74
     0
 42
0.000000001
 43
0.0000000001
 40
0.0
 40
0.0
 40
0.0
 40
0.0
 40
0.5
 40
0.5
 40
0.75
 40
0.75
 40
1.0
 40
1.0
 40
1.0
 40
1.0
 10
13.57653069927756
 20
8.691465959530255
 30
0.0
 10
13.98423023714978
 20
8.56451650119601
 30
0.0
 10
14.35039647079343
 20
8.30598835397363
 30
0.0
 10
14.73561945725002
 20
7.787251058035422
 30
0.0
 10
14.83483007807932
 20
7.597151513476076
 30
0.0
 10
14.97077654557052
 20
7.188387045332688
 30
0.0
 10
15.00491233578953
 20
6.978613145528115
 30
0.0
 10
15.0047613361411
 20
6.763713116163947
 30
0.0
  0
SPLINE
  5
9EA
330
1F
100
AcDbEntity
  8
1
  6
Continuous
370
    25
100
AcDbSpline
210
0.0
220
0.0
230
1.0
 70
     8
 71
     3
 72
    16
 73
    12
 74
     0
 42
0.000000001
 43
0.0000000001
 40
0.0
 40
0.0
 40
0.0
 40
0.0
 40
0.5
 40
0.5
 40
0.75
 40
0.75
 40
0.875
 40
0.875
 40
0.9375
 40
0.9375
 40
1.0
 40
1.0
 40
1.0
 40
1.0
 10
15.00441259634101
 20
6.267388596736793
 30
0.0
 10
14.94864556203985
 20
5.226054180362992
 30
0.0
 10
14.89287854653451
 20
4.184719762673822
 30
0.0
 10
14.80923713709543
 20
2.622717498339325
 30
0.0
 10
14.78135674208458
 20
2.102050071659709
 30
0.0
 10
14.73955392785692
 20
1.321047687485011
 30
0.0
 10
14.72561995138565
 20
1.060713538786522
 30
0.0
 10
14.70475276751322
 20
0.6702099516977779
 30
0.0
 10
14.69779816919782
 20
0.5400420102805651
 30
0.0
 10
14.68396992174247
 20
0.279700462483397
 30
0.0
 10
14.67477096484509
 20
0.1496895851462124
 30
0.0
 10
14.6715292459856
 20
0.0192618100283251
 30
0.0
  0
SPLINE
  5
9EB
330
1F
100
AcDbEntity
  8
1
  6
Continuous
370
    25
100
AcDbSpline
210
0.0
220
0.0
230
1.0
 70
     8
 71
     3
 72
    12
 73
     8
 74
     0
 42
0.000000001
 43
0.0000000001
 40
0.6840381824778082
 40
0.6840381824778082
 40
0.6840381824778082
 40
0.6840381824778082
 40
0.849356983877189
 40
0.849356983877189
 40
0.9304225011901683
 40
0.9304225011901683
 40
0.9626217770768812
 40
0.9626217770768812
 40
0.9626217770768812
 40
0.9626217770768812
 10
0.9508345530182978
 20
9.626595663518008
 30
0.0
 10
1.852168519465971
 20
9.777002809149015
 30
0.0
 10
2.756509061152784
 20
9.879652602671702
 30
0.0
 10
4.108317745081135
 20
9.965801385394987
 30
0.0
 10
4.554792923600268
 20
9.983313396981023
 30
0.0
 10
5.176833114595916
 20
9.992667772631952
 30
0.0
 10
5.353569685561931
 20
9.993638312009457
 30
0.0
 10
5.530289175672002
 20
9.992923240960855
 30
0.0
  0
SPLINE
  5
9EC
330
1F
100
AcDbEntity
  8
1
  6
Continuous
370
    25
100
AcDbSpline
210
0.0
220
0.0
230
1.0
 70
     8
 71
     3
 72
     8
 73
     4
 74
     0
 42
0.000000001
 43
0.0000000001
 40
0.0000000000000001
 40
0.0000000000000001
 40
0.0000000000000001
 40
0.0000000000000001
 40
0.0000467787985095
 40
0.0000467787985095
 40
0.0000467787985095
 40
0.0000467787985095
 10
13.5765306992776
 20
8.729383100813691
 30
0.0
 10
13.59143099595043
 20
8.724875157036718
 30
0.0
 10
13.60636334551671
 20
8.720218915804601
 30
0.0
 10
13.62118845454734
 20
8.715457235603357
 30
0.0
  0
SPLINE
  5
9ED
330
1F
100
AcDbEntity
  8
1
  6
Continuous
370
    25
100
AcDbSpline
210
0.0
220
0.0
230
1.0
 70
     8
 71
     3
 72
    14
 73
    10
 74
     0
 42
0.000000001
 43
0.0000000001
 40
0.0
 40
0.0
 40
0.0
 40
0.0
 40
0.2500000000000003
 40
0.2500000000000003
 40
0.5000000000000007
 40
0.5000000000000007
 40
0.7500000000000006
 40
0.7500000000000006
 40
1.0
 40
1.0
 40
1.0
 40
1.0
 10
13.6211884545472
 20
8.715457235603061
 30
0.0
 10
13.81931026697237
 20
8.647761025365149
 30
0.0
 10
14.00439431104667
 20
8.551026123424783
 30
0.0
 10
14.34952922837293
 20
8.295904169936179
 30
0.0
 10
14.49994791541379
 20
8.14450944040859
 30
0.0
 10
14.75312167245541
 20
7.793683180585317
 30
0.0
 10
14.849181445423
 20
7.602248120028042
 30
0.0
 10
14.97724722723522
 20
7.201155044599971
 30
0.0
 10
15.00489843084919
 20
7.009143817815639
 30
0.0
 10
15.0047613361411
 20
6.817731286559477
 30
0.0
  0
SPLINE
  5
9EE
330
1F
100
AcDbEntity
  8
1
  6
Continuous
370
    25
100
AcDbSpline
210
0.0
220
0.0
230
1.0
 70
     8
 71
     3
 72
     8
 73
     4
 74
     0
 42
0.000000001
 43
0.0000000001
 40
0.0000040673049574
 40
0.0000040673049574
 40
0.0000040673049574
 40
0.0000040673049574
 40
0.0001571539429133
 40
0.0001571539429133
 40
0.0001571539429133
 40
0.0001571539429133
 10
15.00441259634101
 20
-6.324974977858905
 30
0.0
 10
15.00190348166755
 20
-6.278708014420693
 30
0.0
 10
14.99939841869853
 20
-6.232429591040753
 30
0.0
 10
14.996897659878
 20
-6.18613904343855
 30
0.0
  0
SPLINE
  5
9EF
330
1F
100
AcDbEntity
  8
1
  6
Continuous
370
    25
100
AcDbSpline
210
0.0
220
0.0
230
1.0
 70
     8
 71
     3
 72
    14
 73
    10
 74
     0
 42
0.000000001
 43
0.0000000001
 40
0.0
 40
0.0
 40
0.0
 40
0.0
 40
0.2499999999999999
 40
0.2499999999999999
 40
0.5
 40
0.5
 40
0.75
 40
0.75
 40
1.0
 40
1.0
 40
1.0
 40
1.0
 10
13.6211884545472
 20
-8.720205469019838
 30
0.0
 10
13.81931026697237
 20
-8.652509258781924
 30
0.0
 10
14.00439431104667
 20
-8.555774356841551
 30
0.0
 10
14.34952922837292
 20
-8.300652403352955
 30
0.0
 10
14.49994791541379
 20
-8.149257673825367
 30
0.0
 10
14.75312167245541
 20
-7.798431414002102
 30
0.0
 10
14.849181445423
 20
-7.60699635344482
 30
0.0
 10
14.97724722723522
 20
-7.205903278016747
 30
0.0
 10
15.00489843084919
 20
-7.01389205123241
 30
0.0
 10
15.0047613361411
 20
-6.822479519976253
 30
0.0
  0
SPLINE
  5
9F0
330
1F
100
AcDbEntity
  8
1
  6
Continuous
370
    25
100
AcDbSpline
210
0.0
220
0.0
230
1.0
 70
     8
 71
     3
 72
     8
 73
     4
 74
     0
 42
0.000000001
 43
0.0000000001
 40
0.0
 40
0.0
 40
0.0
 40
0.0
 40
1.0
 40
1.0
 40
1.0
 40
1.0
 10
15.00476133614109
 20
-6.822479519976247
 30
0.0
 10
15.00470335437406
 20
-6.741524996272707
 30
0.0
 10
15.00463734367153
 20
-6.647318988628455
 30
0.0
 10
15.00457627757289
 20
-6.558511990536322
 30
0.0
  0
SPLINE
  5
9F1
330
1F
100
AcDbEntity
  8
1
  6
Continuous
370
    25
100
AcDbSpline
210
0.0
220
0.0
230
1.0
 70
     8
 71
     3
 72
     8
 73
     4
 74
     0
 42
0.000000001
 43
0.0000000001
 40
0.0
 40
0.0
 40
0.0
 40
0.0
 40
1.0
 40
1.0
 40
1.0
 40
1.0
 10
14.6715292459856
 20
0.019261810028318
 30
0.0
 10
14.67242209201078
 20
-0.0470421012929169
 30
0.0
 10
14.67778066719725
 20
-0.1139573930683259
 30
0.0
 10
14.68183871474157
 20
-0.1806946361641696
 30
0.0
  0
LWPOLYLINE
  5
9F2
330
1F
100
AcDbEntity
  8
1
  6
Continuous
370
    25
100
AcDbPolyline
 90
        3
 70
   128
 43
0.0
 10
15.0044125962979
 20
-6.272136830108387
 10
14.8371176279979
 20
-3.148133546208383
 10
14.7877704211979
 20
-2.226442333708384
  0
SPLINE
  5
9F3
330
1F
100
AcDbEntity
  8
1
  6
Continuous
370
    25
100
AcDbSpline
210
0.0
220
0.0
230
1.0
 70
     8
 71
     3
 72
     8
 73
     4
 74
     0
 42
0.000000001
 43
0.0000000001
 40
0.0001993571944314
 40
0.0001993571944314
 40
0.0001993571944314
 40
0.0001993571944314
 40
0.0003886224426408
 40
0.0003886224426408
 40
0.0003886224426408
 40
0.0003886224426408
 10
0.7176801923871579
 20
-9.60186265936057
 30
0.0
 10
0.7734141992259196
 20
-9.610750221056411
 30
0.0
 10
0.8292035953924084
 20
-9.619501656807647
 30
0.0
 10
0.8850475658157549
 20
-9.628116092560267
 30
0.0
  0
SPLINE
  5
9F4
330
1F
100
AcDbEntity
  8
1
  6
Continuous
370
    25
100
AcDbSpline
210
0.0
220
0.0
230
1.0
 70
     8
 71
     3
 72
    11
 73
     7
 74
     0
 42
0.000000001
 43
0.0000000001
 40
0.0001308113730627
 40
0.0001308113730627
 40
0.0001308113730627
 40
0.0001308113730627
 40
0.0009693397724896
 40
0.0009693397724896
 40
0.0009693397724896
 40
0.0019138893997903
 40
0.0019138893997903
 40
0.0019138893997903
 40
0.0019138893997903
 10
0.0782808987859354
 20
-9.530905928581168
 30
0.0
 10
0.1789450875561171
 20
-9.541685143668344
 30
0.0
 10
0.2790258385646509
 20
-9.552926502123561
 30
0.0
 10
0.3790922739503002
 20
-9.564178949849797
 30
0.0
 10
0.4918108973522891
 20
-9.576854133218867
 30
0.0
 10
0.6046719548209949
 20
-9.589416659320768
 30
0.0
 10
0.7176801923871155
 20
-9.601862659360556
 30
0.0
  0
SPLINE
  5
9F5
330
1F
100
AcDbEntity
  8
1
  6
Continuous
370
    25
100
AcDbSpline
210
0.0
220
0.0
230
1.0
 70
     8
 71
     3
 72
     8
 73
     4
 74
     0
 42
0.000000001
 43
0.0000000001
 40
0.0
 40
0.0
 40
0.0
 40
0.0
 40
1.0
 40
1.0
 40
1.0
 40
1.0
 10
-0.0000024506021021
 20
-9.517194550540844
 30
0.0
 10
0.0261233336513498
 20
-9.521775478807306
 30
0.0
 10
0.0522179284490263
 20
-9.526345889509904
 30
0.0
 10
0.0782808987858572
 20
-9.530905928581157
 30
0.0
  0
SPLINE
  5
9F6
330
1F
100
AcDbEntity
  8
1
  6
Continuous
370
    25
100
AcDbSpline
210
0.0
220
0.0
230
1.0
 70
    24
 71
     3
 72
    14
 73
    10
 74
     0
 42
0.000000001
 43
0.0000000001
 40
0.0
 40
0.0
 40
0.0
 40
0.0
 40
0.0010037729698933
 40
0.0010037729698933
 40
0.0010037729698933
 40
0.0015056594830072
 40
0.0015056594830072
 40
0.0015056594830072
 40
0.0018948093155115
 40
0.0018948093155115
 40
0.0018948093155115
 40
0.0018948093155115
 10
-0.0000024506021021
 20
-9.465008606611924
 30
0.0
 10
-0.0000024506021021
 20
-9.474306962790072
 30
0.0
 10
-0.0000024506021021
 20
-9.483560787188173
 30
0.0
 10
-0.0000024506021021
 20
-9.492770799513527
 30
0.0
 10
-0.0000024506021021
 20
-9.497375805964773
 30
0.0
 10
-0.0000024506021021
 20
-9.5019698591825
 30
0.0
 10
-0.0000024506021021
 20
-9.506553047684683
 30
0.0
 10
-0.0000024506021021
 20
-9.510106733610859
 30
0.0
 10
-0.0000024506021021
 20
-9.513653887605832
 30
0.0
 10
-0.0000024506021021
 20
-9.517194550540844
 30
0.0
  0
SPLINE
  5
9F7
330
1F
100
AcDbEntity
  8
1
  6
Continuous
370
    25
100
AcDbSpline
210
0.0
220
0.0
230
1.0
 70
     8
 71
     3
 72
     8
 73
     4
 74
     0
 42
0.000000001
 43
0.0000000001
 40
0.0
 40
0.0
 40
0.0
 40
0.0
 40
0.0000717915901373
 40
0.0000717915901373
 40
0.0000717915901373
 40
0.0000717915901373
 10
0.8850475670715894
 20
9.623367858554706
 30
0.0
 10
0.9069711526886351
 20
9.624462957074975
 30
0.0
 10
0.9289001631938603
 20
9.625538905257094
 30
0.0
 10
0.9508345530183047
 20
9.626595663518008
 30
0.0
  0
SPLINE
  5
9F8
330
1F
100
AcDbEntity
  8
1
  6
Continuous
370
    25
100
AcDbSpline
210
0.0
220
0.0
230
1.0
 70
     8
 71
     3
 72
     8
 73
     4
 74
     0
 42
0.000000001
 43
0.0000000001
 40
0.0001993571944314
 40
0.0001993571944314
 40
0.0001993571944314
 40
0.0001993571944314
 40
0.0003886224426408
 40
0.0003886224426408
 40
0.0003886224426408
 40
0.0003886224426408
 10
0.7176801923871579
 20
9.597114425943793
 30
0.0
 10
0.7734141992259196
 20
9.606001987639636
 30
0.0
 10
0.8292035953924084
 20
9.614753423390887
 30
0.0
 10
0.8850475658157549
 20
9.623367859143506
 30
0.0
  0
LINE
  5
9F9
330
1F
100
AcDbEntity
  8
1
  6
Continuous
370
    25
100
AcDbLine
 10
13.49529418089789
 20
-8.536272731408379
 30
0.0
 11
13.2964802140979
 21
-8.116242326308388
 31
0.0
  0
LINE
  5
9FA
330
1F
100
AcDbEntity
  8
1
  6
Continuous
370
    25
100
AcDbLine
 10
14.78524345799789
 20
-6.925463111808382
 30
0.0
 11
14.28534114699789
 21
-7.336970694908379
 31
0.0
  0
LINE
  5
9FB
330
1F
100
AcDbEntity
  8
1
  6
Continuous
370
    25
100
AcDbLine
 10
14.4084561668979
 20
-7.948591767608382
 30
0.0
 11
13.9073205083979
 21
-7.895991269808384
 31
0.0
  0
LINE
  5
9FC
330
1F
100
AcDbEntity
  8
1
  6
Continuous
370
    25
100
AcDbLine
 10
14.28534114699789
 20
-7.336970694908379
 30
0.0
 11
14.3161827224979
 21
-6.550998772308383
 31
0.0
  0
LINE
  5
9FD
330
1F
100
AcDbEntity
  8
1
  6
Continuous
370
    25
100
AcDbLine
 10
14.7848546714979
 20
-6.358951651808387
 30
0.0
 11
14.78524345799789
 21
-6.925463111808382
 31
0.0
  0
LINE
  5
9FE
330
1F
100
AcDbEntity
  8
1
  6
Continuous
370
    25
100
AcDbLine
 10
13.6211884544979
 20
-8.720205469008384
 30
0.0
 11
13.49529418089789
 21
-8.536272731408379
 31
0.0
  0
LINE
  5
9FF
330
1F
100
AcDbEntity
  8
1
  6
Continuous
370
    25
100
AcDbLine
 10
0.5999975493978993
 20
8.745711517591606
 30
0.0
 11
14.3049405927979
 21
-0.6310031862083823
 31
0.0
  0
LINE
  5
A00
330
1F
100
AcDbEntity
  8
1
  6
Continuous
370
    25
100
AcDbLine
 10
-0.0000024506021021
 20
9.339660849691616
 30
0.0
 11
0.5999975493978993
 21
8.745711517591606
 31
0.0
  0
LINE
  5
A01
330
1F
100
AcDbEntity
  8
1
  6
Continuous
370
    25
100
AcDbLine
 10
-0.0000024506021021
 20
2.497625883291607
 30
0.0
 11
-0.0000024506021021
 21
9.512446317091603
 31
0.0
  0
LINE
  5
A02
330
1F
100
AcDbEntity
  8
1
  6
Continuous
370
    25
100
AcDbLine
 10
14.6818387146979
 20
-0.1806946362083796
 30
0.0
 11
0.7176801923979013
 21
9.597114425991613
 31
0.0
  0
LINE
  5
A03
330
1F
100
AcDbEntity
  8
1
  6
Continuous
370
    25
100
AcDbLine
 10
0.5999975493978993
 20
8.745711517591606
 30
0.0
 11
0.5999975493978993
 21
-9.207684921008386
 31
0.0
  0
LINE
  5
A04
330
1F
100
AcDbEntity
  8
1
  6
Continuous
370
    25
100
AcDbLine
 10
-0.0000024506021021
 20
-2.502374116708388
 30
0.0
 11
0.299997549397895
 21
-2.502374116708388
 31
0.0
  0
LINE
  5
A05
330
1F
100
AcDbEntity
  8
1
  6
Continuous
370
    25
100
AcDbLine
 10
0.299997549397895
 20
-2.502374116708388
 30
0.0
 11
0.299997549397895
 21
2.497625883291607
 31
0.0
  0
LINE
  5
A06
330
1F
100
AcDbEntity
  8
1
  6
Continuous
370
    25
100
AcDbLine
 10
0.299997549397895
 20
2.497625883291607
 30
0.0
 11
-0.0000024506021021
 21
2.497625883291607
 31
0.0
  0
LINE
  5
A07
330
1F
100
AcDbEntity
  8
1
  6
Continuous
370
    25
100
AcDbLine
 10
-0.0000024506021021
 20
-9.232237931808382
 30
0.0
 11
-0.0000024506021021
 21
-2.502374116708388
 31
0.0
  0
LINE
  5
A08
330
1F
100
AcDbEntity
  8
1
  6
Continuous
370
    25
100
AcDbLine
 10
13.5765306992979
 20
8.691465959491615
 30
0.0
 11
13.5765306992979
 21
8.729383100791615
 31
0.0
  0
LINE
  5
A09
330
1F
100
AcDbEntity
  8
1
  6
Continuous
370
    25
100
AcDbLine
 10
15.0047613360979
 20
6.76371311619161
 30
0.0
 11
15.0044125962979
 21
6.267388596691611
 31
0.0
  0
LINE
  5
A0A
330
1F
100
AcDbEntity
  8
1
  6
Continuous
370
    25
100
AcDbLine
 10
14.6715292459979
 20
0.0192618099916114
 30
0.0
 11
0.950834552997898
 21
9.626595663491617
 31
0.0
  0
LINE
  5
A0B
330
1F
100
AcDbEntity
  8
1
  6
Continuous
370
    25
100
AcDbLine
 10
15.0047613360979
 20
6.76371311619161
 30
0.0
 11
15.0047613360979
 21
6.817731286591615
 31
0.0
  0
LINE
  5
A0C
330
1F
100
AcDbEntity
  8
1
  6
Continuous
370
    25
100
AcDbLine
 10
15.0045762775979
 20
-6.558511990508382
 30
0.0
 11
15.0044125962979
 21
-6.324974977908387
 31
0.0
  0
LINE
  5
A0D
330
1F
100
AcDbEntity
  8
1
  6
Continuous
370
    25
100
AcDbLine
 10
15.0045762775979
 20
-6.558511990508382
 30
0.0
 11
14.78524345799789
 21
-6.925463111808382
 31
0.0
  0
LINE
  5
A0E
330
1F
100
AcDbEntity
  8
1
  6
Continuous
370
    25
100
AcDbLine
 10
14.6726447634979
 20
-0.0023741167083888
 30
0.0
 11
14.6818387146979
 21
0.1759464027916163
 31
0.0
  0
LINE
  5
A0F
330
1F
100
AcDbEntity
  8
1
  6
Continuous
370
    25
100
AcDbLine
 10
15.0044125962979
 20
-6.272136830108387
 30
0.0
 11
15.0044125962979
 21
-6.324974977908387
 31
0.0
  0
LINE
  5
A10
330
1F
100
AcDbEntity
  8
1
  6
Continuous
370
    25
100
AcDbLine
 10
15.0047613360979
 20
-6.768461349608378
 30
0.0
 11
15.0047613360979
 21
-6.822479520008386
 31
0.0
  0
LINE
  5
A11
330
1F
100
AcDbEntity
  8
1
  6
Continuous
370
    25
100
AcDbLine
 10
15.0047613360979
 20
-6.768461349608378
 30
0.0
 11
15.0044125962979
 21
-6.272136830108387
 31
0.0
  0
SPLINE
  5
A6E
330
1F
100
AcDbEntity
  8
SKVIEW1
  6
Continuous
370
    25
100
AcDbSpline
210
0.0
220
0.0
230
1.0
 70
     8
 71
     3
 72
    12
 73
     8
 74
     0
 42
0.000000001
 43
0.0000000001
 40
0.0
 40
0.0
 40
0.0
 40
0.0
 40
0.4999999999999992
 40
0.4999999999999992
 40
0.7499999999999996
 40
0.7499999999999996
 40
1.0
 40
1.0
 40
1.0
 40
1.0
 10
37.1339384733133
 20
-8.717756832383003
 30
0.0
 10
37.17477085461549
 20
-8.590803170206482
 30
0.0
 10
37.19369753780942
 20
-8.33229473922465
 30
0.0
 10
37.18331222672617
 20
-7.813533922500866
 30
0.0
 10
37.17370090335233
 20
-7.623452690590553
 30
0.0
 10
37.14232194562921
 20
-7.214667443551475
 30
0.0
 10
37.12129045884121
 20
-7.004911419816918
 30
0.0
 10
37.09488224789399
 20
-6.79000398901671
 30
0.0
  0
SPLINE
  5
A6F
330
1F
100
AcDbEntity
  8
SKVIEW1
  6
Continuous
370
    25
100
AcDbSpline
210
0.0
220
0.0
230
1.0
 70
     8
 71
     3
 72
     8
 73
     4
 74
     0
 42
0.000000001
 43
0.0000000001
 40
0.0000000000000001
 40
0.0000000000000001
 40
0.0000000000000001
 40
0.0000000000000001
 40
0.0000467787985095
 40
0.0000467787985095
 40
0.0000467787985095
 40
0.0000467787985095
 10
36.6942773378949
 20
-8.755673973666446
 30
0.0
 10
36.69517129338005
 20
-8.751166029889475
 30
0.0
 10
36.6952088826446
 20
-8.746509788657348
 30
0.0
 10
36.69438299019684
 20
-8.741748108456121
 30
0.0
  0
SPLINE
  5
A70
330
1F
100
AcDbEntity
  8
SKVIEW1
  6
Continuous
370
    25
100
AcDbSpline
210
0.0
220
0.0
230
1.0
 70
     8
 71
     3
 72
    14
 73
    10
 74
     0
 42
0.000000001
 43
0.0000000001
 40
0.0
 40
0.0
 40
0.0
 40
0.0
 40
0.2499999999999999
 40
0.2499999999999999
 40
0.5
 40
0.5
 40
0.75
 40
0.75
 40
1.0
 40
1.0
 40
1.0
 40
1.0
 10
36.69438299019586
 20
-8.741748108455823
 30
0.0
 10
36.74993970086755
 20
-8.674051898217904
 30
0.0
 10
36.79574028856718
 20
-8.577316996277531
 30
0.0
 10
36.85537431522004
 20
-8.322195042788932
 30
0.0
 10
36.86630477663206
 20
-8.170800313261352
 30
0.0
 10
36.85120507760692
 20
-7.81997405343808
 30
0.0
 10
36.83122317975867
 20
-7.628538992880802
 30
0.0
 10
36.72400360685529
 20
-7.227445917452726
 30
0.0
 10
36.63097369502905
 20
-7.035434690668392
 30
0.0
 10
36.53020694597375
 20
-6.844022159412232
 30
0.0
  0
SPLINE
  5
A71
330
1F
100
AcDbEntity
  8
SKVIEW1
  6
Continuous
370
    25
100
AcDbSpline
210
0.0
220
0.0
230
1.0
 70
     8
 71
     3
 72
    14
 73
    10
 74
     0
 42
0.000000001
 43
0.0000000001
 40
0.0
 40
0.0
 40
0.0
 40
0.0
 40
0.2500000000000003
 40
0.2500000000000003
 40
0.5000000000000007
 40
0.5000000000000007
 40
0.7500000000000006
 40
0.7500000000000006
 40
1.0
 40
1.0
 40
1.0
 40
1.0
 10
35.63101899165883
 20
8.693914596167076
 30
0.0
 10
35.57546228098715
 20
8.626218385929162
 30
0.0
 10
35.52966169328753
 20
8.529483483988798
 30
0.0
 10
35.47002766663467
 20
8.274361530500192
 30
0.0
 10
35.45909720522266
 20
8.122966800972612
 30
0.0
 10
35.47419690424781
 20
7.772140541149332
 30
0.0
 10
35.49417880209603
 20
7.580705480592057
 30
0.0
 10
35.60139837499942
 20
7.179612405163992
 30
0.0
 10
35.69442828682566
 20
6.987601178379652
 30
0.0
 10
35.79519503588097
 20
6.7961886471235
 30
0.0
  0
SPLINE
  5
A72
330
1F
100
AcDbEntity
  8
SKVIEW1
  6
Continuous
370
    25
100
AcDbSpline
210
0.0
220
0.0
230
1.0
 70
     8
 71
     3
 72
    10
 73
     6
 74
     0
 42
0.000000001
 43
0.0000000001
 40
0.1089041934125805
 40
0.1089041934125805
 40
0.1089041934125805
 40
0.1089041934125805
 40
0.1478953108632806
 40
0.1478953108632806
 40
0.1868864283139727
 40
0.1868864283139727
 40
0.1868864283139727
 40
0.1868864283139727
 10
37.10038639244492
 20
7.922300894724017
 30
0.0
 10
37.09870683904084
 20
8.064605363139634
 30
0.0
 10
37.10238025975804
 20
8.191021499497622
 30
0.0
 10
37.12088671388637
 20
8.392061898767911
 30
0.0
 10
37.13531713958568
 20
8.464935007716736
 30
0.0
 10
37.15459384024612
 20
8.509981858525527
 30
0.0
  0
SPLINE
  5
A73
330
1F
100
AcDbEntity
  8
SKVIEW1
  6
Continuous
370
    25
100
AcDbSpline
210
0.0
220
0.0
230
1.0
 70
     8
 71
     3
 72
    10
 73
     6
 74
     0
 42
0.000000001
 43
0.0000000001
 40
0.0309744592168576
 40
0.0309744592168576
 40
0.0309744592168576
 40
0.0309744592168576
 40
0.0699393263147191
 40
0.0699393263147191
 40
0.1089041934125805
 40
0.1089041934125805
 40
0.1089041934125805
 40
0.1089041934125805
 10
37.17387004505833
 20
6.899172238928812
 30
0.0
 10
37.15295125642587
 20
7.077740044374727
 30
0.0
 10
37.13519077593967
 20
7.264231502546745
 30
0.0
 10
37.10967356713343
 20
7.617172616172374
 30
0.0
 10
37.10206481510763
 20
7.780092231269917
 30
0.0
 10
37.10038639244491
 20
7.922300894724017
 30
0.0
  0
SPLINE
  5
A74
330
1F
100
AcDbEntity
  8
SKVIEW1
  6
Continuous
370
    25
100
AcDbSpline
210
0.0
220
0.0
230
1.0
 70
     8
 71
     3
 72
     8
 73
     4
 74
     0
 42
0.000000001
 43
0.0000000001
 40
0.0
 40
0.0
 40
0.0
 40
0.0
 40
1.0
 40
1.0
 40
1.0
 40
1.0
 10
35.79519503588232
 20
6.796188647123557
 30
0.0
 10
35.83781253914291
 20
6.715234123420017
 30
0.0
 10
35.85035196762545
 20
6.621028115775387
 30
0.0
 10
35.82801131856782
 20
6.532221117683562
 30
0.0
  0
SPLINE
  5
A75
330
1F
100
AcDbEntity
  8
SKVIEW1
  6
Continuous
370
    25
100
AcDbSpline
210
0.0
220
0.0
230
1.0
 70
     8
 71
     3
 72
    10
 73
     6
 74
     0
 42
0.000000001
 43
0.0000000001
 40
0.1089041934125805
 40
0.1089041934125805
 40
0.1089041934125805
 40
0.1089041934125805
 40
0.1478953108632806
 40
0.1478953108632806
 40
0.1868864283139727
 40
0.1868864283139727
 40
0.1868864283139727
 40
0.1868864283139727
 10
35.22501558940979
 20
-7.970134407012764
 30
0.0
 10
35.22669514281387
 20
-8.112438875428367
 30
0.0
 10
35.22302172209666
 20
-8.23885501178637
 30
0.0
 10
35.20451526796835
 20
-8.439895411056651
 30
0.0
 10
35.19008484226902
 20
-8.512768520005478
 30
0.0
 10
35.17080814160858
 20
-8.557815370814267
 30
0.0
  0
SPLINE
  5
A76
330
1F
100
AcDbEntity
  8
SKVIEW1
  6
Continuous
370
    25
100
AcDbSpline
210
0.0
220
0.0
230
1.0
 70
     8
 71
     3
 72
    10
 73
     6
 74
     0
 42
0.000000001
 43
0.0000000001
 40
0.0309744592168576
 40
0.0309744592168576
 40
0.0309744592168576
 40
0.0309744592168576
 40
0.0699393263147191
 40
0.0699393263147191
 40
0.1089041934125805
 40
0.1089041934125805
 40
0.1089041934125805
 40
0.1089041934125805
 10
35.15153193679638
 20
-6.947005751217552
 30
0.0
 10
35.17245072542884
 20
-7.125573556663467
 30
0.0
 10
35.19021120591504
 20
-7.312065014835482
 30
0.0
 10
35.21572841472128
 20
-7.665006128461115
 30
0.0
 10
35.22333716674707
 20
-7.827925743558651
 30
0.0
 10
35.22501558940979
 20
-7.970134407012747
 30
0.0
  0
SPLINE
  5
A77
330
1F
100
AcDbEntity
  8
SKVIEW1
  6
Continuous
370
    25
100
AcDbSpline
210
0.0
220
0.0
230
1.0
 70
     8
 71
     3
 72
     8
 73
     4
 74
     0
 42
0.000000001
 43
0.0000000001
 40
0.0
 40
0.0
 40
0.0
 40
0.0
 40
1.0
 40
1.0
 40
1.0
 40
1.0
 10
36.53020694597373
 20
-6.844022159412232
 30
0.0
 10
36.48758944271313
 20
-6.763067635708678
 30
0.0
 10
36.47505001422918
 20
-6.668861628064432
 30
0.0
 10
36.49739066328689
 20
-6.580054629972303
 30
0.0
  0
SPLINE
  5
A78
330
1F
100
AcDbEntity
  8
SKVIEW1
  6
Continuous
370
    25
100
AcDbSpline
210
0.0
220
0.0
230
1.0
 70
     8
 71
     3
 72
    12
 73
     8
 74
     0
 42
0.000000001
 43
0.0000000001
 40
0.0
 40
0.0
 40
0.0
 40
0.0
 40
0.5
 40
0.5
 40
0.75
 40
0.75
 40
1.0
 40
1.0
 40
1.0
 40
1.0
 10
35.1914635085414
 20
8.66992332009427
 30
0.0
 10
35.15063247933011
 20
8.542973861760025
 30
0.0
 10
35.13170476223673
 20
8.284445714537646
 30
0.0
 10
35.14208959098414
 20
7.765708418599442
 30
0.0
 10
35.1517018708775
 20
7.575608874040081
 30
0.0
 10
35.18307923077234
 20
7.166844405896704
 30
0.0
 10
35.20411243251525
 20
6.957070506092127
 30
0.0
 10
35.23051973396071
 20
6.742170476727962
 30
0.0
  0
SPLINE
  5
A79
330
1F
100
AcDbEntity
  8
SKVIEW1
  6
Continuous
370
    25
100
AcDbSpline
210
0.0
220
0.0
230
1.0
 70
     8
 71
     3
 72
     8
 73
     4
 74
     0
 42
0.000000001
 43
0.0000000001
 40
0.0000000000000001
 40
0.0000000000000001
 40
0.0000000000000001
 40
0.0000000000000001
 40
0.0000467787985095
 40
0.0000467787985095
 40
0.0000467787985095
 40
0.0000467787985095
 10
35.63112464395981
 20
8.707840461377706
 30
0.0
 10
35.63023068847465
 20
8.703332517600735
 30
0.0
 10
35.63019309921011
 20
8.698676276368615
 30
0.0
 10
35.63101899165785
 20
8.693914596167374
 30
0.0
  0
SPLINE
  5
A7A
330
1F
100
AcDbEntity
  8
SKVIEW1
  6
Continuous
370
    25
100
AcDbSpline
210
0.0
220
0.0
230
1.0
 70
     8
 71
     3
 72
    14
 73
    10
 74
     0
 42
0.000000001
 43
0.0000000001
 40
0.0
 40
0.0
 40
0.0
 40
0.0
 40
0.5
 40
0.5
 40
0.75
 40
0.75
 40
0.875
 40
0.875
 40
1.0
 40
1.0
 40
1.0
 40
1.0
 10
36.40461256597453
 20
-6.207681682874564
 30
0.0
 10
36.27049728103831
 20
-5.232692930679951
 30
0.0
 10
36.1347135100694
 20
-4.257886134299481
 30
0.0
 10
35.91212695562204
 20
-2.798494929402821
 30
0.0
 10
35.83379575696878
 20
-2.312595934355897
 30
0.0
 10
35.70327347899047
 20
-1.585925989449845
 30
0.0
 10
35.65722009127654
 20
-1.344149754152488
 30
0.0
 10
35.55993624707277
 20
-0.8614208683435149
 30
0.0
 10
35.50651754829535
 20
-0.6208630419317132
 30
0.0
 10
35.4684047303406
 20
-0.3773615963818599
 30
0.0
  0
SPLINE
  5
A7B
330
1F
100
AcDbEntity
  8
SKVIEW1
  6
Continuous
370
    25
100
AcDbSpline
210
0.0
220
0.0
230
1.0
 70
     8
 71
     3
 72
     8
 73
     4
 74
     0
 42
0.000000001
 43
0.0000000001
 40
0.0
 40
0.0
 40
0.0
 40
0.0
 40
1.0
 40
1.0
 40
1.0
 40
1.0
 10
35.97904209239035
 20
-0.2022372756000692
 30
0.0
 10
35.80866702387167
 20
-0.2602356589441115
 30
0.0
 10
35.63856430007581
 20
-0.3188644159794478
 30
0.0
 10
35.46840473031706
 20
-0.3773615963898038
 30
0.0
  0
SPLINE
  5
A7C
330
1F
100
AcDbEntity
  8
SKVIEW1
  6
Continuous
370
    25
100
AcDbSpline
210
0.0
220
0.0
230
1.0
 70
     8
 71
     3
 72
     8
 73
     4
 74
     0
 42
0.000000001
 43
0.0000000001
 40
0.0
 40
0.0
 40
0.0
 40
0.0
 40
1.0
 40
1.0
 40
1.0
 40
1.0
 10
36.10474770063716
 20
-0.0022808294076597
 30
0.0
 10
36.06204864011586
 20
-0.0685847407288947
 30
0.0
 10
36.0207491623127
 20
-0.1355000325043107
 30
0.0
 10
35.97904209239039
 20
-0.2022372756001474
 30
0.0
  0
SPLINE
  5
A7D
330
1F
100
AcDbEntity
  8
SKVIEW1
  6
Continuous
370
    25
100
AcDbSpline
210
0.0
220
0.0
230
1.0
 70
     8
 71
     3
 72
     8
 73
     4
 74
     0
 42
0.000000001
 43
0.0000000001
 40
0.0000040673049574
 40
0.0000040673049574
 40
0.0000040673049574
 40
0.0000040673049574
 40
0.0001571539429133
 40
0.0001571539429133
 40
0.0001571539429133
 40
0.0001571539429133
 10
35.85672983121033
 20
6.298684105006159
 30
0.0
 10
35.87810783985974
 20
6.252417141567947
 30
0.0
 10
35.89946154153536
 20
6.206138718187997
 30
0.0
 10
35.92078941588001
 20
6.159848170585802
 30
0.0
  0
SPLINE
  5
A7E
330
1F
100
AcDbEntity
  8
SKVIEW1
  6
Continuous
370
    25
100
AcDbSpline
210
0.0
220
0.0
230
1.0
 70
     8
 71
     3
 72
    14
 73
    10
 74
     0
 42
0.000000001
 43
0.0000000001
 40
0.0
 40
0.0
 40
0.0
 40
0.0
 40
0.5
 40
0.5
 40
0.75
 40
0.75
 40
0.875
 40
0.875
 40
1.0
 40
1.0
 40
1.0
 40
1.0
 10
35.92078941588019
 20
6.159848170585822
 30
0.0
 10
36.05490470081631
 20
5.184859418391816
 30
0.0
 10
36.19068847178514
 20
4.210052622011953
 30
0.0
 10
36.41327502623234
 20
2.75066141711619
 30
0.0
 10
36.49160622488552
 20
2.264762422069548
 30
0.0
 10
36.62212850286371
 20
1.538092477163956
 30
0.0
 10
36.66818189057758
 20
1.296316241866738
 30
0.0
 10
36.76546573478125
 20
0.8135873560580646
 30
0.0
 10
36.81888443355854
 20
0.5730295296463837
 30
0.0
 10
36.85699725151354
 20
0.3295280840967365
 30
0.0
  0
SPLINE
  5
A7F
330
1F
100
AcDbEntity
  8
SKVIEW1
  6
Continuous
370
    25
100
AcDbSpline
210
0.0
220
0.0
230
1.0
 70
     8
 71
     3
 72
     8
 73
     4
 74
     0
 42
0.000000001
 43
0.0000000001
 40
0.0
 40
0.0
 40
0.0
 40
0.0
 40
1.0
 40
1.0
 40
1.0
 40
1.0
 10
36.34635988946435
 20
0.1544037633113362
 30
0.0
 10
36.51673495798303
 20
0.2124021466553714
 30
0.0
 10
36.68683768177889
 20
0.2710309036907077
 30
0.0
 10
36.85699725153764
 20
0.3295280841010637
 30
0.0
  0
SPLINE
  5
A80
330
1F
100
AcDbEntity
  8
SKVIEW1
  6
Continuous
370
    25
100
AcDbSpline
210
0.0
220
0.0
230
1.0
 70
     8
 71
     3
 72
     8
 73
     4
 74
     0
 42
0.000000001
 43
0.0000000001
 40
0.0
 40
0.0
 40
0.0
 40
0.0
 40
1.0
 40
1.0
 40
1.0
 40
1.0
 10
36.22065428121754
 20
-0.0455526828810804
 30
0.0
 10
36.26335334173886
 20
0.0207512284401617
 30
0.0
 10
36.30465281954201
 20
0.0876665202155778
 30
0.0
 10
36.34635988946433
 20
0.1544037633114073
 30
0.0
  0
SPLINE
  5
A81
330
1F
100
AcDbEntity
  8
SKVIEW1
  6
Continuous
370
    25
100
AcDbSpline
210
0.0
220
0.0
230
1.0
 70
     8
 71
     3
 72
     8
 73
     4
 74
     0
 42
0.000000001
 43
0.0000000001
 40
0.0000040673049574
 40
0.0000040673049574
 40
0.0000040673049574
 40
0.0000040673049574
 40
0.0001571539429133
 40
0.0001571539429133
 40
0.0001571539429133
 40
0.0001571539429133
 10
36.46867215064438
 20
-6.346517617294892
 30
0.0
 10
36.44729414199495
 20
-6.300250653856679
 30
0.0
 10
36.42594044031936
 20
-6.25397223047674
 30
0.0
 10
36.4046125659747
 20
-6.207681682874536
 30
0.0
  0
SPLINE
  5
A82
330
1F
100
AcDbEntity
  8
SKVIEW1
  6
Continuous
370
    25
100
AcDbSpline
210
0.0
220
0.0
230
1.0
 70
     8
 71
     3
 72
    16
 73
    12
 74
     0
 42
0.000000001
 43
0.0000000001
 40
0.0
 40
0.0
 40
0.0
 40
0.0
 40
0.5
 40
0.5
 40
0.75
 40
0.75
 40
0.875
 40
0.875
 40
0.9375
 40
0.9375
 40
1.0
 40
1.0
 40
1.0
 40
1.0
 10
37.0338930002413
 20
-6.293679469589547
 30
0.0
 10
36.89831603209239
 20
-5.252345053215748
 30
0.0
 10
36.76273906638299
 20
-4.211010635526577
 30
0.0
 10
36.55937480069943
 20
-2.649008371192079
 30
0.0
 10
36.49158672184679
 20
-2.128340944512459
 30
0.0
 10
36.38990691100801
 20
-1.347338560337774
 30
0.0
 10
36.35601367900835
 20
-1.08700441163927
 30
0.0
 10
36.3051782154159
 20
-0.6965008245505331
 30
0.0
 10
36.28823320750107
 20
-0.5663328831333275
 30
0.0
 10
36.25435369804705
 20
-0.3059913353361452
 30
0.0
 10
36.2371173953272
 20
-0.1759804579989606
 30
0.0
 10
36.22065428121754
 20
-0.0455526828810804
 30
0.0
  0
SPLINE
  5
A83
330
1F
100
AcDbEntity
  8
SKVIEW1
  6
Continuous
370
    25
100
AcDbSpline
210
0.0
220
0.0
230
1.0
 70
     8
 71
     3
 72
    16
 73
    12
 74
     0
 42
0.000000001
 43
0.0000000001
 40
0.0
 40
0.0
 40
0.0
 40
0.0
 40
0.5
 40
0.5
 40
0.75
 40
0.75
 40
0.875
 40
0.875
 40
0.9375
 40
0.9375
 40
1.0
 40
1.0
 40
1.0
 40
1.0
 10
35.2915089816134
 20
6.245845957300815
 30
0.0
 10
35.42708594976232
 20
5.204511540927001
 30
0.0
 10
35.56266291547172
 20
4.163177123237843
 30
0.0
 10
35.76602718115528
 20
2.601174858903338
 30
0.0
 10
35.83381526000791
 20
2.080507432223726
 30
0.0
 10
35.93549507084671
 20
1.299505048049027
 30
0.0
 10
35.96938830284636
 20
1.039170899350529
 30
0.0
 10
36.02022376643881
 20
0.648667312261793
 30
0.0
 10
36.03716877435362
 20
0.5184993708445802
 30
0.0
 10
36.07104828380765
 20
0.2581578230474122
 30
0.0
 10
36.08828458652751
 20
0.1281469457102275
 30
0.0
 10
36.10474770063716
 20
-0.0022808294076526
 30
0.0
  0
LWPOLYLINE
  5
A84
330
1F
100
AcDbEntity
  8
SKVIEW1
  6
Continuous
370
    25
100
AcDbPolyline
 90
        4
 70
   128
 43
0.0
 10
35.08191930282738
 20
-6.380494276344362
 10
35.57068353302739
 20
-6.316621843144361
 10
36.07134564872738
 20
-6.251214059744362
 10
36.40461256592737
 20
-6.207681682844365
  0
SPLINE
  5
A85
330
1F
100
AcDbEntity
  8
SKVIEW1
  6
Continuous
370
    25
100
AcDbSpline
210
0.0
220
0.0
230
1.0
 70
     8
 71
     3
 72
    15
 73
    11
 74
     0
 42
0.000000001
 43
0.0000000001
 40
-0.0241336845636153
 40
-0.0241336845636153
 40
-0.0241336845636153
 40
-0.0241336845636153
 40
0.0
 40
0.0
 40
0.0
 40
0.2499999999999988
 40
0.2499999999999988
 40
0.5
 40
0.5
 40
0.9873189685425179
 40
0.9873189685425179
 40
0.9873189685425179
 40
0.9873189685425179
 10
34.33639034195055
 20
-0.5987918980218652
 30
0.0
 10
34.34219237026098
 20
-0.6451679599751259
 30
0.0
 10
34.34799439857141
 20
-0.6915440219283795
 30
0.0
 10
34.35379642688185
 20
-0.7379200838816331
 30
0.0
 10
34.41389943658947
 20
-1.218328098569698
 30
0.0
 10
34.47513713997403
 20
-1.696268823873364
 30
0.0
 10
34.59774016720089
 20
-2.649077536035673
 30
0.0
 10
34.65934817370339
 20
-3.125073367846453
 30
0.0
 10
34.84107549319404
 20
-4.527535848075146
 30
0.0
 10
34.96150104464585
 20
-5.454169158394534
 30
0.0
 10
35.08191933096927
 20
-6.380494261390005
 30
0.0
  0
SPLINE
  5
A86
330
1F
100
AcDbEntity
  8
SKVIEW1
  6
Continuous
370
    25
100
AcDbSpline
210
0.0
220
0.0
230
1.0
 70
     8
 71
     3
 72
    11
 73
     7
 74
     0
 42
0.000000001
 43
0.0000000001
 40
0.0008610920566
 40
0.0008610920566
 40
0.0008610920566
 40
0.0008610920566
 40
0.0010225120086002
 40
0.0010225120086002
 40
0.0010225120086002
 40
0.0020288619101805
 40
0.0020288619101805
 40
0.0020288619101805
 40
0.0020288619101805
 10
35.46840473031565
 20
-0.3773615963865495
 30
0.0
 10
35.41624503791938
 20
-0.3875785693276583
 30
0.0
 10
35.36408541727915
 20
-0.397793556856449
 30
0.0
 10
35.31192586882715
 20
-0.4080065650208411
 30
0.0
 10
34.98674455029853
 20
-0.4716781181612363
 30
0.0
 10
34.66156600772816
 20
-0.5352727478265821
 30
0.0
 10
34.33639034195055
 20
-0.5987918980218723
 30
0.0
  0
LWPOLYLINE
  5
A87
330
1F
100
AcDbEntity
  8
SKVIEW1
  6
Continuous
370
    25
100
AcDbPolyline
 90
        4
 70
   128
 43
0.0
 10
37.24348267902737
 20
6.33266076405563
 10
36.75471844882738
 20
6.268788330855634
 10
36.25405633312739
 20
6.203380547455637
 10
35.92078941592738
 20
6.159848170555632
  0
SPLINE
  5
A88
330
1F
100
AcDbEntity
  8
SKVIEW1
  6
Continuous
370
    25
100
AcDbSpline
210
0.0
220
0.0
230
1.0
 70
     8
 71
     3
 72
    15
 73
    11
 74
     0
 42
0.000000001
 43
0.0000000001
 40
-0.0241336845636153
 40
-0.0241336845636153
 40
-0.0241336845636153
 40
-0.0241336845636153
 40
0.0
 40
0.0
 40
0.0
 40
0.2499999999999988
 40
0.2499999999999988
 40
0.5
 40
0.5
 40
0.9873189685425179
 40
0.9873189685425179
 40
0.9873189685425179
 40
0.9873189685425179
 10
37.98901163990416
 20
0.5509583857331251
 30
0.0
 10
37.98320961159372
 20
0.5973344476863787
 30
0.0
 10
37.97740758328329
 20
0.6437105096396394
 30
0.0
 10
37.97160555497286
 20
0.6900865715929001
 30
0.0
 10
37.91150254526524
 20
1.170494586280952
 30
0.0
 10
37.85026484188068
 20
1.648435311584627
 30
0.0
 10
37.72766181465382
 20
2.601244023746929
 30
0.0
 10
37.66605380815131
 20
3.077239855557705
 30
0.0
 10
37.48432648866066
 20
4.479702335786406
 30
0.0
 10
37.36390093720885
 20
5.406335646105794
 30
0.0
 10
37.24348265088543
 20
6.332660749101263
 30
0.0
  0
SPLINE
  5
A89
330
1F
100
AcDbEntity
  8
SKVIEW1
  6
Continuous
370
    25
100
AcDbSpline
210
0.0
220
0.0
230
1.0
 70
     8
 71
     3
 72
    11
 73
     7
 74
     0
 42
0.000000001
 43
0.0000000001
 40
0.0008610920565984
 40
0.0008610920565984
 40
0.0008610920565984
 40
0.0008610920565984
 40
0.0010225120086002
 40
0.0010225120086002
 40
0.0010225120086002
 40
0.0020288619101805
 40
0.0020288619101805
 40
0.0020288619101805
 40
0.0020288619101805
 10
36.85699725153751
 20
0.3295280840974968
 30
0.0
 10
36.90915694393428
 20
0.3397450570387193
 30
0.0
 10
36.96131656457504
 20
0.3499600445676094
 30
0.0
 10
37.01347611302757
 20
0.360173052732101
 30
0.0
 10
37.33865743155617
 20
0.4238446058724963
 30
0.0
 10
37.66383597412655
 20
0.4874392355378421
 30
0.0
 10
37.98901163990416
 20
0.5509583857331251
 30
0.0
  0
SPLINE
  5
A8A
330
1F
100
AcDbEntity
  8
SKVIEW1
  6
Continuous
370
    25
100
AcDbSpline
210
0.0
220
0.0
230
1.0
 70
    24
 71
     3
 72
    10
 73
     6
 74
     0
 42
0.000000001
 43
0.0000000001
 40
0.0
 40
0.0
 40
0.0
 40
0.0
 40
0.5
 40
0.5
 40
1.0
 40
1.0
 40
1.0
 40
1.0
 10
38.66270099092736
 20
7.869700396915532
 30
0.0
 10
38.66270099092736
 20
7.805687300162047
 30
0.0
 10
38.66270099092736
 20
7.715788367138038
 30
0.0
 10
38.66270099092736
 20
7.522890518942787
 30
0.0
 10
38.66270099092736
 20
7.418970616682157
 30
0.0
 10
38.66270099092736
 20
7.310679822086356
 30
0.0
  0
SPLINE
  5
A8B
330
1F
100
AcDbEntity
  8
SKVIEW1
  6
Continuous
370
    25
100
AcDbSpline
210
0.0
220
0.0
230
1.0
 70
     8
 71
     3
 72
    14
 73
    10
 74
     0
 42
0.000000001
 43
0.0000000001
 40
0.0005878015184426
 40
0.0005878015184426
 40
0.0005878015184426
 40
0.0005878015184426
 40
0.0010576587445905
 40
0.0010576587445905
 40
0.0010576587445905
 40
0.0015824596179621
 40
0.0015824596179621
 40
0.0015824596179621
 40
0.0020946911382209
 40
0.0020946911382209
 40
0.0020946911382209
 40
0.0020946911382209
 10
38.66270099092736
 20
6.524707899481683
 30
0.0
 10
38.51519723210344
 20
6.504723706671318
 30
0.0
 10
38.36769227355712
 20
6.484748461937755
 30
0.0
 10
38.22018630996985
 20
6.464780721926758
 30
0.0
 10
38.05543145627587
 20
6.442478016299786
 30
0.0
 10
37.89067534820948
 20
6.420184673786183
 30
0.0
 10
37.72591826214843
 20
6.397898639112621
 30
0.0
 10
37.56510722509222
 20
6.376146370767699
 30
0.0
 10
37.40429525607328
 20
6.354401064078031
 30
0.0
 10
37.24348261696619
 20
6.332660766804758
 30
0.0
  0
SPLINE
  5
A8C
330
1F
100
AcDbEntity
  8
SKVIEW1
  6
Continuous
370
    25
100
AcDbSpline
210
0.0
220
0.0
230
1.0
 70
    24
 71
     3
 72
    10
 73
     6
 74
     0
 42
0.000000001
 43
0.0000000001
 40
0.0
 40
0.0
 40
0.0
 40
0.0
 40
0.5
 40
0.5
 40
1.0
 40
1.0
 40
1.0
 40
1.0
 10
33.66270099092736
 20
-7.917533909204266
 30
0.0
 10
33.66270099092736
 20
-7.853520812450796
 30
0.0
 10
33.66270099092736
 20
-7.763621879426777
 30
0.0
 10
33.66270099092736
 20
-7.570724031231526
 30
0.0
 10
33.66270099092736
 20
-7.466804128970892
 30
0.0
 10
33.66270099092736
 20
-7.358513334375089
 30
0.0
  0
SPLINE
  5
A8D
330
1F
100
AcDbEntity
  8
SKVIEW1
  6
Continuous
370
    25
100
AcDbSpline
210
0.0
220
0.0
230
1.0
 70
     8
 71
     3
 72
    14
 73
    10
 74
     0
 42
0.000000001
 43
0.0000000001
 40
0.0005878015184426
 40
0.0005878015184426
 40
0.0005878015184426
 40
0.0005878015184426
 40
0.0010576587445905
 40
0.0010576587445905
 40
0.0010576587445905
 40
0.0015824596179621
 40
0.0015824596179621
 40
0.0015824596179621
 40
0.0020946911382209
 40
0.0020946911382209
 40
0.0020946911382209
 40
0.0020946911382209
 10
33.66270099092736
 20
-6.572541411770416
 30
0.0
 10
33.81020474975127
 20
-6.55255721896006
 30
0.0
 10
33.95770970829758
 20
-6.532581974226487
 30
0.0
 10
34.10521567188487
 20
-6.512614234215504
 30
0.0
 10
34.26997052557883
 20
-6.490311528588518
 30
0.0
 10
34.43472663364523
 20
-6.468018186074927
 30
0.0
 10
34.59948371970627
 20
-6.445732151401357
 30
0.0
 10
34.76029475676249
 20
-6.423979883056446
 30
0.0
 10
34.92110672578143
 20
-6.402234576366772
 30
0.0
 10
35.08191936488852
 20
-6.380494279093495
 30
0.0
  0
SPLINE
  5
A8E
330
1F
100
AcDbEntity
  8
SKVIEW1
  6
Continuous
370
    25
100
AcDbSpline
210
0.0
220
0.0
230
1.0
 70
    24
 71
     3
 72
    12
 73
     8
 74
     0
 42
0.000000001
 43
0.0000000001
 40
0.0
 40
0.0
 40
0.0
 40
0.0
 40
0.5
 40
0.5
 40
0.75
 40
0.75
 40
1.0
 40
1.0
 40
1.0
 40
1.0
 10
38.66270099092736
 20
6.524707899481683
 30
0.0
 10
38.66270099092736
 20
5.538022997639486
 30
0.0
 10
38.66270099092736
 20
4.551332625546308
 30
0.0
 10
38.66270099092736
 20
3.071274226888888
 30
0.0
 10
38.66270099092736
 20
2.577903193332798
 30
0.0
 10
38.66270099092736
 20
1.591209379066184
 30
0.0
 10
38.66270099092736
 20
1.097932565794969
 30
0.0
 10
38.66270099092736
 20
0.6047123133602597
 30
0.0
  0
SPLINE
  5
A8F
330
1F
100
AcDbEntity
  8
SKVIEW1
  6
Continuous
370
    25
100
AcDbSpline
210
0.0
220
0.0
230
1.0
 70
     8
 71
     3
 72
     8
 73
     4
 74
     0
 42
0.000000001
 43
0.0000000001
 40
0.0000209772072837
 40
0.0000209772072837
 40
0.0000209772072837
 40
0.0000209772072837
 40
0.0007324838182709
 40
0.0007324838182709
 40
0.0007324838182709
 40
0.0007324838182709
 10
37.98901163990416
 20
0.5509583857331251
 30
0.0
 10
38.21360576575561
 20
0.5689648105047596
 30
0.0
 10
38.43816871439272
 20
0.5868820644437493
 30
0.0
 10
38.66270099092736
 20
0.6047123133602668
 30
0.0
  0
SPLINE
  5
A90
330
1F
100
AcDbEntity
  8
SKVIEW1
  6
Continuous
370
    25
100
AcDbSpline
210
0.0
220
0.0
230
1.0
 70
    24
 71
     3
 72
    12
 73
     8
 74
     0
 42
0.000000001
 43
0.0000000001
 40
0.0
 40
0.0
 40
0.0
 40
0.0
 40
0.5
 40
0.5
 40
0.75
 40
0.75
 40
1.0
 40
1.0
 40
1.0
 40
1.0
 10
33.66270099092736
 20
-6.572541411770422
 30
0.0
 10
33.66270099092736
 20
-5.585856509928233
 30
0.0
 10
33.66270099092736
 20
-4.599166137835053
 30
0.0
 10
33.66270099092736
 20
-3.11910773917762
 30
0.0
 10
33.66270099092736
 20
-2.625736705621541
 30
0.0
 10
33.66270099092736
 20
-1.639042891354918
 30
0.0
 10
33.66270099092736
 20
-1.14576607808371
 30
0.0
 10
33.66270099092736
 20
-0.6525458256489998
 30
0.0
  0
SPLINE
  5
A91
330
1F
100
AcDbEntity
  8
SKVIEW1
  6
Continuous
370
    25
100
AcDbSpline
210
0.0
220
0.0
230
1.0
 70
     8
 71
     3
 72
     8
 73
     4
 74
     0
 42
0.000000001
 43
0.0000000001
 40
0.0000209772072837
 40
0.0000209772072837
 40
0.0000209772072837
 40
0.0000209772072837
 40
0.0007324838182709
 40
0.0007324838182709
 40
0.0007324838182709
 40
0.0007324838182709
 10
34.33639034195055
 20
-0.5987918980218652
 30
0.0
 10
34.11179621609909
 20
-0.6167983227934997
 30
0.0
 10
33.88723326746199
 20
-0.6347155767324894
 30
0.0
 10
33.66270099092736
 20
-0.6525458256489998
 30
0.0
  0
SPLINE
  5
A92
330
1F
100
AcDbEntity
  8
SKVIEW1
  6
Continuous
370
    25
100
AcDbSpline
210
0.0
220
0.0
230
1.0
 70
     8
 71
     3
 72
     8
 73
     4
 74
     0
 42
0.000000001
 43
0.0000000001
 40
0.0
 40
0.0
 40
0.0
 40
0.0
 40
1.0
 40
1.0
 40
1.0
 40
1.0
 10
37.67693393529664
 20
-9.483892547353534
 30
0.0
 10
37.54287854739139
 20
-9.509258315616476
 30
0.0
 10
37.40975197718146
 20
-9.532069318822067
 30
0.0
 10
37.27750950241861
 20
-9.552448568017167
 30
0.0
  0
SPLINE
  5
A93
330
1F
100
AcDbEntity
  8
SKVIEW1
  6
Continuous
370
    25
100
AcDbSpline
210
0.0
220
0.0
230
1.0
 70
     8
 71
     3
 72
     8
 73
     4
 74
     0
 42
0.000000001
 43
0.0000000001
 40
0.0
 40
0.0
 40
0.0
 40
0.0
 40
1.0
 40
1.0
 40
1.0
 40
1.0
 10
34.64846804655805
 20
9.436059035064786
 30
0.0
 10
34.78252343446321
 20
9.461424803327725
 30
0.0
 10
34.91565000467307
 20
9.484235806533297
 30
0.0
 10
35.04789247943586
 20
9.5046150557284
 30
0.0
  0
SPLINE
  5
A94
330
1F
100
AcDbEntity
  8
SKVIEW1
  6
Continuous
370
    25
100
AcDbSpline
210
0.0
220
0.0
230
1.0
 70
    24
 71
     3
 72
    10
 73
     6
 74
     0
 42
0.000000001
 43
0.0000000001
 40
0.0
 40
0.0
 40
0.0
 40
0.0
 40
0.5
 40
0.5
 40
1.0
 40
1.0
 40
1.0
 40
1.0
 10
38.66270099092736
 20
8.089951453458175
 30
0.0
 10
38.66270099092736
 20
8.084262747622702
 30
0.0
 10
38.66270099092736
 20
8.064471082329617
 30
0.0
 10
38.66270099092736
 20
7.989019982909994
 30
0.0
 10
38.66270099092736
 20
7.937465088801211
 30
0.0
 10
38.66270099092736
 20
7.869700396915532
 30
0.0
  0
SPLINE
  5
A95
330
1F
100
AcDbEntity
  8
SKVIEW1
  6
Continuous
370
    25
100
AcDbSpline
210
0.0
220
0.0
230
1.0
 70
    24
 71
     3
 72
    10
 73
     6
 74
     0
 42
0.000000001
 43
0.0000000001
 40
0.0
 40
0.0
 40
0.0
 40
0.0
 40
0.5
 40
0.5
 40
1.0
 40
1.0
 40
1.0
 40
1.0
 10
33.66270099092736
 20
-8.137784965746917
 30
0.0
 10
33.66270099092736
 20
-8.132096259911449
 30
0.0
 10
33.66270099092736
 20
-8.112304594618349
 30
0.0
 10
33.66270099092736
 20
-8.036853495198727
 30
0.0
 10
33.66270099092736
 20
-7.985298601089949
 30
0.0
 10
33.66270099092736
 20
-7.917533909204266
 30
0.0
  0
SPLINE
  5
A96
330
1F
100
AcDbEntity
  8
SKVIEW1
  6
Continuous
370
    25
100
AcDbSpline
210
0.0
220
0.0
230
1.0
 70
     8
 71
     3
 72
    15
 73
    11
 74
     0
 42
0.000000001
 43
0.0000000001
 40
0.0
 40
0.0
 40
0.0
 40
0.0
 40
0.1426328241644305
 40
0.2849301066650404
 40
0.4272080005977579
 40
0.5697643940597806
 40
0.7122715694029529
 40
0.8514390193030523
 40
0.9905699242996062
 40
1.0
 40
1.0
 40
1.0
 40
1.0
 10
37.15459384024612
 20
8.509981858525527
 30
0.0
 10
37.19915018527885
 20
8.627456321925869
 30
0.0
 10
37.2881580571846
 20
8.862128891743962
 30
0.0
 10
37.43340479599912
 20
9.137973501395633
 30
0.0
 10
37.58685945659637
 20
9.357381567654291
 30
0.0
 10
37.74928707140576
 20
9.513545185026927
 30
0.0
 10
37.91856945694437
 20
9.608692074834275
 30
0.0
 10
38.09505169739044
 20
9.634836755133399
 30
0.0
 10
38.21885132582675
 20
9.628047786668863
 30
0.0
 10
38.28610567541212
 20
9.594937697704317
 30
0.0
 10
38.29037472105785
 20
9.59283599748722
 30
0.0
  0
SPLINE
  5
A97
330
1F
100
AcDbEntity
  8
SKVIEW1
  6
Continuous
370
    25
100
AcDbSpline
210
0.0
220
0.0
230
1.0
 70
     8
 71
     3
 72
    12
 73
     8
 74
     0
 42
0.000000001
 43
0.0000000001
 40
0.0
 40
0.0
 40
0.0
 40
0.0
 40
0.2500000000000001
 40
0.2500000000000001
 40
0.5000000000000002
 40
0.5000000000000002
 40
1.0
 40
1.0
 40
1.0
 40
1.0
 10
36.14512329846074
 20
9.971380601525346
 30
0.0
 10
36.10502696881431
 20
9.959260635317477
 30
0.0
 10
36.06193449987498
 20
9.923712494975802
 30
0.0
 10
35.97443588528404
 20
9.805844922722457
 30
0.0
 10
35.92977889169092
 20
9.723354745422037
 30
0.0
 10
35.7965636383092
 20
9.406212855882069
 30
0.0
 10
35.70949872394386
 20
9.103056948110859
 30
0.0
 10
35.63112464395999
 20
8.707840461377557
 30
0.0
  0
SPLINE
  5
A98
330
1F
100
AcDbEntity
  8
SKVIEW1
  6
Continuous
370
    25
100
AcDbSpline
210
0.0
220
0.0
230
1.0
 70
     8
 71
     3
 72
     9
 73
     5
 74
     0
 42
0.000000001
 43
0.0000000001
 40
0.0
 40
0.0
 40
0.0
 40
0.0
 40
0.1194722407850852
 40
1.0
 40
1.0
 40
1.0
 40
1.0
 10
36.25827735722535
 20
9.961330245898992
 30
0.0
 10
36.2536627740075
 20
9.962655065613962
 30
0.0
 10
36.21503804254254
 20
9.973743998961751
 30
0.0
 10
36.17785978567452
 20
9.972487225470787
 30
0.0
 10
36.14512329846301
 20
9.971380601524947
 30
0.0
  0
SPLINE
  5
A99
330
1F
100
AcDbEntity
  8
SKVIEW1
  6
Continuous
370
    25
100
AcDbSpline
210
0.0
220
0.0
230
1.0
 70
     8
 71
     3
 72
    15
 73
    11
 74
     0
 42
0.000000001
 43
0.0000000001
 40
0.0
 40
0.0
 40
0.0
 40
0.0
 40
0.1426328241644315
 40
0.2849301066650425
 40
0.4272080005977609
 40
0.5697643940597846
 40
0.7122715694029582
 40
0.8514390193030585
 40
0.9905699242996135
 40
1.0
 40
1.0
 40
1.0
 40
1.0
 10
35.17080814160858
 20
-8.557815370814267
 30
0.0
 10
35.12625179657585
 20
-8.675289834214607
 30
0.0
 10
35.0372439246701
 20
-8.909962404032704
 30
0.0
 10
34.89199718585559
 20
-9.185807013684382
 30
0.0
 10
34.73854252525832
 20
-9.405215079943033
 30
0.0
 10
34.57611491044894
 20
-9.56137869731566
 30
0.0
 10
34.40683252491033
 20
-9.656525587123022
 30
0.0
 10
34.23035028446427
 20
-9.682670267422141
 30
0.0
 10
34.10655065602796
 20
-9.675881298957591
 30
0.0
 10
34.0392963064426
 20
-9.642771209993055
 30
0.0
 10
34.03502726079686
 20
-9.640669509775976
 30
0.0
  0
SPLINE
  5
A9A
330
1F
100
AcDbEntity
  8
SKVIEW1
  6
Continuous
370
    25
100
AcDbSpline
210
0.0
220
0.0
230
1.0
 70
     8
 71
     3
 72
    12
 73
     8
 74
     0
 42
0.000000001
 43
0.0000000001
 40
0.0
 40
0.0
 40
0.0
 40
0.0
 40
0.2499999999999998
 40
0.2499999999999998
 40
0.5
 40
0.5
 40
1.0
 40
1.0
 40
1.0
 40
1.0
 10
36.18027868339397
 20
-10.01921411381407
 30
0.0
 10
36.22037501304038
 20
-10.00709414760621
 30
0.0
 10
36.26346748197974
 20
-9.971546007264548
 30
0.0
 10
36.3509660965707
 20
-9.853678435011193
 30
0.0
 10
36.3956230901638
 20
-9.771188257710763
 30
0.0
 10
36.52883834354547
 20
-9.454046368170793
 30
0.0
 10
36.61590325791085
 20
-9.150890460399603
 30
0.0
 10
36.69427733789472
 20
-8.755673973666297
 30
0.0
  0
SPLINE
  5
A9B
330
1F
100
AcDbEntity
  8
SKVIEW1
  6
Continuous
370
    25
100
AcDbSpline
210
0.0
220
0.0
230
1.0
 70
     8
 71
     3
 72
     9
 73
     5
 74
     0
 42
0.000000001
 43
0.0000000001
 40
0.0
 40
0.0
 40
0.0
 40
0.0
 40
0.1194717907049572
 40
1.0
 40
1.0
 40
1.0
 40
1.0
 10
36.06712462524384
 20
-10.00916376350611
 30
0.0
 10
36.07173919109533
 20
-10.0104885783896
 30
0.0
 10
36.11036392270987
 20
-10.02157751307177
 30
0.0
 10
36.14754217950828
 20
-10.0203207389131
 30
0.0
 10
36.18027868339171
 20
-10.01921411381368
 30
0.0
  0
SPLINE
  5
A9C
330
1F
100
AcDbEntity
  8
SKVIEW1
  6
Continuous
370
    25
100
AcDbSpline
210
0.0
220
0.0
230
1.0
 70
     8
 71
     3
 72
    12
 73
     8
 74
     0
 42
0.000000001
 43
0.0000000001
 40
0.0
 40
0.0
 40
0.0
 40
0.0
 40
0.2500000000000001
 40
0.2500000000000001
 40
0.5000000000000001
 40
0.5000000000000001
 40
1.0
 40
1.0
 40
1.0
 40
1.0
 10
36.18027868339176
 20
-10.01921411381408
 30
0.0
 10
36.27235111491068
 20
-10.00709936033724
 30
0.0
 10
36.3616285119512
 20
-9.970865783162784
 30
0.0
 10
36.53451682761318
 20
-9.849501631287584
 30
0.0
 10
36.61808383823832
 20
-9.764202581298476
 30
0.0
 10
36.85738672373979
 20
-9.437591980646324
 30
0.0
 10
37.0028079067085
 20
-9.1254603540209
 30
0.0
 10
37.13393847331332
 20
-8.717756832383031
 30
0.0
  0
SPLINE
  5
A9D
330
1F
100
AcDbEntity
  8
SKVIEW1
  6
Continuous
370
    25
100
AcDbSpline
210
0.0
220
0.0
230
1.0
 70
     8
 71
     3
 72
    12
 73
     8
 74
     0
 42
0.000000001
 43
0.0000000001
 40
0.0
 40
0.0
 40
0.0
 40
0.0
 40
0.2499999999999998
 40
0.2499999999999998
 40
0.5
 40
0.5
 40
1.0
 40
1.0
 40
1.0
 40
1.0
 10
36.14512329846297
 20
9.971380601525352
 30
0.0
 10
36.05305086694405
 20
9.959265848048508
 30
0.0
 10
35.96377346990352
 20
9.923032270874042
 30
0.0
 10
35.79088515424154
 20
9.801668118998851
 30
0.0
 10
35.70731814361638
 20
9.716369069009743
 30
0.0
 10
35.46801525811492
 20
9.389758468357591
 30
0.0
 10
35.32259407514621
 20
9.077626841732159
 30
0.0
 10
35.1914635085414
 20
8.669923320094298
 30
0.0
  0
SPLINE
  5
A9E
102
{ACAD_REACTORS
330
CE6
102
}
330
1F
100
AcDbEntity
  8
SKVIEW1
  6
Continuous
370
    25
100
AcDbSpline
210
0.0
220
0.0
230
1.0
 70
    24
 71
     3
 72
    17
 73
    13
 74
     0
 42
0.000000001
 43
0.0000000001
 40
0.0
 40
0.0
 40
0.0
 40
0.0
 40
0.0705872290042541
 40
0.1882324951158275
 40
0.2887373287251172
 40
0.3892423216034105
 40
0.4901280673206112
 40
0.5910138531030184
 40
0.6930643333923693
 40
0.7951148375081412
 40
0.8975573664604226
 40
1.0
 40
1.0
 40
1.0
 40
1.0
 10
38.66270099092736
 20
9.460533992475928
 30
0.0
 10
38.66270099092736
 20
9.461008011865571
 30
0.0
 10
38.66270099092736
 20
9.462272062795227
 30
0.0
 10
38.66270099092736
 20
9.423134478962323
 30
0.0
 10
38.66270099092736
 20
9.353425168358832
 30
0.0
 10
38.66270099092736
 20
9.258192299528467
 30
0.0
 10
38.66270099092736
 20
9.135429282990706
 30
0.0
 10
38.66270099092736
 20
8.98408616791373
 30
0.0
 10
38.66270099092736
 20
8.804444272003955
 30
0.0
 10
38.66270099092736
 20
8.595473357657827
 30
0.0
 10
38.66270099092736
 20
8.360339938030847
 30
0.0
 10
38.66270099092736
 20
8.180080978987874
 30
0.0
 10
38.66270099092736
 20
8.089951453458175
 30
0.0
  0
SPLINE
  5
A9F
330
1F
100
AcDbEntity
  8
SKVIEW1
  6
Continuous
370
    25
100
AcDbSpline
210
0.0
220
0.0
230
1.0
 70
    24
 71
     3
 72
    17
 73
    13
 74
     0
 42
0.000000001
 43
0.0000000001
 40
0.0
 40
0.0
 40
0.0
 40
0.0
 40
0.0705872290042468
 40
0.1882324951158211
 40
0.2887373287251116
 40
0.3892423216034057
 40
0.4901280673206072
 40
0.5910138531030153
 40
0.6930643333923669
 40
0.7951148375081396
 40
0.8975573664604217
 40
1.0
 40
1.0
 40
1.0
 40
1.0
 10
33.66270099092734
 20
-9.508367504764676
 30
0.0
 10
33.66270099092734
 20
-9.508841524154306
 30
0.0
 10
33.66270099092734
 20
-9.510105575083962
 30
0.0
 10
33.66270099092736
 20
-9.470967991251056
 30
0.0
 10
33.66270099092736
 20
-9.401258680647572
 30
0.0
 10
33.66270099092736
 20
-9.306025811817207
 30
0.0
 10
33.66270099092736
 20
-9.183262795279443
 30
0.0
 10
33.66270099092736
 20
-9.031919680202477
 30
0.0
 10
33.66270099092736
 20
-8.852277784292695
 30
0.0
 10
33.66270099092736
 20
-8.64330686994657
 30
0.0
 10
33.66270099092736
 20
-8.408173450319594
 30
0.0
 10
33.66270099092736
 20
-8.227914491276607
 30
0.0
 10
33.66270099092736
 20
-8.137784965746917
 30
0.0
  0
LINE
  5
AA0
330
1F
100
AcDbEntity
  8
SKVIEW1
  6
Continuous
370
    25
100
AcDbLine
 10
38.19255239462739
 20
9.620452841355637
 30
0.0
 11
36.25854361892738
 21
9.962817215855636
 31
0.0
  0
LINE
  5
AA1
330
1F
100
AcDbEntity
  8
SKVIEW1
  6
Continuous
370
    25
100
AcDbLine
 10
34.13284958722738
 20
-9.668286353644358
 30
0.0
 11
36.06685836442738
 21
-10.01065072834436
 31
0.0
  0
LINE
  5
AA2
330
1F
100
AcDbEntity
  8
SKVIEW1
  6
Continuous
370
    25
100
AcDbLine
 10
38.66419550592738
 20
9.464847731155636
 30
0.0
 11
38.29015879262737
 21
9.594780528555633
 31
0.0
  0
LINE
  5
AA3
330
1F
100
AcDbEntity
  8
SKVIEW1
  6
Continuous
370
    25
100
AcDbLine
 10
33.66120647592738
 20
-9.512681243444362
 30
0.0
 11
34.03524318922738
 21
-9.642614040844362
 31
0.0
  0
LINE
  5
AA4
330
1F
100
AcDbEntity
  8
SKVIEW1
  6
Continuous
370
    25
100
AcDbLine
 10
35.63101899162739
 20
8.693914596155636
 30
0.0
 11
37.15459384022739
 21
8.509981858555633
 31
0.0
  0
LINE
  5
AA5
330
1F
100
AcDbEntity
  8
SKVIEW1
  6
Continuous
370
    25
100
AcDbLine
 10
35.82801131852738
 20
6.532221117655637
 30
0.0
 11
37.17387004502739
 21
6.899172238955627
 31
0.0
  0
LINE
  5
AA6
330
1F
100
AcDbEntity
  8
SKVIEW1
  6
Continuous
370
    25
100
AcDbLine
 10
36.69438299022738
 20
-8.741748108444369
 30
0.0
 11
35.17080814162738
 21
-8.557815370844366
 31
0.0
  0
LINE
  5
AA7
330
1F
100
AcDbEntity
  8
SKVIEW1
  6
Continuous
370
    25
100
AcDbLine
 10
36.49739066332737
 20
-6.580054629944362
 30
0.0
 11
35.15153193682738
 21
-6.947005751244361
 31
0.0
  0
LINE
  5
AA8
330
1F
100
AcDbEntity
  8
SKVIEW1
  6
Continuous
370
    25
100
AcDbLine
 10
36.49739066332737
 20
-6.580054629944362
 30
0.0
 11
36.46867215062739
 21
-6.34651761734436
 31
0.0
  0
LINE
  5
AA9
330
1F
100
AcDbEntity
  8
SKVIEW1
  6
Continuous
370
    25
100
AcDbLine
 10
37.09488224792739
 20
-6.790003989044365
 30
0.0
 11
37.03389300022737
 21
-6.293679469544357
 31
0.0
  0
LINE
  5
AAA
330
1F
100
AcDbEntity
  8
SKVIEW1
  6
Continuous
370
    25
100
AcDbLine
 10
35.82801131852738
 20
6.532221117655637
 30
0.0
 11
35.85672983122738
 21
6.298684105055635
 31
0.0
  0
LINE
  5
AAB
330
1F
100
AcDbEntity
  8
SKVIEW1
  6
Continuous
370
    25
100
AcDbLine
 10
35.23051973392738
 20
6.742170476755632
 30
0.0
 11
35.29150898162738
 21
6.245845957255633
 31
0.0
  0
LINE
  5
AAC
330
1F
100
AcDbEntity
  8
SKVIEW1
  6
Continuous
370
    25
100
AcDbLine
 10
37.24348270712738
 20
6.332660778955632
 30
0.0
 11
37.17387004502739
 21
6.899172238955627
 31
0.0
  0
LINE
  5
AAD
330
1F
100
AcDbEntity
  8
SKVIEW1
  6
Continuous
370
    25
100
AcDbLine
 10
35.08191927472738
 20
-6.380494291244358
 30
0.0
 11
35.15153193682738
 21
-6.947005751244361
 31
0.0
  0
LINE
  5
AAE
330
1F
100
AcDbEntity
  8
SKVIEW1
  6
Continuous
370
    25
100
AcDbLine
 10
37.17387004502739
 20
6.899172238955627
 30
0.0
 11
38.66270099092739
 21
7.310679822055632
 31
0.0
  0
LINE
  5
AAF
330
1F
100
AcDbEntity
  8
SKVIEW1
  6
Continuous
370
    25
100
AcDbLine
 10
37.10038639242738
 20
7.922300894755636
 30
0.0
 11
38.66270099092739
 21
7.869700396955638
 31
0.0
  0
LINE
  5
AB0
330
1F
100
AcDbEntity
  8
SKVIEW1
  6
Continuous
370
    25
100
AcDbLine
 10
38.66270099092739
 20
7.310679822055632
 30
0.0
 11
38.66270099092739
 21
6.524707899455634
 31
0.0
  0
LINE
  5
AB1
330
1F
100
AcDbEntity
  8
SKVIEW1
  6
Continuous
370
    25
100
AcDbLine
 10
35.15153193682738
 20
-6.947005751244361
 30
0.0
 11
33.66270099092738
 21
-7.358513334344365
 31
0.0
  0
LINE
  5
AB2
330
1F
100
AcDbEntity
  8
SKVIEW1
  6
Continuous
370
    25
100
AcDbLine
 10
35.22501558942738
 20
-7.970134407044361
 30
0.0
 11
33.66270099092738
 21
-7.917533909244362
 31
0.0
  0
LINE
  5
AB3
330
1F
100
AcDbEntity
  8
SKVIEW1
  6
Continuous
370
    25
100
AcDbLine
 10
33.66270099092738
 20
-7.358513334344365
 30
0.0
 11
33.66270099092738
 21
-6.572541411744365
 31
0.0
  0
LINE
  5
AB4
330
1F
100
AcDbEntity
  8
SKVIEW1
  6
Continuous
370
    25
100
AcDbLine
 10
36.34635988942739
 20
0.1544037633556314
 30
0.0
 11
36.29082639662737
 21
-0.5875656698443664
 31
0.0
  0
LINE
  5
AB5
330
1F
100
AcDbEntity
  8
SKVIEW1
  6
Continuous
370
    25
100
AcDbLine
 10
38.66270099092739
 20
-8.772002390444356
 30
0.0
 11
38.66270099092739
 21
0.6047123133556342
 31
0.0
  0
LINE
  5
AB6
330
1F
100
AcDbEntity
  8
SKVIEW1
  6
Continuous
370
    25
100
AcDbLine
 10
38.06270099092738
 20
-9.365951722544366
 30
0.0
 11
38.66270099092739
 21
-8.772002390444356
 31
0.0
  0
LINE
  5
AB7
330
1F
100
AcDbEntity
  8
SKVIEW1
  6
Continuous
370
    25
100
AcDbLine
 10
38.06270099092738
 20
-9.365951722544366
 30
0.0
 11
37.67693393532738
 21
-9.483892547344368
 31
0.0
  0
LINE
  5
AB8
330
1F
100
AcDbEntity
  8
SKVIEW1
  6
Continuous
370
    25
100
AcDbLine
 10
37.27750950242739
 20
-9.552448568044367
 30
0.0
 11
36.74753842232739
 21
-9.574997896944367
 31
0.0
  0
LINE
  5
AB9
102
{ACAD_REACTORS
330
CE6
102
}
330
1F
100
AcDbEntity
  8
SKVIEW1
  6
Continuous
370
    25
100
AcDbLine
 10
33.66270099092738
 20
8.724168878155628
 30
0.0
 11
33.66270099092738
 21
-0.6525458256443672
 31
0.0
  0
LINE
  5
ABA
330
1F
100
AcDbEntity
  8
SKVIEW1
  6
Continuous
370
    25
100
AcDbLine
 10
34.26270099092738
 20
9.318118210255631
 30
0.0
 11
33.66270099092738
 21
8.724168878155628
 31
0.0
  0
LINE
  5
ABB
330
1F
100
AcDbEntity
  8
SKVIEW1
  6
Continuous
370
    25
100
AcDbLine
 10
34.26270099092738
 20
9.318118210255631
 30
0.0
 11
34.64846804652739
 21
9.436059035055636
 31
0.0
  0
LINE
  5
ABC
330
1F
100
AcDbEntity
  8
SKVIEW1
  6
Continuous
370
    25
100
AcDbLine
 10
35.04789247942738
 20
9.504615055755635
 30
0.0
 11
35.57787434312738
 21
9.527164843455636
 31
0.0
  0
LINE
  5
ABD
330
1F
100
AcDbEntity
  8
SKVIEW1
  6
Continuous
370
    25
100
AcDbLine
 10
35.97904209242738
 20
-0.2022372756443644
 30
0.0
 11
36.03457558522739
 21
0.5397321575556333
 31
0.0
  0
LINE
  5
ABE
330
1F
100
AcDbEntity
  8
SKVIEW1
  6
Continuous
370
    25
100
AcDbLine
 10
37.15459384022739
 20
8.509981858555633
 30
0.0
 11
38.66270099092739
 21
8.089951453455633
 31
0.0
  0
LINE
  5
ABF
330
1F
100
AcDbEntity
  8
SKVIEW1
  6
Continuous
370
    25
100
AcDbLine
 10
35.17080814162738
 20
-8.557815370844366
 30
0.0
 11
33.66270099092738
 21
-8.137784965744359
 31
0.0
  0
ARC
  5
AC0
330
1F
100
AcDbEntity
  8
SKVIEW1
  6
Continuous
370
    25
100
AcDbCircle
 10
36.16270099092738
 20
-0.0239167561443594
 30
0.0
 40
6.82999987837967
100
AcDbArc
 50
273.0844384325998
 51
277.8444035239995
  0
ARC
  5
AC1
330
1F
100
AcDbEntity
  8
SKVIEW1
  6
Continuous
370
    25
100
AcDbCircle
 10
36.16270099082738
 20
-0.0239167555443629
 30
0.0
 40
8.747923040908107
100
AcDbArc
 50
273.4837819307998
 51
276.3744012522997
  0
ARC
  5
AC2
330
1F
100
AcDbEntity
  8
SKVIEW1
  6
Continuous
370
    25
100
AcDbCircle
 10
36.16270099092738
 20
-0.0239167561443594
 30
0.0
 40
6.829999878379798
100
AcDbArc
 50
93.08443843259979
 51
97.84440352400023
  0
ARC
  5
AC3
330
1F
100
AcDbEntity
  8
SKVIEW1
  6
Continuous
370
    25
100
AcDbCircle
 10
36.16270099102738
 20
-0.023916756744363
 30
0.0
 40
8.747923040892249
100
AcDbArc
 50
93.48378193079986
 51
96.37440125229977
  0
ARC
  5
AC4
330
1F
100
AcDbEntity
  8
SKVIEW1
  6
Continuous
370
    25
100
AcDbCircle
 10
36.16270099092738
 20
-0.0239167561443594
 30
0.0
 40
6.330000000000996
100
AcDbArc
 50
92.770567126
 51
97.91067384729974
  0
ARC
  5
AC5
330
1F
100
AcDbEntity
  8
SKVIEW1
  6
Continuous
370
    25
100
AcDbCircle
 10
36.16270099092738
 20
-0.0239167561443594
 30
0.0
 40
6.330000000000704
100
AcDbArc
 50
272.770567126
 51
277.9106738472997
  0
ARC
  5
B7D
102
{ACAD_REACTORS
330
C20
102
}
330
1F
100
AcDbEntity
  8
CUT
100
AcDbCircle
 10
4.999997549397883
 20
-19.99999999747046
 30
0.0
 40
30.00000000000013
100
AcDbArc
 50
73.39845040100065
 51
99.5940682269012
  0
ARC
  5
B7E
102
{ACAD_REACTORS
330
C04
102
}
330
1F
100
AcDbEntity
  8
CUT
100
AcDbCircle
 10
12.99999754939788
 20
6.832815732529531
 30
0.0
 40
1.999999999999993
100
AcDbArc
 50
0.0
 51
73.39845040100065
  0
LINE
  5
B7F
330
1F
100
AcDbEntity
  8
CUT
100
AcDbLine
 10
-0.0000024506232057
 20
9.580398918024187
 30
0.0
 11
-0.0000024506021168
 21
0.0000000025295392
 31
0.0
  0
LINE
  5
B80
330
1F
100
AcDbEntity
  8
CUT
100
AcDbLine
 10
-0.0000024506021168
 20
0.0000000025295392
 30
0.0
 11
14.99999754939788
 21
-0.0000000172704446
 31
0.0
  0
LINE
  5
B81
330
1F
100
AcDbEntity
  8
CUT
100
AcDbLine
 10
14.99999754939788
 20
-0.0000000172704446
 30
0.0
 11
14.99999754939788
 21
6.832815692929562
 31
0.0
  0
DIMENSION
  5
BF3
102
{ACAD_XDICTIONARY
360
BFD
102
}
102
{ACAD_REACTORS
330
C04
102
}
330
1F
100
AcDbEntity
  8
2
100
AcDbDimension
  2
*D19
 10
12.99999754939787
 20
6.832815732529526
 30
0.0
 11
18.32904085713747
 21
22.00412860407568
 31
0.0
 70
   164
 71
     5
 42
2.0
  3
ISO-25
100
AcDbRadialDimension
 15
13.6628125523009
 25
8.719791162132851
 35
0.0
 40
0.0
1001
ACAD
1000
DSTYLE
1002
{
1070
   340
1005
442
1070
   288
1070
     1
1002
}
1001
ACAD_DSTYLE_DIMRADIAL_EXTENSION
1070
   387
1070
     1
1070
   388
1040
0.0
1070
   390
1040
1.281044625359209
  0
DIMENSION
  5
C0F
102
{ACAD_XDICTIONARY
360
C19
102
}
102
{ACAD_REACTORS
330
C20
102
}
330
1F
100
AcDbEntity
  8
2
100
AcDbDimension
  2
*D20
 10
4.999997549397873
 20
-19.99999999747043
 30
0.0
 11
1.331994045039446
 21
22.05947232716713
 31
0.0
 70
   164
 71
     5
 42
30.00000000000011
  3
ISO-25
100
AcDbRadialDimension
 15
2.393592569191203
 25
9.886563088290373
 35
0.0
 40
0.0
1001
ACAD
1000
DSTYLE
1002
{
1070
   340
1005
442
1070
   288
1070
     1
1002
}
1001
ACAD_DSTYLE_DIMRADIAL_EXTENSION
1070
   387
1070
     1
1070
   388
1040
1.281044625359209
1070
   390
1040
1.738244406015293
  0
DIMENSION
  5
CCB
102
{ACAD_XDICTIONARY
360
CDA
102
}
102
{ACAD_REACTORS
330
CE6
102
}
330
1F
100
AcDbEntity
  8
SKVIEW2
100
AcDbDimension
  2
*D22
 10
38.66270099092736
 20
14.33703819685644
 30
0.0
 11
36.16270099092736
 21
14.33703819685644
 31
0.0
 70
   160
  1
<>,00
 71
     5
 42
4.999999999999978
  3
ISO-25
100
AcDbAlignedDimension
 13
33.66270099092738
 23
8.724168878155628
 33
0.0
 14
38.66270099092736
 24
8.724168878034745
 34
0.0
100
AcDbRotatedDimension
1001
ACAD
1000
DSTYLE
1002
{
1070
   340
1005
442
1002
}
  0
LINE
  5
E26
330
1F
100
AcDbEntity
  8
4
100
AcDbLine
 10
0.299997549397895
 20
0.0000000025295392
 30
0.0
 11
14.67190859463367
 21
-0.0000000168373675
 31
0.0
  0
ENDSEC
  0
SECTION
  2
OBJECTS
  0
DICTIONARY
  5
C
330
0
100
AcDbDictionary
281
     1
  3
ACAD_CIP_PREVIOUS_PRODUCT_INFO
350
925
  3
ACAD_COLOR
350
918
  3
ACAD_DETAILVIEWSTYLE
350
436
  3
ACAD_GROUP
350
D
  3
ACAD_IMAGE_VARS
350
268
  3
ACAD_LAYOUT
350
1A
  3
ACAD_MATERIAL
350
8E6
  3
ACAD_MLEADERSTYLE
350
91B
  3
ACAD_MLINESTYLE
350
17
  3
ACAD_PLOTSETTINGS
350
19
  3
ACAD_PLOTSTYLENAME
350
E
  3
ACAD_SCALELIST
350
92
  3
ACAD_SECTIONVIEWSTYLE
350
437
  3
ACAD_TABLESTYLE
350
919
  3
ACAD_VISUALSTYLE
350
8FF
  3
ACDB_RECOMPOSE_DATA
350
ED0
  3
AcDbVariableDictionary
350
22B
  3
APPDATA
350
266
  3
DWGPROPS
350
ED1
  0
DICTIONARY
  5
470
330
2
100
AcDbDictionary
280
     1
281
     1
  3
ACAD_LAYERSTATES
360
471
  3
ACLYDICTIONARY
360
74E
  0
DICTIONARY
  5
929
330
10
100
AcDbDictionary
280
     1
281
     1
  3
ADSK_XREC_LAYER_RECONCILED
360
92A
  0
DICTIONARY
  5
92B
330
44
100
AcDbDictionary
280
     1
281
     1
  3
ADSK_XREC_LAYER_RECONCILED
360
92C
  0
DICTIONARY
  5
92D
330
47
100
AcDbDictionary
280
     1
281
     1
  3
ADSK_XREC_LAYER_RECONCILED
360
92E
  0
DICTIONARY
  5
92F
330
14A
100
AcDbDictionary
280
     1
281
     1
  3
ADSK_XREC_LAYER_RECONCILED
360
930
  0
DICTIONARY
  5
5B0
330
5AF
100
AcDbDictionary
280
     1
281
     1
  3
ADSK_XREC_LAYER_RECONCILED
360
5B1
  0
DICTIONARY
  5
674
330
673
100
AcDbDictionary
280
     1
281
     1
  3
ADSK_XREC_LAYER_RECONCILED
360
675
  0
DICTIONARY
  5
6A1
330
6A0
100
AcDbDictionary
280
     1
281
     1
  3
ADSK_XREC_LAYER_RECONCILED
360
6A2
  0
DICTIONARY
  5
75A
330
759
100
AcDbDictionary
280
     1
281
     1
  3
ADSK_XREC_LAYER_RECONCILED
360
75B
  0
DICTIONARY
  5
931
330
7B1
100
AcDbDictionary
280
     1
281
     1
  3
ADSK_XREC_LAYER_RECONCILED
360
932
  0
DICTIONARY
  5
933
330
7E7
100
AcDbDictionary
280
     1
281
     1
  3
ADSK_XREC_LAYER_RECONCILED
360
934
  0
DICTIONARY
  5
935
330
820
100
AcDbDictionary
280
     1
281
     1
  3
ADSK_XREC_LAYER_RECONCILED
360
936
  0
DICTIONARY
  5
BFD
330
BF3
100
AcDbDictionary
280
     1
281
     1
  3
ACAD_DIMASSOC
360
C04
  0
DICTIONARY
  5
C19
330
C0F
100
AcDbDictionary
280
     1
281
     1
  3
ACAD_DIMASSOC
360
C20
  0
DICTIONARY
  5
CDA
330
CCB
100
AcDbDictionary
280
     1
281
     1
  3
ACAD_DIMASSOC
360
CE6
  0
XRECORD
  5
925
102
{ACAD_REACTORS
330
C
102
}
330
C
100
AcDbXrecord
280
     1
300
AMECH_PP
300
2017
300
86690PDSP_2017_0F
  0
DICTIONARY
  5
918
102
{ACAD_REACTORS
330
C
102
}
330
C
100
AcDbDictionary
281
     1
  0
DICTIONARY
  5
436
102
{ACAD_REACTORS
330
C
102
}
330
C
100
AcDbDictionary
281
     1
  3
Imperial24
350
B6D
  3
Metric50
350
91E
  0
DICTIONARY
  5
D
102
{ACAD_REACTORS
330
C
102
}
330
C
100
AcDbDictionary
281
     1
  0
RASTERVARIABLES
  5
268
102
{ACAD_REACTORS
330
C
102
}
330
C
100
AcDbRasterVariables
 90
        0
 70
     1
 71
     1
 72
     1
  0
DICTIONARY
  5
1A
102
{ACAD_REACTORS
330
C
102
}
330
C
100
AcDbDictionary
281
     1
  3
Layout1
350
1E
  3
Layout2
350
26
  3
Model
350
22
  0
DICTIONARY
  5
8E6
102
{ACAD_REACTORS
330
C
102
}
330
C
100
AcDbDictionary
281
     1
  3
ByBlock
350
8EF
  3
ByLayer
350
8E7
  3
Global
350
8F7
  0
DICTIONARY
  5
91B
102
{ACAD_REACTORS
330
C
102
}
330
C
100
AcDbDictionary
281
     1
  3
Standard
350
91C
  0
DICTIONARY
  5
17
102
{ACAD_REACTORS
330
C
102
}
330
C
100
AcDbDictionary
281
     1
  3
Standard
350
18
  0
DICTIONARY
  5
19
102
{ACAD_REACTORS
330
C
102
}
330
C
100
AcDbDictionary
281
     1
  0
ACDBDICTIONARYWDFLT
  5
E
102
{ACAD_REACTORS
330
C
102
}
330
C
100
AcDbDictionary
281
     1
  3
Normal
350
F
100
AcDbDictionaryWithDefault
340
F
  0
DICTIONARY
  5
92
102
{ACAD_REACTORS
330
C
102
}
330
C
100
AcDbDictionary
281
     1
  3
A0
350
93
  3
A1
350
94
  3
A2
350
95
  3
A3
350
96
  3
A4
350
97
  3
A5
350
98
  3
A6
350
99
  3
A7
350
9A
  3
A8
350
9B
  3
A9
350
9C
  3
B0
350
9D
  3
B1
350
9E
  3
B2
350
9F
  3
B3
350
A0
  3
B4
350
A1
  3
B5
350
A2
  3
B6
350
A3
  3
B7
350
A4
  3
B8
350
A5
  3
B9
350
A6
  3
C0
350
A7
  3
C1
350
A8
  3
C2
350
A9
  3
C3
350
AA
  3
C4
350
AB
  3
C5
350
AC
  3
C6
350
AD
  3
C7
350
AE
  3
C8
350
AF
  3
C9
350
B0
  3
D0
350
B1
  3
D1
350
B2
  3
D2
350
B3
  0
DICTIONARY
  5
437
102
{ACAD_REACTORS
330
C
102
}
330
C
100
AcDbDictionary
281
     1
  3
Imperial24
350
B6C
  3
Metric50
350
91D
  0
DICTIONARY
  5
919
102
{ACAD_REACTORS
330
C
102
}
330
C
100
AcDbDictionary
281
     1
  3
Standard
350
91A
  0
DICTIONARY
  5
8FF
102
{ACAD_REACTORS
330
C
102
}
330
C
100
AcDbDictionary
281
     1
  3
2dWireframe
350
905
  3
Basic
350
904
  3
Brighten
350
90B
  3
ColorChange
350
90F
  3
Conceptual
350
908
  3
Dim
350
90A
  3
EdgeColorOff
350
917
  3
Facepattern
350
90E
  3
Flat
350
900
  3
FlatWithEdges
350
901
  3
Gouraud
350
902
  3
GouraudWithEdges
350
903
  3
Hidden
350
907
  3
JitterOff
350
915
  3
Linepattern
350
90D
  3
OverhangOff
350
916
  3
Realistic
350
909
  3
Shaded
350
914
  3
Shaded with edges
350
913
  3
Shades of Gray
350
910
  3
Sketchy
350
911
  3
Thicken
350
90C
  3
Wireframe
350
906
  3
X-Ray
350
912
  0
XRECORD
  5
ED0
102
{ACAD_REACTORS
330
C
102
}
330
C
100
AcDbXrecord
280
     1
 90
        1
330
91A
  0
DICTIONARY
  5
22B
102
{ACAD_REACTORS
330
C
102
}
330
C
100
AcDbDictionary
281
     1
  3
CANNOSCALE
350
93B
  3
CMLEADERSTYLE
350
938
  3
CTABLESTYLE
350
937
  3
CVIEWDETAILSTYLE
350
939
  3
CVIEWSECTIONSTYLE
350
93A
  3
DIMASSOC
350
231
  3
HIDETEXT
350
232
  3
INDEXCTL
350
93D
  3
SORTENTS
350
93C
  3
XCLIPFRAME
350
ECE
  0
DICTIONARY
  5
266
102
{ACAD_REACTORS
330
C
102
}
330
C
100
AcDbDictionary
281
     1
  0
XRECORD
  5
ED1
102
{ACAD_REACTORS
330
C
102
}
330
C
100
AcDbXrecord
280
     1
  1
DWGPROPS COOKIE
  2

  3

  4

  6

  7

  8
com090
  9

300
=
301
=
302
=
303
=
304
=
305
=
306
=
307
=
308
=
309
=
 40
0.0406163541666667
 41
2458765.839571759
 42
2458885.673935185
  1

 90
        0
  0
DICTIONARY
  5
471
102
{ACAD_REACTORS
330
470
102
}
330
470
100
AcDbDictionary
281
     1
  0
DICTIONARY
  5
74E
102
{ACAD_REACTORS
330
470
102
}
330
470
100
AcDbDictionary
281
     1
1001
ACAD
1000
<All
  0
XRECORD
  5
92A
102
{ACAD_REACTORS
330
929
102
}
330
929
100
AcDbXrecord
280
     1
290
     1
  0
XRECORD
  5
92C
102
{ACAD_REACTORS
330
92B
102
}
330
92B
100
AcDbXrecord
280
     1
290
     1
  0
XRECORD
  5
92E
102
{ACAD_REACTORS
330
92D
102
}
330
92D
100
AcDbXrecord
280
     1
290
     1
  0
XRECORD
  5
930
102
{ACAD_REACTORS
330
92F
102
}
330
92F
100
AcDbXrecord
280
     1
290
     1
  0
XRECORD
  5
5B1
102
{ACAD_REACTORS
330
5B0
102
}
330
5B0
100
AcDbXrecord
280
     1
290
     1
  0
XRECORD
  5
675
102
{ACAD_REACTORS
330
674
102
}
330
674
100
AcDbXrecord
280
     1
290
     1
  0
XRECORD
  5
6A2
102
{ACAD_REACTORS
330
6A1
102
}
330
6A1
100
AcDbXrecord
280
     1
290
     1
  0
XRECORD
  5
75B
102
{ACAD_REACTORS
330
75A
102
}
330
75A
100
AcDbXrecord
280
     1
290
     1
  0
XRECORD
  5
932
102
{ACAD_REACTORS
330
931
102
}
330
931
100
AcDbXrecord
280
     1
290
     1
  0
XRECORD
  5
934
102
{ACAD_REACTORS
330
933
102
}
330
933
100
AcDbXrecord
280
     1
290
     1
  0
XRECORD
  5
936
102
{ACAD_REACTORS
330
935
102
}
330
935
100
AcDbXrecord
280
     1
290
     1
  0
DIMASSOC
  5
C04
102
{ACAD_REACTORS
330
BFD
102
}
330
BFD
100
AcDbDimAssoc
330
BF3
 90
        2
 70
     0
 71
     0
  1
AcDbOsnapPointRef
 72
     3
331
B7E
 73
     2
 91
        0
 40
0.0
 10
0.0
 20
0.0
 30
0.0
 75
     0
  0
DIMASSOC
  5
C20
102
{ACAD_REACTORS
330
C19
102
}
330
C19
100
AcDbDimAssoc
330
C0F
 90
        2
 70
     0
 71
     0
  1
AcDbOsnapPointRef
 72
     3
331
B7D
 73
     2
 91
        0
 40
0.0
 10
0.0
 20
0.0
 30
0.0
 75
     0
  0
DIMASSOC
  5
CE6
102
{ACAD_REACTORS
330
CDA
102
}
330
CDA
100
AcDbDimAssoc
330
CCB
 90
        3
 70
     0
 71
     0
  1
AcDbOsnapPointRef
 72
    13
331
AB9
 73
     2
 91
        0
 40
0.0
 10
33.66270099092738
 20
8.724168878155628
 30
0.0
 75
     0
  1
AcDbOsnapPointRef
 72
     8
331
A9E
 73
     2
 91
        0
 40
0.7316470343718579
 10
38.66270099092736
 20
8.724168878034745
 30
0.0
 75
     1
  1
AcDbOsnapPointRef
 72
    13
331
AB9
 73
     2
 91
        0
 40
0.0
 10
33.66270099092738
 20
8.724168878155628
 30
0.0
 75
     0
  0
ACDBDETAILVIEWSTYLE
  5
B6D
102
{ACAD_XDICTIONARY
360
F0F
102
}
102
{ACAD_REACTORS
330
436
102
}
330
436
100
AcDbModelDocViewStyle
 70
     0
  3
Imperial24
290
     0
100
AcDbDetailViewStyle
 70
     0
 71
     0
 90
        3
 71
     1
340
11
 40
0.24
340
0
 40
0.24
300

 40
0.36
280
     3
 71
     2
340
16
 90
       25
 71
     3
340
11
 40
0.24
 90
        1
 40
0.75
 90
        1
300
%<\AcVar ViewType \f "%tc1">% %<\AcVar ViewDetailId>%\PSCALE %<\AcVar ViewScale \f "%sn">%
 71
     4
340
16
 90
       25
340
16
 90
       25
280
     0
  0
ACDBDETAILVIEWSTYLE
  5
91E
102
{ACAD_XDICTIONARY
360
F0B
102
}
102
{ACAD_REACTORS
330
436
102
}
330
436
100
AcDbModelDocViewStyle
 70
     0
  3
Metric50
290
     0
100
AcDbDetailViewStyle
 70
     0
 71
     0
 90
        3
 71
     1
340
11
 40
5.0
340
0
 40
5.0
300

 40
0.0
280
     1
 71
     2
340
16
 90
       25
 71
     3
340
11
 40
5.0
 90
        0
 40
15.0
 90
        1
300
%<\AcVar ViewDetailId>% (%<\AcVar ViewScale \f "%sn">%)
 71
     4
340
16
 90
       25
340
16
 90
       25
280
     0
  0
LAYOUT
  5
1E
102
{ACAD_XDICTIONARY
360
ED2
102
}
102
{ACAD_REACTORS
330
1A
102
}
330
1A
100
AcDbPlotSettings
  1

  2
none_device
  4

  6

 40
0.0
 41
0.0
 42
0.0
 43
0.0
 44
0.0
 45
0.0
 46
0.0
 47
0.0
 48
0.0
 49
0.0
140
0.0
141
0.0
142
1.0
143
1.0
 70
   688
 72
     0
 73
     0
 74
     5
  7

 75
    16
147
1.0
148
0.0
149
0.0
100
AcDbLayout
  1
Layout1
 70
     1
 71
     1
 10
0.0
 20
0.0
 11
0.0
 21
0.0
 12
0.0
 22
0.0
 32
0.0
 14
1.000000000000000E+20
 24
1.000000000000000E+20
 34
1.000000000000000E+20
 15
-1.000000000000000E+20
 25
-1.000000000000000E+20
 35
-1.000000000000000E+20
146
0.0
 13
0.0
 23
0.0
 33
0.0
 16
1.0
 26
0.0
 36
0.0
 17
0.0
 27
1.0
 37
0.0
 76
     0
330
1B
  0
LAYOUT
  5
26
102
{ACAD_XDICTIONARY
360
ED6
102
}
102
{ACAD_REACTORS
330
1A
102
}
330
1A
100
AcDbPlotSettings
  1

  2
none_device
  4

  6

 40
0.0
 41
0.0
 42
0.0
 43
0.0
 44
0.0
 45
0.0
 46
0.0
 47
0.0
 48
0.0
 49
0.0
140
0.0
141
0.0
142
1.0
143
1.0
 70
   688
 72
     0
 73
     0
 74
     5
  7

 75
    16
147
1.0
148
0.0
149
0.0
100
AcDbLayout
  1
Layout2
 70
     1
 71
     2
 10
0.0
 20
0.0
 11
0.0
 21
0.0
 12
0.0
 22
0.0
 32
0.0
 14
0.0
 24
0.0
 34
0.0
 15
0.0
 25
0.0
 35
0.0
146
0.0
 13
0.0
 23
0.0
 33
0.0
 16
1.0
 26
0.0
 36
0.0
 17
0.0
 27
1.0
 37
0.0
 76
     0
330
23
  0
LAYOUT
  5
22
102
{ACAD_XDICTIONARY
360
ED4
102
}
102
{ACAD_REACTORS
330
1A
102
}
330
1A
100
AcDbPlotSettings
  1

  2
none_device
  4

  6

 40
0.0
 41
0.0
 42
0.0
 43
0.0
 44
0.0
 45
0.0
 46
0.0
 47
0.0
 48
0.0
 49
0.0
140
0.0
141
0.0
142
1.0
143
1.0
 70
  1712
 72
     0
 73
     0
 74
     0
  7

 75
     0
147
1.0
148
0.0
149
0.0
100
AcDbLayout
  1
Model
 70
     1
 71
     0
 10
0.0
 20
0.0
 11
420.0
 21
297.0
 12
0.0
 22
0.0
 32
0.0
 14
-41.5
 24
-30.0
 34
0.0
 15
58.5
 25
30.0
 35
0.0
146
0.0
 13
0.0
 23
0.0
 33
0.0
 16
1.0
 26
0.0
 36
0.0
 17
0.0
 27
1.0
 37
0.0
 76
     0
330
1F
331
29
  0
MATERIAL
  5
8EF
102
{ACAD_XDICTIONARY
360
8F0
102
}
102
{ACAD_REACTORS
330
8E6
102
}
330
8E6
100
AcDbMaterial
  1
ByBlock
 72
     0
 43
0.0008202099737533
 43
0.0
 43
0.0
 43
0.0
 43
0.0
 43
0.0008202099737533
 43
0.0
 43
0.0
 43
0.0
 43
0.0
 43
1.0
 43
0.0
 43
0.0
 43
0.0
 43
0.0
 43
1.0
 77
     0
 47
0.0008202099737533
 47
0.0
 47
0.0
 47
0.0
 47
0.0
 47
0.0008202099737533
 47
0.0
 47
0.0
 47
0.0
 47
0.0
 47
1.0
 47
0.0
 47
0.0
 47
0.0
 47
0.0
 47
1.0
171
     0
 49
0.0008202099737533
 49
0.0
 49
0.0
 49
0.0
 49
0.0
 49
0.0008202099737533
 49
0.0
 49
0.0
 49
0.0
 49
0.0
 49
1.0
 49
0.0
 49
0.0
 49
0.0
 49
0.0
 49
1.0
175
     0
142
0.0008202099737533
142
0.0
142
0.0
142
0.0
142
0.0
142
0.0008202099737533
142
0.0
142
0.0
142
0.0
142
0.0
142
1.0
142
0.0
142
0.0
142
0.0
142
0.0
142
1.0
179
     0
144
0.0008202099737533
144
0.0
144
0.0
144
0.0
144
0.0
144
0.0008202099737533
144
0.0
144
0.0
144
0.0
144
0.0
144
1.0
144
0.0
144
0.0
144
0.0
144
0.0
144
1.0
147
0.0008202099737533
147
0.0
147
0.0
147
0.0
147
0.0
147
0.0008202099737533
147
0.0
147
0.0
147
0.0
147
0.0
147
1.0
147
0.0
147
0.0
147
0.0
147
0.0
147
1.0
  0
MATERIAL
  5
8E7
102
{ACAD_XDICTIONARY
360
8E8
102
}
102
{ACAD_REACTORS
330
8E6
102
}
330
8E6
100
AcDbMaterial
  1
ByLayer
 72
     0
 43
0.0008202099737533
 43
0.0
 43
0.0
 43
0.0
 43
0.0
 43
0.0008202099737533
 43
0.0
 43
0.0
 43
0.0
 43
0.0
 43
1.0
 43
0.0
 43
0.0
 43
0.0
 43
0.0
 43
1.0
 77
     0
 47
0.0008202099737533
 47
0.0
 47
0.0
 47
0.0
 47
0.0
 47
0.0008202099737533
 47
0.0
 47
0.0
 47
0.0
 47
0.0
 47
1.0
 47
0.0
 47
0.0
 47
0.0
 47
0.0
 47
1.0
171
     0
 49
0.0008202099737533
 49
0.0
 49
0.0
 49
0.0
 49
0.0
 49
0.0008202099737533
 49
0.0
 49
0.0
 49
0.0
 49
0.0
 49
1.0
 49
0.0
 49
0.0
 49
0.0
 49
0.0
 49
1.0
175
     0
142
0.0008202099737533
142
0.0
142
0.0
142
0.0
142
0.0
142
0.0008202099737533
142
0.0
142
0.0
142
0.0
142
0.0
142
1.0
142
0.0
142
0.0
142
0.0
142
0.0
142
1.0
179
     0
144
0.0008202099737533
144
0.0
144
0.0
144
0.0
144
0.0
144
0.0008202099737533
144
0.0
144
0.0
144
0.0
144
0.0
144
1.0
144
0.0
144
0.0
144
0.0
144
0.0
144
1.0
147
0.0008202099737533
147
0.0
147
0.0
147
0.0
147
0.0
147
0.0008202099737533
147
0.0
147
0.0
147
0.0
147
0.0
147
1.0
147
0.0
147
0.0
147
0.0
147
0.0
147
1.0
  0
MATERIAL
  5
8F7
102
{ACAD_XDICTIONARY
360
8F8
102
}
102
{ACAD_REACTORS
330
8E6
102
}
330
8E6
100
AcDbMaterial
  1
Global
 72
     0
 43
0.0008202099737533
 43
0.0
 43
0.0
 43
0.0
 43
0.0
 43
0.0008202099737533
 43
0.0
 43
0.0
 43
0.0
 43
0.0
 43
1.0
 43
0.0
 43
0.0
 43
0.0
 43
0.0
 43
1.0
 77
     0
 47
0.0008202099737533
 47
0.0
 47
0.0
 47
0.0
 47
0.0
 47
0.0008202099737533
 47
0.0
 47
0.0
 47
0.0
 47
0.0
 47
1.0
 47
0.0
 47
0.0
 47
0.0
 47
0.0
 47
1.0
171
     0
 49
0.0008202099737533
 49
0.0
 49
0.0
 49
0.0
 49
0.0
 49
0.0008202099737533
 49
0.0
 49
0.0
 49
0.0
 49
0.0
 49
1.0
 49
0.0
 49
0.0
 49
0.0
 49
0.0
 49
1.0
175
     0
142
0.0008202099737533
142
0.0
142
0.0
142
0.0
142
0.0
142
0.0008202099737533
142
0.0
142
0.0
142
0.0
142
0.0
142
1.0
142
0.0
142
0.0
142
0.0
142
0.0
142
1.0
179
     0
144
0.0008202099737533
144
0.0
144
0.0
144
0.0
144
0.0
144
0.0008202099737533
144
0.0
144
0.0
144
0.0
144
0.0
144
1.0
144
0.0
144
0.0
144
0.0
144
0.0
144
1.0
147
0.0008202099737533
147
0.0
147
0.0
147
0.0
147
0.0
147
0.0008202099737533
147
0.0
147
0.0
147
0.0
147
0.0
147
1.0
147
0.0
147
0.0
147
0.0
147
0.0
147
1.0
  0
MLEADERSTYLE
  5
91C
102
{ACAD_REACTORS
330
91B
102
}
330
91B
100
AcDbMLeaderStyle
170
     2
171
     1
172
     0
 90
        2
 40
0.0
 41
0.0
173
     1
 91
-1056964608
340
14
 92
       -2
290
     1
 42
2.0
291
     1
 43
0.36
  3
Standard
 44
4.0
300

342
11
174
     1
178
     6
175
     1
176
     0
 93
-1056964608
 45
4.0
292
     0
297
     0
 46
4.0
 94
-1056964608
 47
1.0
 49
1.0
140
1.0
293
     1
141
0.0
294
     1
177
     0
142
1.0
295
     0
296
     0
143
0.125
1001
ACAD_MLEADERVER
1070
     2
  0
MLINESTYLE
  5
18
102
{ACAD_REACTORS
330
17
102
}
330
17
100
AcDbMlineStyle
  2
STANDARD
 70
     0
  3

 62
   256
 51
90.0
 52
90.0
 71
     2
 49
0.5
 62
   256
  6
BYLAYER
 49
-0.5
 62
   256
  6
BYLAYER
  0
ACDBPLACEHOLDER
  5
F
102
{ACAD_REACTORS
330
E
102
}
330
E
  0
SCALE
  5
93
102
{ACAD_REACTORS
330
92
102
}
330
92
100
AcDbScale
 70
     0
300
1:1
140
1.0
141
1.0
290
     1
  0
SCALE
  5
94
102
{ACAD_REACTORS
330
92
102
}
330
92
100
AcDbScale
 70
     0
300
1:2
140
1.0
141
2.0
290
     0
  0
SCALE
  5
95
102
{ACAD_REACTORS
330
92
102
}
330
92
100
AcDbScale
 70
     0
300
1:4
140
1.0
141
4.0
290
     0
  0
SCALE
  5
96
102
{ACAD_REACTORS
330
92
102
}
330
92
100
AcDbScale
 70
     0
300
1:5
140
1.0
141
5.0
290
     0
  0
SCALE
  5
97
102
{ACAD_REACTORS
330
92
102
}
330
92
100
AcDbScale
 70
     0
300
1:8
140
1.0
141
8.0
290
     0
  0
SCALE
  5
98
102
{ACAD_REACTORS
330
92
102
}
330
92
100
AcDbScale
 70
     0
300
1:10
140
1.0
141
10.0
290
     0
  0
SCALE
  5
99
102
{ACAD_REACTORS
330
92
102
}
330
92
100
AcDbScale
 70
     0
300
1:16
140
1.0
141
16.0
290
     0
  0
SCALE
  5
9A
102
{ACAD_REACTORS
330
92
102
}
330
92
100
AcDbScale
 70
     0
300
1:20
140
1.0
141
20.0
290
     0
  0
SCALE
  5
9B
102
{ACAD_REACTORS
330
92
102
}
330
92
100
AcDbScale
 70
     0
300
1:30
140
1.0
141
30.0
290
     0
  0
SCALE
  5
9C
102
{ACAD_REACTORS
330
92
102
}
330
92
100
AcDbScale
 70
     0
300
1:40
140
1.0
141
40.0
290
     0
  0
SCALE
  5
9D
102
{ACAD_REACTORS
330
92
102
}
330
92
100
AcDbScale
 70
     0
300
1:50
140
1.0
141
50.0
290
     0
  0
SCALE
  5
9E
102
{ACAD_REACTORS
330
92
102
}
330
92
100
AcDbScale
 70
     0
300
1:100
140
1.0
141
100.0
290
     0
  0
SCALE
  5
9F
102
{ACAD_REACTORS
330
92
102
}
330
92
100
AcDbScale
 70
     0
300
2:1
140
2.0
141
1.0
290
     0
  0
SCALE
  5
A0
102
{ACAD_REACTORS
330
92
102
}
330
92
100
AcDbScale
 70
     0
300
4:1
140
4.0
141
1.0
290
     0
  0
SCALE
  5
A1
102
{ACAD_REACTORS
330
92
102
}
330
92
100
AcDbScale
 70
     0
300
8:1
140
8.0
141
1.0
290
     0
  0
SCALE
  5
A2
102
{ACAD_REACTORS
330
92
102
}
330
92
100
AcDbScale
 70
     0
300
10:1
140
10.0
141
1.0
290
     0
  0
SCALE
  5
A3
102
{ACAD_REACTORS
330
92
102
}
330
92
100
AcDbScale
 70
     0
300
100:1
140
100.0
141
1.0
290
     0
  0
SCALE
  5
A4
102
{ACAD_REACTORS
330
92
102
}
330
92
100
AcDbScale
 70
     0
300
1/128" = 1'-0"
140
0.0078125
141
12.0
290
     0
  0
SCALE
  5
A5
102
{ACAD_REACTORS
330
92
102
}
330
92
100
AcDbScale
 70
     0
300
1/64" = 1'-0"
140
0.015625
141
12.0
290
     0
  0
SCALE
  5
A6
102
{ACAD_REACTORS
330
92
102
}
330
92
100
AcDbScale
 70
     0
300
1/32" = 1'-0"
140
0.03125
141
12.0
290
     0
  0
SCALE
  5
A7
102
{ACAD_REACTORS
330
92
102
}
330
92
100
AcDbScale
 70
     0
300
1/16" = 1'-0"
140
0.0625
141
12.0
290
     0
  0
SCALE
  5
A8
102
{ACAD_REACTORS
330
92
102
}
330
92
100
AcDbScale
 70
     0
300
3/32" = 1'-0"
140
0.09375
141
12.0
290
     0
  0
SCALE
  5
A9
102
{ACAD_REACTORS
330
92
102
}
330
92
100
AcDbScale
 70
     0
300
1/8" = 1'-0"
140
0.125
141
12.0
290
     0
  0
SCALE
  5
AA
102
{ACAD_REACTORS
330
92
102
}
330
92
100
AcDbScale
 70
     0
300
3/16" = 1'-0"
140
0.1875
141
12.0
290
     0
  0
SCALE
  5
AB
102
{ACAD_REACTORS
330
92
102
}
330
92
100
AcDbScale
 70
     0
300
1/4" = 1'-0"
140
0.25
141
12.0
290
     0
  0
SCALE
  5
AC
102
{ACAD_REACTORS
330
92
102
}
330
92
100
AcDbScale
 70
     0
300
3/8" = 1'-0"
140
0.375
141
12.0
290
     0
  0
SCALE
  5
AD
102
{ACAD_REACTORS
330
92
102
}
330
92
100
AcDbScale
 70
     0
300
1/2" = 1'-0"
140
0.5
141
12.0
290
     0
  0
SCALE
  5
AE
102
{ACAD_REACTORS
330
92
102
}
330
92
100
AcDbScale
 70
     0
300
3/4" = 1'-0"
140
0.75
141
12.0
290
     0
  0
SCALE
  5
AF
102
{ACAD_REACTORS
330
92
102
}
330
92
100
AcDbScale
 70
     0
300
1" = 1'-0"
140
1.0
141
12.0
290
     0
  0
SCALE
  5
B0
102
{ACAD_REACTORS
330
92
102
}
330
92
100
AcDbScale
 70
     0
300
1-1/2" = 1'-0"
140
1.5
141
12.0
290
     0
  0
SCALE
  5
B1
102
{ACAD_REACTORS
330
92
102
}
330
92
100
AcDbScale
 70
     0
300
3" = 1'-0"
140
3.0
141
12.0
290
     0
  0
SCALE
  5
B2
102
{ACAD_REACTORS
330
92
102
}
330
92
100
AcDbScale
 70
     0
300
6" = 1'-0"
140
6.0
141
12.0
290
     0
  0
SCALE
  5
B3
102
{ACAD_REACTORS
330
92
102
}
330
92
100
AcDbScale
 70
     0
300
1'-0" = 1'-0"
140
12.0
141
12.0
290
     0
  0
ACDBSECTIONVIEWSTYLE
  5
B6C
102
{ACAD_XDICTIONARY
360
F0D
102
}
102
{ACAD_REACTORS
330
437
102
}
330
437
100
AcDbModelDocViewStyle
 70
     0
  3
Imperial24
290
     0
100
AcDbSectionViewStyle
 70
     0
 71
     0
 90
       78
 71
     1
340
11
 40
0.24
340
0
340
0
 40
0.24
300
I, O, Q, S, X, Z
 40
0.48
 90
        3
 40
0.18
 90
        1
 71
     2
340
16
 90
       25
340
16
 90
       50
 40
0.24
 40
0.0
 40
0.24
 71
     3
340
11
 40
0.24
 90
        1
 40
0.75
 90
        1
300
%<\AcVar ViewType \f "%tc1">% %<\AcVar ViewSectionStartId>%-%<\AcVar ViewSectionEndId>%\PSCALE %<\AcVar ViewScale \f "%sn">%
 71
     4
300
ANSI31
 40
1.0
 90
        0
290
     0
290
     0
 90
        6
 40
0.0
 40
1.570796326794896
 40
0.2617993877991494
 40
1.308996938995747
 40
-0.2617993877991494
 40
1.832595714594044
  0
ACDBSECTIONVIEWSTYLE
  5
91D
102
{ACAD_XDICTIONARY
360
F09
102
}
102
{ACAD_REACTORS
330
437
102
}
330
437
100
AcDbModelDocViewStyle
 70
     0
  3
Metric50
290
     0
100
AcDbSectionViewStyle
 70
     0
 71
     0
 90
      102
 71
     1
340
11
 40
5.0
340
0
340
0
 40
5.0
300
I, O, Q, S, X, Z
 40
10.0
 90
        0
 40
2.5
 90
        0
 71
     2
340
16
 90
       25
340
16
 90
       50
 40
5.0
 40
2.5
 40
5.0
 71
     3
340
11
 40
5.0
 90
        0
 40
15.0
 90
        1
300
%<\AcVar ViewSectionStartId>%-%<\AcVar ViewSectionEndId>% (%<\AcVar ViewScale \f "%sn">%)
 71
     4
300
ANSI31
 40
1.0
 90
        0
290
     0
290
     0
 90
        6
 40
0.0
 40
1.570796326794896
 40
0.2617993877991494
 40
1.308996938995747
 40
-0.2617993877991494
 40
1.832595714594044
  0
TABLESTYLE
  5
91A
102
{ACAD_XDICTIONARY
360
D41
102
}
102
{ACAD_REACTORS
330
919
102
}
330
919
100
AcDbTableStyle
  3
Standard
 70
     0
 71
     0
 40
1.5
 41
1.5
280
     0
281
     0
  7
Standard
140
4.5
170
     2
 62
     0
 63
     7
283
     0
274
    -2
284
     1
 64
     0
275
    -2
285
     1
 65
     0
276
    -2
286
     1
 66
     0
277
    -2
287
     1
 67
     0
278
    -2
288
     1
 68
     0
279
    -2
289
     1
 69
     0
  7
Standard
140
6.0
170
     5
 62
     0
 63
     7
283
     0
274
    -2
284
     1
 64
     0
275
    -2
285
     1
 65
     0
276
    -2
286
     1
 66
     0
277
    -2
287
     1
 67
     0
278
    -2
288
     1
 68
     0
279
    -2
289
     1
 69
     0
  7
Standard
140
4.5
170
     5
 62
     0
 63
     7
283
     0
274
    -2
284
     1
 64
     0
275
    -2
285
     1
 65
     0
276
    -2
286
     1
 66
     0
277
    -2
287
     1
 67
     0
278
    -2
288
     1
 68
     0
279
    -2
289
     1
 69
     0
  0
VISUALSTYLE
  5
905
102
{ACAD_XDICTIONARY
360
EE2
102
}
102
{ACAD_REACTORS
330
8FF
102
}
330
8FF
100
AcDbVisualStyle
  2

 70
     4
 71
     0
 72
     2
 73
     0
 90
        0
 40
-0.6
 41
-30.0
 62
     5
 63
     7
 74
     1
 91
        4
 64
     7
 65
   257
 75
     1
175
     1
 42
1.0
 92
        0
 66
   257
 43
1.0
 76
     1
 77
     6
 78
     2
 67
     7
 79
     5
170
     0
171
     0
290
     0
174
     0
 93
        1
 44
0.0
173
     0
291
     0
 45
0.0
1001
ACAD
1000
AcDbSavedByObjectVersion
1070
     0
  0
VISUALSTYLE
  5
904
102
{ACAD_XDICTIONARY
360
EE0
102
}
102
{ACAD_REACTORS
330
8FF
102
}
330
8FF
100
AcDbVisualStyle
  2

 70
     7
 71
     1
 72
     0
 73
     1
 90
        0
 40
-0.6
 41
-30.0
 62
     5
 63
     7
 74
     0
 91
        4
 64
     7
 65
   257
 75
     1
175
     1
 42
1.0
 92
        8
 66
     7
 43
1.0
 76
     1
 77
     6
 78
     2
 67
     7
 79
     5
170
     0
171
     0
290
     0
174
     0
 93
        1
 44
0.0
173
     0
291
     1
 45
0.0
1001
ACAD
1000
AcDbSavedByObjectVersion
1070
     0
  0
VISUALSTYLE
  5
90B
102
{ACAD_XDICTIONARY
360
EEE
102
}
102
{ACAD_REACTORS
330
8FF
102
}
330
8FF
100
AcDbVisualStyle
  2

 70
    12
 71
     2
 72
     2
 73
     0
 90
        0
 40
-0.6
 41
-30.0
 62
     5
 63
     7
 74
     1
 91
        4
 64
     7
 65
   257
 75
     1
175
     1
 42
1.0
 92
        8
 66
     7
 43
1.0
 76
     1
 77
     6
 78
     2
 67
     7
 79
     5
170
     0
171
     0
290
     0
174
     0
 93
        1
 44
50.0
173
     0
291
     1
 45
0.0
1001
ACAD
1000
AcDbSavedByObjectVersion
1070
     0
  0
VISUALSTYLE
  5
90F
102
{ACAD_XDICTIONARY
360
EF6
102
}
102
{ACAD_REACTORS
330
8FF
102
}
330
8FF
100
AcDbVisualStyle
  2

 70
    16
 71
     2
 72
     2
 73
     3
 90
        0
 40
-0.6
 41
-30.0
 62
     5
 63
     8
 74
     1
 91
        4
 64
     7
 65
   257
 75
     1
175
     1
 42
1.0
 92
        8
 66
     8
 43
1.0
 76
     1
 77
     6
 78
     2
 67
     7
 79
     5
170
     0
171
     0
290
     0
174
     0
 93
        1
 44
0.0
173
     0
291
     1
 45
0.0
1001
ACAD
1000
AcDbSavedByObjectVersion
1070
     0
  0
VISUALSTYLE
  5
908
102
{ACAD_XDICTIONARY
360
EE8
102
}
102
{ACAD_REACTORS
330
8FF
102
}
330
8FF
100
AcDbVisualStyle
  2

 70
     9
 71
     3
 72
     2
 73
     0
 90
        0
 40
-0.6
 41
-30.0
 62
     5
 63
     7
 74
     2
 91
        2
 64
     7
 65
   257
 75
     1
175
     1
 42
179.0
 92
        8
 66
     7
 43
1.0
 76
     1
 77
     6
 78
     2
 67
     7
 79
     3
170
     0
171
     0
290
     0
174
     0
 93
        1
 44
0.0
173
     0
291
     0
 45
0.0
1001
ACAD
1000
AcDbSavedByObjectVersion
1070
     0
  0
VISUALSTYLE
  5
90A
102
{ACAD_XDICTIONARY
360
EEC
102
}
102
{ACAD_REACTORS
330
8FF
102
}
330
8FF
100
AcDbVisualStyle
  2

 70
    11
 71
     2
 72
     2
 73
     0
 90
        0
 40
-0.6
 41
-30.0
 62
     5
 63
     7
 74
     1
 91
        4
 64
     7
 65
   257
 75
     1
175
     1
 42
1.0
 92
        8
 66
     7
 43
1.0
 76
     1
 77
     6
 78
     2
 67
     7
 79
     5
170
     0
171
     0
290
     0
174
     0
 93
        1
 44
-50.0
173
     0
291
     1
 45
0.0
1001
ACAD
1000
AcDbSavedByObjectVersion
1070
     0
  0
VISUALSTYLE
  5
917
102
{ACAD_XDICTIONARY
360
F06
102
}
102
{ACAD_REACTORS
330
8FF
102
}
330
8FF
100
AcDbVisualStyle
  2

 70
    22
 71
     2
 72
     2
 73
     0
 90
        0
 40
-0.6
 41
-30.0
 62
     5
 63
     7
 74
     1
 91
        4
 64
     7
 65
   257
 75
     1
175
     1
 42
1.0
 92
        8
 66
     7
 43
1.0
 76
     1
 77
     6
 78
     2
 67
     7
 79
     5
170
     0
171
     0
290
     0
174
     0
 93
        1
 44
0.0
173
     0
291
     1
 45
0.0
1001
ACAD
1000
AcDbSavedByObjectVersion
1070
     0
  0
VISUALSTYLE
  5
90E
102
{ACAD_XDICTIONARY
360
EF4
102
}
102
{ACAD_REACTORS
330
8FF
102
}
330
8FF
100
AcDbVisualStyle
  2

 70
    15
 71
     2
 72
     2
 73
     0
 90
        0
 40
-0.6
 41
-30.0
 62
     5
 63
     7
 74
     1
 91
        4
 64
     7
 65
   257
 75
     1
175
     1
 42
1.0
 92
        8
 66
     7
 43
1.0
 76
     1
 77
     6
 78
     2
 67
     7
 79
     5
170
     0
171
     0
290
     0
174
     0
 93
        1
 44
0.0
173
     0
291
     1
 45
0.0
1001
ACAD
1000
AcDbSavedByObjectVersion
1070
     0
  0
VISUALSTYLE
  5
900
102
{ACAD_XDICTIONARY
360
ED8
102
}
102
{ACAD_REACTORS
330
8FF
102
}
330
8FF
100
AcDbVisualStyle
  2

 70
     0
 71
     2
 72
     1
 73
     1
 90
        2
 40
-0.6
 41
30.0
 62
     5
 63
     7
 74
     0
 91
        0
 64
     7
 65
   257
 75
     1
175
     1
 42
1.0
 92
        8
 66
     7
 43
1.0
 76
     1
 77
     6
 78
     2
 67
     7
 79
     5
170
     0
171
     0
290
     0
174
     0
 93
       13
 44
0.0
173
     0
291
     1
 45
0.0
1001
ACAD
1000
AcDbSavedByObjectVersion
1070
     0
  0
VISUALSTYLE
  5
901
102
{ACAD_XDICTIONARY
360
EDA
102
}
102
{ACAD_REACTORS
330
8FF
102
}
330
8FF
100
AcDbVisualStyle
  2

 70
     1
 71
     2
 72
     1
 73
     1
 90
        2
 40
-0.6
 41
30.0
 62
     5
 63
     7
 74
     1
 91
        0
 64
     7
 65
   257
 75
     1
175
     1
 42
1.0
 92
        0
 66
   257
 43
1.0
 76
     1
 77
     6
 78
     2
 67
     7
 79
     5
170
     0
171
     0
290
     0
174
     0
 93
       13
 44
0.0
173
     0
291
     1
 45
0.0
1001
ACAD
1000
AcDbSavedByObjectVersion
1070
     0
  0
VISUALSTYLE
  5
902
102
{ACAD_XDICTIONARY
360
EDC
102
}
102
{ACAD_REACTORS
330
8FF
102
}
330
8FF
100
AcDbVisualStyle
  2

 70
     2
 71
     2
 72
     2
 73
     1
 90
        2
 40
-0.6
 41
30.0
 62
     5
 63
     7
 74
     0
 91
        0
 64
     7
 65
   257
 75
     1
175
     1
 42
1.0
 92
        0
 66
     7
 43
1.0
 76
     1
 77
     6
 78
     2
 67
     7
 79
     5
170
     0
171
     0
290
     0
174
     0
 93
       13
 44
0.0
173
     0
291
     1
 45
0.0
1001
ACAD
1000
AcDbSavedByObjectVersion
1070
     0
  0
VISUALSTYLE
  5
903
102
{ACAD_XDICTIONARY
360
EDE
102
}
102
{ACAD_REACTORS
330
8FF
102
}
330
8FF
100
AcDbVisualStyle
  2

 70
     3
 71
     2
 72
     2
 73
     1
 90
        2
 40
-0.6
 41
30.0
 62
     5
 63
     7
 74
     1
 91
        0
 64
     7
 65
   257
 75
     1
175
     1
 42
1.0
 92
        0
 66
   257
 43
1.0
 76
     1
 77
     6
 78
     2
 67
     7
 79
     5
170
     0
171
     0
290
     0
174
     0
 93
       13
 44
0.0
173
     0
291
     1
 45
0.0
1001
ACAD
1000
AcDbSavedByObjectVersion
1070
     0
  0
VISUALSTYLE
  5
907
102
{ACAD_XDICTIONARY
360
EE6
102
}
102
{ACAD_REACTORS
330
8FF
102
}
330
8FF
100
AcDbVisualStyle
  2

 70
     6
 71
     1
 72
     2
 73
     2
 90
        0
 40
-0.6
 41
-30.0
 62
     5
 63
     7
 74
     2
 91
        2
 64
     7
 65
   257
 75
     2
175
     1
 42
40.0
 92
        0
 66
   257
 43
1.0
 76
     1
 77
     6
 78
     2
 67
     7
 79
     3
170
     0
171
     0
290
     0
174
     0
 93
        1
 44
0.0
173
     0
291
     0
 45
0.0
1001
ACAD
1000
AcDbSavedByObjectVersion
1070
     0
  0
VISUALSTYLE
  5
915
102
{ACAD_XDICTIONARY
360
F02
102
}
102
{ACAD_REACTORS
330
8FF
102
}
330
8FF
100
AcDbVisualStyle
  2

 70
    20
 71
     2
 72
     2
 73
     0
 90
        0
 40
-0.6
 41
-30.0
 62
     5
 63
     7
 74
     1
 91
        4
 64
     7
 65
   257
 75
     1
175
     1
 42
1.0
 92
       10
 66
     7
 43
1.0
 76
     1
 77
     6
 78
     2
 67
     7
 79
     5
170
     0
171
     0
290
     0
174
     0
 93
        1
 44
0.0
173
     0
291
     1
 45
0.0
1001
ACAD
1000
AcDbSavedByObjectVersion
1070
     0
  0
VISUALSTYLE
  5
90D
102
{ACAD_XDICTIONARY
360
EF2
102
}
102
{ACAD_REACTORS
330
8FF
102
}
330
8FF
100
AcDbVisualStyle
  2

 70
    14
 71
     2
 72
     2
 73
     0
 90
        0
 40
-0.6
 41
-30.0
 62
     5
 63
     7
 74
     1
 91
        4
 64
     7
 65
   257
 75
     7
175
     7
 42
1.0
 92
        8
 66
     7
 43
1.0
 76
     1
 77
     6
 78
     2
 67
     7
 79
     5
170
     0
171
     0
290
     0
174
     0
 93
        1
 44
0.0
173
     0
291
     1
 45
0.0
1001
ACAD
1000
AcDbSavedByObjectVersion
1070
     0
  0
VISUALSTYLE
  5
916
102
{ACAD_XDICTIONARY
360
F04
102
}
102
{ACAD_REACTORS
330
8FF
102
}
330
8FF
100
AcDbVisualStyle
  2

 70
    21
 71
     2
 72
     2
 73
     0
 90
        0
 40
-0.6
 41
-30.0
 62
     5
 63
     7
 74
     1
 91
        4
 64
     7
 65
   257
 75
     1
175
     1
 42
1.0
 92
        9
 66
     7
 43
1.0
 76
     1
 77
     6
 78
     2
 67
     7
 79
     5
170
     0
171
     0
290
     0
174
     0
 93
        1
 44
0.0
173
     0
291
     1
 45
0.0
1001
ACAD
1000
AcDbSavedByObjectVersion
1070
     0
  0
VISUALSTYLE
  5
909
102
{ACAD_XDICTIONARY
360
EEA
102
}
102
{ACAD_REACTORS
330
8FF
102
}
330
8FF
100
AcDbVisualStyle
  2

 70
     8
 71
     2
 72
     3
 73
     0
 90
        2
 40
-0.6
 41
30.0
 62
     5
 63
     7
 74
     0
 91
        0
 64
     7
 65
   257
 75
     1
175
     1
 42
1.0
 92
        8
 66
   257
 43
1.0
 76
     1
 77
     6
 78
     2
 67
     7
 79
     3
170
     0
171
     0
290
     0
174
     0
 93
       13
 44
0.0
173
     0
291
     0
 45
0.0
1001
ACAD
1000
AcDbSavedByObjectVersion
1070
     0
  0
VISUALSTYLE
  5
914
102
{ACAD_XDICTIONARY
360
F00
102
}
102
{ACAD_REACTORS
330
8FF
102
}
330
8FF
100
AcDbVisualStyle
  2

 70
    27
 71
     2
 72
     2
 73
     1
 90
        2
 40
-0.6
 41
30.0
 62
     5
 63
     7
 74
     0
 91
        4
 64
     7
 65
   257
 75
     1
175
     1
 42
1.0
 92
        8
 66
   257
 43
1.0
 76
     1
 77
     6
 78
     2
 67
     8
 79
     3
170
     0
171
     0
290
     0
174
     0
 93
        5
 44
0.0
173
     0
291
     0
 45
0.0
1001
ACAD
1000
AcDbSavedByObjectVersion
1070
     0
  0
VISUALSTYLE
  5
913
102
{ACAD_XDICTIONARY
360
EFE
102
}
102
{ACAD_REACTORS
330
8FF
102
}
330
8FF
100
AcDbVisualStyle
  2

 70
    26
 71
     2
 72
     2
 73
     1
 90
        2
 40
-0.6
 41
30.0
 62
     5
 63
     7
 74
     1
 91
        2
 64
     7
 65
   257
 75
     2
175
     1
 42
1.0
 92
        8
 66
   257
 43
1.0
 76
     1
 77
     6
 78
     2
 67
     7
 79
     3
170
     0
171
     0
290
     0
174
     0
 93
        5
 44
0.0
173
     0
291
     0
 45
0.0
1001
ACAD
1000
AcDbSavedByObjectVersion
1070
     0
  0
VISUALSTYLE
  5
910
102
{ACAD_XDICTIONARY
360
EF8
102
}
102
{ACAD_REACTORS
330
8FF
102
}
330
8FF
100
AcDbVisualStyle
  2

 70
    23
 71
     2
 72
     2
 73
     3
 90
        0
 40
-0.6
 41
-30.0
 62
     5
 63
     7
 74
     2
 91
        2
 64
     7
 65
     7
 75
     1
175
     1
 42
40.0
 92
        8
 66
     7
 43
1.0
 76
     1
 77
     6
 78
     2
 67
     7
 79
     3
170
     0
171
     0
290
     0
174
     0
 93
        1
 44
0.0
173
     0
291
     0
 45
0.0
1001
ACAD
1000
AcDbSavedByObjectVersion
1070
     0
  0
VISUALSTYLE
  5
911
102
{ACAD_XDICTIONARY
360
EFA
102
}
102
{ACAD_REACTORS
330
8FF
102
}
330
8FF
100
AcDbVisualStyle
  2

 70
    24
 71
     1
 72
     2
 73
     2
 90
        0
 40
-0.6
 41
-30.0
 62
     5
 63
     7
 74
     2
 91
        2
 64
     7
 65
     7
 75
     1
175
     1
 42
40.0
 92
       11
 66
     7
 43
1.0
 76
     1
 77
     6
 78
     2
 67
     7
 79
     6
170
     0
171
     0
290
     0
174
     0
 93
        1
 44
0.0
173
     0
291
     0
 45
0.0
1001
ACAD
1000
AcDbSavedByObjectVersion
1070
     0
  0
VISUALSTYLE
  5
90C
102
{ACAD_XDICTIONARY
360
EF0
102
}
102
{ACAD_REACTORS
330
8FF
102
}
330
8FF
100
AcDbVisualStyle
  2

 70
    13
 71
     2
 72
     2
 73
     0
 90
        0
 40
-0.6
 41
-30.0
 62
     5
 63
     7
 74
     1
 91
        4
 64
     7
 65
   257
 75
     1
175
     1
 42
1.0
 92
       12
 66
     7
 43
1.0
 76
     1
 77
     6
 78
     2
 67
     7
 79
     5
170
     0
171
     0
290
     0
174
     0
 93
        1
 44
0.0
173
     0
291
     1
 45
0.0
1001
ACAD
1000
AcDbSavedByObjectVersion
1070
     0
  0
VISUALSTYLE
  5
906
102
{ACAD_XDICTIONARY
360
EE4
102
}
102
{ACAD_REACTORS
330
8FF
102
}
330
8FF
100
AcDbVisualStyle
  2

 70
     5
 71
     0
 72
     2
 73
     0
 90
        0
 40
-0.6
 41
-30.0
 62
     5
 63
     7
 74
     1
 91
        4
 64
     7
 65
   257
 75
     1
175
     1
 42
1.0
 92
        0
 66
   257
 43
1.0
 76
     1
 77
     6
 78
     2
 67
     7
 79
     3
170
     0
171
     0
290
     0
174
     0
 93
        1
 44
0.0
173
     0
291
     0
 45
0.0
1001
ACAD
1000
AcDbSavedByObjectVersion
1070
     0
  0
VISUALSTYLE
  5
912
102
{ACAD_XDICTIONARY
360
EFC
102
}
102
{ACAD_REACTORS
330
8FF
102
}
330
8FF
100
AcDbVisualStyle
  2

 70
    25
 71
     2
 72
     2
 73
     1
 90
        1
 40
0.5
 41
-30.0
 62
     5
 63
     7
 74
     1
 91
        0
 64
     7
 65
   257
 75
     1
175
     1
 42
1.0
 92
        8
 66
     7
 43
1.0
 76
     1
 77
     6
 78
     2
 67
     7
 79
     3
170
     0
171
     0
290
     0
174
     0
 93
       13
 44
0.0
173
     0
291
     0
 45
0.0
1001
ACAD
1000
AcDbSavedByObjectVersion
1070
     0
  0
DICTIONARYVAR
  5
93B
102
{ACAD_REACTORS
330
22B
102
}
330
22B
100
DictionaryVariables
280
     0
  1
1:1
  0
DICTIONARYVAR
  5
938
102
{ACAD_REACTORS
330
22B
102
}
330
22B
100
DictionaryVariables
280
     0
  1
STANDARD
  0
DICTIONARYVAR
  5
937
102
{ACAD_REACTORS
330
22B
102
}
330
22B
100
DictionaryVariables
280
     0
  1
STANDARD
  0
DICTIONARYVAR
  5
939
102
{ACAD_REACTORS
330
22B
102
}
330
22B
100
DictionaryVariables
280
     0
  1
Metric50
  0
DICTIONARYVAR
  5
93A
102
{ACAD_REACTORS
330
22B
102
}
330
22B
100
DictionaryVariables
280
     0
  1
Metric50
  0
DICTIONARYVAR
  5
231
102
{ACAD_REACTORS
330
22B
102
}
330
22B
100
DictionaryVariables
280
     0
  1
2
  0
DICTIONARYVAR
  5
232
102
{ACAD_REACTORS
330
22B
102
}
330
22B
100
DictionaryVariables
280
     0
  1
1
  0
DICTIONARYVAR
  5
93D
102
{ACAD_REACTORS
330
22B
102
}
330
22B
100
DictionaryVariables
280
     0
  1
0
  0
DICTIONARYVAR
  5
93C
102
{ACAD_REACTORS
330
22B
102
}
330
22B
100
DictionaryVariables
280
     0
  1
127
  0
DICTIONARYVAR
  5
ECE
102
{ACAD_REACTORS
330
22B
102
}
330
22B
100
DictionaryVariables
280
     0
  1
2
  0
DICTIONARY
  5
F0F
330
B6D
100
AcDbDictionary
280
     1
281
     1
  3
ACAD_XREC_ROUNDTRIP
360
F10
  0
DICTIONARY
  5
F0B
330
91E
100
AcDbDictionary
280
     1
281
     1
  3
ACAD_XREC_ROUNDTRIP
360
F0C
  0
DICTIONARY
  5
ED2
330
1E
100
AcDbDictionary
280
     1
281
     1
  3
ACAD_XREC_ROUNDTRIP
360
ED3
  0
DICTIONARY
  5
ED6
330
26
100
AcDbDictionary
280
     1
281
     1
  3
ACAD_XREC_ROUNDTRIP
360
ED7
  0
DICTIONARY
  5
ED4
330
22
100
AcDbDictionary
280
     1
281
     1
  3
ACAD_XREC_ROUNDTRIP
360
ED5
  0
DICTIONARY
  5
8F0
330
8EF
100
AcDbDictionary
280
     1
281
     1
  3
ACAD_XREC_ROUNDTRIP
360
D4C
  3
BUMPTILE
360
8F2
  3
DIFFUSETILE
360
8F1
  3
OPACITYTILE
360
8F5
  3
REFLECTIONTILE
360
8F4
  3
REFRACTIONTILE
360
8F6
  3
SPECULARTILE
360
8F3
  0
DICTIONARY
  5
8E8
330
8E7
100
AcDbDictionary
280
     1
281
     1
  3
ACAD_XREC_ROUNDTRIP
360
D4B
  3
BUMPTILE
360
8EA
  3
DIFFUSETILE
360
8E9
  3
OPACITYTILE
360
8ED
  3
REFLECTIONTILE
360
8EC
  3
REFRACTIONTILE
360
8EE
  3
SPECULARTILE
360
8EB
  0
DICTIONARY
  5
8F8
330
8F7
100
AcDbDictionary
280
     1
281
     1
  3
ACAD_XREC_ROUNDTRIP
360
D4D
  3
BUMPTILE
360
8FA
  3
DIFFUSETILE
360
8F9
  3
OPACITYTILE
360
8FD
  3
REFLECTIONTILE
360
8FC
  3
REFRACTIONTILE
360
8FE
  3
SPECULARTILE
360
8FB
  0
DICTIONARY
  5
F0D
330
B6C
100
AcDbDictionary
280
     1
281
     1
  3
ACAD_XREC_ROUNDTRIP
360
F0E
  0
DICTIONARY
  5
F09
330
91D
100
AcDbDictionary
280
     1
281
     1
  3
ACAD_XREC_ROUNDTRIP
360
F0A
  0
DICTIONARY
  5
D41
330
91A
100
AcDbDictionary
280
     1
281
     1
  3
ACAD_ROUNDTRIP_2008_TABLESTYLE_CELLSTYLEMAP
360
ECF
  3
ACAD_XREC_ROUNDTRIP
360
F08
  0
DICTIONARY
  5
EE2
330
905
100
AcDbDictionary
280
     1
281
     1
  3
ACAD_XREC_ROUNDTRIP
360
EE3
  0
DICTIONARY
  5
EE0
330
904
100
AcDbDictionary
280
     1
281
     1
  3
ACAD_XREC_ROUNDTRIP
360
EE1
  0
DICTIONARY
  5
EEE
330
90B
100
AcDbDictionary
280
     1
281
     1
  3
ACAD_XREC_ROUNDTRIP
360
EEF
  0
DICTIONARY
  5
EF6
330
90F
100
AcDbDictionary
280
     1
281
     1
  3
ACAD_XREC_ROUNDTRIP
360
EF7
  0
DICTIONARY
  5
EE8
330
908
100
AcDbDictionary
280
     1
281
     1
  3
ACAD_XREC_ROUNDTRIP
360
EE9
  0
DICTIONARY
  5
EEC
330
90A
100
AcDbDictionary
280
     1
281
     1
  3
ACAD_XREC_ROUNDTRIP
360
EED
  0
DICTIONARY
  5
F06
330
917
100
AcDbDictionary
280
     1
281
     1
  3
ACAD_XREC_ROUNDTRIP
360
F07
  0
DICTIONARY
  5
EF4
330
90E
100
AcDbDictionary
280
     1
281
     1
  3
ACAD_XREC_ROUNDTRIP
360
EF5
  0
DICTIONARY
  5
ED8
330
900
100
AcDbDictionary
280
     1
281
     1
  3
ACAD_XREC_ROUNDTRIP
360
ED9
  0
DICTIONARY
  5
EDA
330
901
100
AcDbDictionary
280
     1
281
     1
  3
ACAD_XREC_ROUNDTRIP
360
EDB
  0
DICTIONARY
  5
EDC
330
902
100
AcDbDictionary
280
     1
281
     1
  3
ACAD_XREC_ROUNDTRIP
360
EDD
  0
DICTIONARY
  5
EDE
330
903
100
AcDbDictionary
280
     1
281
     1
  3
ACAD_XREC_ROUNDTRIP
360
EDF
  0
DICTIONARY
  5
EE6
330
907
100
AcDbDictionary
280
     1
281
     1
  3
ACAD_XREC_ROUNDTRIP
360
EE7
  0
DICTIONARY
  5
F02
330
915
100
AcDbDictionary
280
     1
281
     1
  3
ACAD_XREC_ROUNDTRIP
360
F03
  0
DICTIONARY
  5
EF2
330
90D
100
AcDbDictionary
280
     1
281
     1
  3
ACAD_XREC_ROUNDTRIP
360
EF3
  0
DICTIONARY
  5
F04
330
916
100
AcDbDictionary
280
     1
281
     1
  3
ACAD_XREC_ROUNDTRIP
360
F05
  0
DICTIONARY
  5
EEA
330
909
100
AcDbDictionary
280
     1
281
     1
  3
ACAD_XREC_ROUNDTRIP
360
EEB
  0
DICTIONARY
  5
F00
330
914
100
AcDbDictionary
280
     1
281
     1
  3
ACAD_XREC_ROUNDTRIP
360
F01
  0
DICTIONARY
  5
EFE
330
913
100
AcDbDictionary
280
     1
281
     1
  3
ACAD_XREC_ROUNDTRIP
360
EFF
  0
DICTIONARY
  5
EF8
330
910
100
AcDbDictionary
280
     1
281
     1
  3
ACAD_XREC_ROUNDTRIP
360
EF9
  0
DICTIONARY
  5
EFA
330
911
100
AcDbDictionary
280
     1
281
     1
  3
ACAD_XREC_ROUNDTRIP
360
EFB
  0
DICTIONARY
  5
EF0
330
90C
100
AcDbDictionary
280
     1
281
     1
  3
ACAD_XREC_ROUNDTRIP
360
EF1
  0
DICTIONARY
  5
EE4
330
906
100
AcDbDictionary
280
     1
281
     1
  3
ACAD_XREC_ROUNDTRIP
360
EE5
  0
DICTIONARY
  5
EFC
330
912
100
AcDbDictionary
280
     1
281
     1
  3
ACAD_XREC_ROUNDTRIP
360
EFD
  0
XRECORD
  5
F10
102
{ACAD_REACTORS
330
F0F
102
}
330
F0F
100
AcDbXrecord
280
     1
102
DISPLAYNAME
  1
Imperial24
102
FLAGS
 90
        0
  0
XRECORD
  5
F0C
102
{ACAD_REACTORS
330
F0B
102
}
330
F0B
100
AcDbXrecord
280
     1
102
DISPLAYNAME
  1
Metric50
102
FLAGS
 90
        0
  0
XRECORD
  5
ED3
102
{ACAD_REACTORS
330
ED2
102
}
330
ED2
100
AcDbXrecord
280
     1
102
SHADEPLOT
 70
     0
102
SHADEPLOTRESLEVEL
 70
     2
102
SHADEPLOTCUSTOMDPI
 70
   300
  0
XRECORD
  5
ED7
102
{ACAD_REACTORS
330
ED6
102
}
330
ED6
100
AcDbXrecord
280
     1
102
SHADEPLOT
 70
     0
102
SHADEPLOTRESLEVEL
 70
     2
102
SHADEPLOTCUSTOMDPI
 70
   300
  0
XRECORD
  5
ED5
102
{ACAD_REACTORS
330
ED4
102
}
330
ED4
100
AcDbXrecord
280
     1
102
SHADEPLOT
 70
     0
102
SHADEPLOTRESLEVEL
 70
     2
102
SHADEPLOTCUSTOMDPI
 70
   300
  0
XRECORD
  5
D4C
102
{ACAD_REACTORS
330
8F0
102
}
330
8F0
100
AcDbXrecord
280
     1
102
MATERIAL
148
0.0
149
0.0
149
0.0
 93
        0
 94
      127
282
     0
 72
     0
 77
     0
171
     0
175
     0
179
     0
273
     0
  0
XRECORD
  5
8F2
102
{ACAD_REACTORS
330
8F0
102
}
330
8F0
100
AcDbXrecord
280
     1
270
     1
271
     1
  0
XRECORD
  5
8F1
102
{ACAD_REACTORS
330
8F0
102
}
330
8F0
100
AcDbXrecord
280
     1
270
     1
271
     1
  0
XRECORD
  5
8F5
102
{ACAD_REACTORS
330
8F0
102
}
330
8F0
100
AcDbXrecord
280
     1
270
     1
271
     1
  0
XRECORD
  5
8F4
102
{ACAD_REACTORS
330
8F0
102
}
330
8F0
100
AcDbXrecord
280
     1
270
     1
271
     1
  0
XRECORD
  5
8F6
102
{ACAD_REACTORS
330
8F0
102
}
330
8F0
100
AcDbXrecord
280
     1
270
     1
271
     1
  0
XRECORD
  5
8F3
102
{ACAD_REACTORS
330
8F0
102
}
330
8F0
100
AcDbXrecord
280
     1
270
     1
271
     1
  0
XRECORD
  5
D4B
102
{ACAD_REACTORS
330
8E8
102
}
330
8E8
100
AcDbXrecord
280
     1
102
MATERIAL
148
0.0
149
0.0
149
0.0
 93
        0
 94
      127
282
     0
 72
     0
 77
     0
171
     0
175
     0
179
     0
273
     0
  0
XRECORD
  5
8EA
102
{ACAD_REACTORS
330
8E8
102
}
330
8E8
100
AcDbXrecord
280
     1
270
     1
271
     1
  0
XRECORD
  5
8E9
102
{ACAD_REACTORS
330
8E8
102
}
330
8E8
100
AcDbXrecord
280
     1
270
     1
271
     1
  0
XRECORD
  5
8ED
102
{ACAD_REACTORS
330
8E8
102
}
330
8E8
100
AcDbXrecord
280
     1
270
     1
271
     1
  0
XRECORD
  5
8EC
102
{ACAD_REACTORS
330
8E8
102
}
330
8E8
100
AcDbXrecord
280
     1
270
     1
271
     1
  0
XRECORD
  5
8EE
102
{ACAD_REACTORS
330
8E8
102
}
330
8E8
100
AcDbXrecord
280
     1
270
     1
271
     1
  0
XRECORD
  5
8EB
102
{ACAD_REACTORS
330
8E8
102
}
330
8E8
100
AcDbXrecord
280
     1
270
     1
271
     1
  0
XRECORD
  5
D4D
102
{ACAD_REACTORS
330
8F8
102
}
330
8F8
100
AcDbXrecord
280
     1
102
MATERIAL
148
0.0
149
0.0
149
0.0
 93
        0
 94
      127
282
     0
 72
     0
 77
     0
171
     0
175
     0
179
     0
273
     0
  0
XRECORD
  5
8FA
102
{ACAD_REACTORS
330
8F8
102
}
330
8F8
100
AcDbXrecord
280
     1
270
     1
271
     1
  0
XRECORD
  5
8F9
102
{ACAD_REACTORS
330
8F8
102
}
330
8F8
100
AcDbXrecord
280
     1
270
     1
271
     1
  0
XRECORD
  5
8FD
102
{ACAD_REACTORS
330
8F8
102
}
330
8F8
100
AcDbXrecord
280
     1
270
     1
271
     1
  0
XRECORD
  5
8FC
102
{ACAD_REACTORS
330
8F8
102
}
330
8F8
100
AcDbXrecord
280
     1
270
     1
271
     1
  0
XRECORD
  5
8FE
102
{ACAD_REACTORS
330
8F8
102
}
330
8F8
100
AcDbXrecord
280
     1
270
     1
271
     1
  0
XRECORD
  5
8FB
102
{ACAD_REACTORS
330
8F8
102
}
330
8F8
100
AcDbXrecord
280
     1
270
     1
271
     1
  0
XRECORD
  5
F0E
102
{ACAD_REACTORS
330
F0D
102
}
330
F0D
100
AcDbXrecord
280
     1
102
DISPLAYNAME
  1
Imperial24
102
FLAGS
 90
        0
  0
XRECORD
  5
F0A
102
{ACAD_REACTORS
330
F09
102
}
330
F09
100
AcDbXrecord
280
     1
102
DISPLAYNAME
  1
Metric50
102
FLAGS
 90
        0
  0
CELLSTYLEMAP
  5
ECF
102
{ACAD_REACTORS
330
D41
102
}
330
D41
100
AcDbCellStyleMap
 90
        3
300
CELLSTYLE
  1
TABLEFORMAT_BEGIN
 90
        5
170
     1
 91
        0
 92
    32768
 62
   257
 93
        1
300
CONTENTFORMAT
  1
CONTENTFORMAT_BEGIN
 90
        0
 91
        0
 92
      512
 93
        0
300

 40
0.0
140
1.0
 94
        5
 62
     0
340
11
144
6.0
309
CONTENTFORMAT_END
171
     1
301
MARGIN
  1
CELLMARGIN_BEGIN
 40
1.5
 40
1.5
 40
1.5
 40
1.5
 40
0.18
 40
0.18
309
CELLMARGIN_END
 94
        6
 95
        1
302
GRIDFORMAT
  1
GRIDFORMAT_BEGIN
 90
        0
 91
        1
 62
     0
 92
       -2
340
0
 93
        0
 40
1.125
309
GRIDFORMAT_END
 95
        2
302
GRIDFORMAT
  1
GRIDFORMAT_BEGIN
 90
        0
 91
        1
 62
     0
 92
       -2
340
0
 93
        0
 40
1.125
309
GRIDFORMAT_END
 95
        4
302
GRIDFORMAT
  1
GRIDFORMAT_BEGIN
 90
        0
 91
        1
 62
     0
 92
       -2
340
0
 93
        0
 40
1.125
309
GRIDFORMAT_END
 95
        8
302
GRIDFORMAT
  1
GRIDFORMAT_BEGIN
 90
        0
 91
        1
 62
     0
 92
       -2
340
0
 93
        0
 40
1.125
309
GRIDFORMAT_END
 95
       16
302
GRIDFORMAT
  1
GRIDFORMAT_BEGIN
 90
        0
 91
        1
 62
     0
 92
       -2
340
0
 93
        0
 40
1.125
309
GRIDFORMAT_END
 95
       32
302
GRIDFORMAT
  1
GRIDFORMAT_BEGIN
 90
        0
 91
        1
 62
     0
 92
       -2
340
0
 93
        0
 40
1.125
309
GRIDFORMAT_END
309
TABLEFORMAT_END
  1
CELLSTYLE_BEGIN
 90
        1
 91
        1
300
_TITLE
309
CELLSTYLE_END
300
CELLSTYLE
  1
TABLEFORMAT_BEGIN
 90
        5
170
     1
 91
        0
 92
        0
 62
   257
 93
        1
300
CONTENTFORMAT
  1
CONTENTFORMAT_BEGIN
 90
        0
 91
        0
 92
      512
 93
        0
300

 40
0.0
140
1.0
 94
        5
 62
     0
340
11
144
4.5
309
CONTENTFORMAT_END
171
     1
301
MARGIN
  1
CELLMARGIN_BEGIN
 40
1.5
 40
1.5
 40
1.5
 40
1.5
 40
0.18
 40
0.18
309
CELLMARGIN_END
 94
        6
 95
        1
302
GRIDFORMAT
  1
GRIDFORMAT_BEGIN
 90
        0
 91
        1
 62
     0
 92
       -2
340
0
 93
        0
 40
1.125
309
GRIDFORMAT_END
 95
        2
302
GRIDFORMAT
  1
GRIDFORMAT_BEGIN
 90
        0
 91
        1
 62
     0
 92
       -2
340
0
 93
        0
 40
1.125
309
GRIDFORMAT_END
 95
        4
302
GRIDFORMAT
  1
GRIDFORMAT_BEGIN
 90
        0
 91
        1
 62
     0
 92
       -2
340
0
 93
        0
 40
1.125
309
GRIDFORMAT_END
 95
        8
302
GRIDFORMAT
  1
GRIDFORMAT_BEGIN
 90
        0
 91
        1
 62
     0
 92
       -2
340
0
 93
        0
 40
1.125
309
GRIDFORMAT_END
 95
       16
302
GRIDFORMAT
  1
GRIDFORMAT_BEGIN
 90
        0
 91
        1
 62
     0
 92
       -2
340
0
 93
        0
 40
1.125
309
GRIDFORMAT_END
 95
       32
302
GRIDFORMAT
  1
GRIDFORMAT_BEGIN
 90
        0
 91
        1
 62
     0
 92
       -2
340
0
 93
        0
 40
1.125
309
GRIDFORMAT_END
309
TABLEFORMAT_END
  1
CELLSTYLE_BEGIN
 90
        2
 91
        1
300
_HEADER
309
CELLSTYLE_END
300
CELLSTYLE
  1
TABLEFORMAT_BEGIN
 90
        5
170
     1
 91
        0
 92
        0
 62
   257
 93
        1
300
CONTENTFORMAT
  1
CONTENTFORMAT_BEGIN
 90
        0
 91
        0
 92
      512
 93
        0
300

 40
0.0
140
1.0
 94
        2
 62
     0
340
11
144
4.5
309
CONTENTFORMAT_END
171
     1
301
MARGIN
  1
CELLMARGIN_BEGIN
 40
1.5
 40
1.5
 40
1.5
 40
1.5
 40
0.18
 40
0.18
309
CELLMARGIN_END
 94
        6
 95
        1
302
GRIDFORMAT
  1
GRIDFORMAT_BEGIN
 90
        0
 91
        1
 62
     0
 92
       -2
340
0
 93
        0
 40
1.125
309
GRIDFORMAT_END
 95
        2
302
GRIDFORMAT
  1
GRIDFORMAT_BEGIN
 90
        0
 91
        1
 62
     0
 92
       -2
340
0
 93
        0
 40
1.125
309
GRIDFORMAT_END
 95
        4
302
GRIDFORMAT
  1
GRIDFORMAT_BEGIN
 90
        0
 91
        1
 62
     0
 92
       -2
340
0
 93
        0
 40
1.125
309
GRIDFORMAT_END
 95
        8
302
GRIDFORMAT
  1
GRIDFORMAT_BEGIN
 90
        0
 91
        1
 62
     0
 92
       -2
340
0
 93
        0
 40
1.125
309
GRIDFORMAT_END
 95
       16
302
GRIDFORMAT
  1
GRIDFORMAT_BEGIN
 90
        0
 91
        1
 62
     0
 92
       -2
340
0
 93
        0
 40
1.125
309
GRIDFORMAT_END
 95
       32
302
GRIDFORMAT
  1
GRIDFORMAT_BEGIN
 90
        0
 91
        1
 62
     0
 92
       -2
340
0
 93
        0
 40
1.125
309
GRIDFORMAT_END
309
TABLEFORMAT_END
  1
CELLSTYLE_BEGIN
 90
        3
 91
        2
300
_DATA
309
CELLSTYLE_END
  0
XRECORD
  5
F08
102
{ACAD_REACTORS
330
D41
102
}
330
D41
100
AcDbXrecord
280
     1
102
ACAD_ROUNDTRIP_PRE2007_TABLESTYLE
 90
      512
 91
        0
  1

 92
      512
 93
        0
  2

 94
      512
 95
        0
  3

  0
XRECORD
  5
EE3
102
{ACAD_REACTORS
330
EE2
102
}
330
EE2
100
AcDbXrecord
280
     1
102
RTVSPost2010Prop28
280
     1
102
RTVSPost2010PropOp28
 70
     1
102
RTVSPost2010Prop29
280
     1
102
RTVSPost2010PropOp29
 70
     1
102
RTVSPost2010Prop30
280
     0
102
RTVSPost2010PropOp30
 70
     1
102
RTVSPost2010Prop31
280
     0
102
RTVSPost2010PropOp31
 70
     1
102
RTVSPost2010Prop32
280
     0
102
RTVSPost2010PropOp32
 70
     1
102
RTVSPost2010Prop33
280
     0
102
RTVSPost2010PropOp33
 70
     1
102
RTVSPost2010Prop34
280
     0
102
RTVSPost2010PropOp34
 70
     1
102
RTVSPost2010Prop35
280
     0
102
RTVSPost2010PropOp35
 70
     1
102
RTVSPost2010Prop36
280
     0
102
RTVSPost2010PropOp36
 70
     1
102
RTVSPost2010Prop37
 90
       50
102
RTVSPost2010PropOp37
 70
     1
102
RTVSPost2010Prop38
140
0.0
102
RTVSPost2010PropOp38
 70
     1
102
RTVSPost2010Prop39
140
1.0
102
RTVSPost2010PropOp39
 70
     1
102
RTVSPost2010Prop40
 90
        0
102
RTVSPost2010PropOp40
 70
     1
102
RTVSPost2010Prop41ColorIndex
 90
       18
102
RTVSPost2010Prop41ColorRGB
 90
        0
102
RTVSPost2010PropOp41
 70
     1
102
RTVSPost2010Prop42
 90
       50
102
RTVSPost2010PropOp42
 70
     1
102
RTVSPost2010Prop43
 90
        3
102
RTVSPost2010PropOp43
 70
     1
102
RTVSPost2010Prop44ColorIndex
 90
        5
102
RTVSPost2010Prop44ColorRGB
 90
      255
102
RTVSPost2010PropOp44
 70
     1
102
RTVSPost2010Prop45
280
     0
102
RTVSPost2010PropOp45
 70
     1
102
RTVSPost2010Prop46
 90
       50
102
RTVSPost2010PropOp46
 70
     1
102
RTVSPost2010Prop47
 90
       50
102
RTVSPost2010PropOp47
 70
     1
102
RTVSPost2010Prop48
 90
       50
102
RTVSPost2010PropOp48
 70
     1
102
RTVSPost2010Prop49
280
     0
102
RTVSPost2010PropOp49
 70
     1
102
RTVSPost2010Prop50
 90
       50
102
RTVSPost2010PropOp50
 70
     1
102
RTVSPost2010Prop51ColorIndex
 90
      256
102
RTVSPost2010Prop51ColorRGB
 90
-16777216
102
RTVSPost2010PropOp51
 70
     0
102
RTVSPost2010Prop52
140
1.0
102
RTVSPost2010PropOp52
 70
     0
102
RTVSPost2010Prop53
 90
        2
102
RTVSPost2010PropOp53
 70
     1
102
RTVSPost2010Prop54
  1
strokes_ogs.tif
102
RTVSPost2010PropOp54
 70
     1
102
RTVSPost2010Prop55
280
     0
102
RTVSPost2010PropOp55
 70
     1
102
RTVSPost2010Prop56
140
1.0
102
RTVSPost2010PropOp56
 70
     1
102
RTVSPost2010Prop57
140
1.0
102
RTVSPost2010PropOp57
 70
     1
102
RTVSPropertyOp0
 70
     1
102
RTVSPropertyOp1
 70
     1
102
RTVSPropertyOp2
 70
     1
102
RTVSPropertyOp3
 70
     1
102
RTVSPropertyOp4
 70
     1
102
RTVSPropertyOp5
 70
     1
102
RTVSPropertyOp6
 70
     1
102
RTVSPropertyOp7
 70
     1
102
RTVSPropertyOp8
 70
     1
102
RTVSPropertyOp9
 70
     1
102
RTVSPropertyOp10
 70
     1
102
RTVSPropertyOp11
 70
     1
102
RTVSPropertyOp12
 70
     1
102
RTVSPropertyOp13
 70
     1
102
RTVSPropertyOp14
 70
     1
102
RTVSPropertyOp15
 70
     1
102
RTVSPropertyOp16
 70
     1
102
RTVSPropertyOp17
 70
     1
102
RTVSPropertyOp18
 70
     1
102
RTVSPropertyOp19
 70
     1
102
RTVSPropertyOp20
 70
     1
102
RTVSPropertyOp21
 70
     1
102
RTVSPropertyOp22
 70
     1
102
RTVSPropertyOp23
 70
     1
102
RTVSPropertyOp24
 70
     1
102
RTVSPropertyOp25
 70
     1
102
RTVSPropertyOp26
 70
     1
102
RTVSPropertyOp27
 70
     1
102
RTVSPropertyOp28
 70
     1
102
RTVSPropertyOp29
 70
     1
102
RTVSPropertyOp30
 70
     1
102
RTVSPropertyOp31
 70
     1
102
RTVSPropertyOp32
 70
     1
102
RTVSPropertyOp33
 70
     1
102
RTVSPropertyOp34
 70
     1
102
RTVSPropertyOp35
 70
     1
102
RTVSPropertyOp36
 70
     1
102
RTVSPropertyOp37
 70
     1
102
RTVSPropertyOp38
 70
     1
102
RTVSPropertyOp39
 70
     1
102
RTVSPropertyOp40
 70
     1
102
RTVSPropertyOp41
 70
     1
102
RTVSPropertyOp42
 70
     1
102
RTVSPropertyOp43
 70
     1
102
RTVSPropertyOp44
 70
     1
102
RTVSPropertyOp45
 70
     1
102
RTVSPropertyOp46
 70
     1
102
RTVSPropertyOp47
 70
     1
102
RTVSPropertyOp48
 70
     1
102
RTVSPropertyOp49
 70
     1
102
RTVSPropertyOp50
 70
     1
102
RTVSPropertyOp51
 70
     0
102
RTVSPropertyOp52
 70
     0
102
RTVSPropertyOp53
 70
     1
102
RTVSPropertyOp54
 70
     1
102
RTVSPropertyOp55
 70
     1
102
RTVSPropertyOp56
 70
     1
102
RTVSPropertyOp57
 70
     1
102
RTVSPropertyOp58
 70
     1
102
RTVSPropertyOp59
 70
     1
102
RTVSPropertyOp60
 70
     1
102
RTVSPropertyOp61
 70
     1
102
RTVSPropertyOp62
 70
     1
  0
XRECORD
  5
EE1
102
{ACAD_REACTORS
330
EE0
102
}
330
EE0
100
AcDbXrecord
280
     1
102
RTVSPost2010Prop28
280
     0
102
RTVSPost2010PropOp28
 70
     1
102
RTVSPost2010Prop29
280
     1
102
RTVSPost2010PropOp29
 70
     1
102
RTVSPost2010Prop30
280
     1
102
RTVSPost2010PropOp30
 70
     1
102
RTVSPost2010Prop31
280
     0
102
RTVSPost2010PropOp31
 70
     1
102
RTVSPost2010Prop32
280
     0
102
RTVSPost2010PropOp32
 70
     1
102
RTVSPost2010Prop33
280
     0
102
RTVSPost2010PropOp33
 70
     1
102
RTVSPost2010Prop34
280
     0
102
RTVSPost2010PropOp34
 70
     1
102
RTVSPost2010Prop35
280
     0
102
RTVSPost2010PropOp35
 70
     1
102
RTVSPost2010Prop36
280
     0
102
RTVSPost2010PropOp36
 70
     1
102
RTVSPost2010Prop37
 90
       50
102
RTVSPost2010PropOp37
 70
     1
102
RTVSPost2010Prop38
140
0.0
102
RTVSPost2010PropOp38
 70
     1
102
RTVSPost2010Prop39
140
1.0
102
RTVSPost2010PropOp39
 70
     1
102
RTVSPost2010Prop40
 90
        0
102
RTVSPost2010PropOp40
 70
     1
102
RTVSPost2010Prop41ColorIndex
 90
       18
102
RTVSPost2010Prop41ColorRGB
 90
        0
102
RTVSPost2010PropOp41
 70
     1
102
RTVSPost2010Prop42
 90
       50
102
RTVSPost2010PropOp42
 70
     1
102
RTVSPost2010Prop43
 90
        3
102
RTVSPost2010PropOp43
 70
     1
102
RTVSPost2010Prop44ColorIndex
 90
        5
102
RTVSPost2010Prop44ColorRGB
 90
      255
102
RTVSPost2010PropOp44
 70
     1
102
RTVSPost2010Prop45
280
     0
102
RTVSPost2010PropOp45
 70
     1
102
RTVSPost2010Prop46
 90
       50
102
RTVSPost2010PropOp46
 70
     1
102
RTVSPost2010Prop47
 90
       50
102
RTVSPost2010PropOp47
 70
     1
102
RTVSPost2010Prop48
 90
       50
102
RTVSPost2010PropOp48
 70
     1
102
RTVSPost2010Prop49
280
     0
102
RTVSPost2010PropOp49
 70
     1
102
RTVSPost2010Prop50
 90
       50
102
RTVSPost2010PropOp50
 70
     1
102
RTVSPost2010Prop51ColorIndex
 90
      256
102
RTVSPost2010Prop51ColorRGB
 90
-16777216
102
RTVSPost2010PropOp51
 70
     0
102
RTVSPost2010Prop52
140
1.0
102
RTVSPost2010PropOp52
 70
     0
102
RTVSPost2010Prop53
 90
        2
102
RTVSPost2010PropOp53
 70
     1
102
RTVSPost2010Prop54
  1
strokes_ogs.tif
102
RTVSPost2010PropOp54
 70
     1
102
RTVSPost2010Prop55
280
     0
102
RTVSPost2010PropOp55
 70
     1
102
RTVSPost2010Prop56
140
1.0
102
RTVSPost2010PropOp56
 70
     1
102
RTVSPost2010Prop57
140
1.0
102
RTVSPost2010PropOp57
 70
     1
102
RTVSPropertyOp0
 70
     1
102
RTVSPropertyOp1
 70
     1
102
RTVSPropertyOp2
 70
     1
102
RTVSPropertyOp3
 70
     1
102
RTVSPropertyOp4
 70
     1
102
RTVSPropertyOp5
 70
     1
102
RTVSPropertyOp6
 70
     1
102
RTVSPropertyOp7
 70
     1
102
RTVSPropertyOp8
 70
     1
102
RTVSPropertyOp9
 70
     1
102
RTVSPropertyOp10
 70
     1
102
RTVSPropertyOp11
 70
     1
102
RTVSPropertyOp12
 70
     1
102
RTVSPropertyOp13
 70
     1
102
RTVSPropertyOp14
 70
     1
102
RTVSPropertyOp15
 70
     1
102
RTVSPropertyOp16
 70
     1
102
RTVSPropertyOp17
 70
     1
102
RTVSPropertyOp18
 70
     1
102
RTVSPropertyOp19
 70
     1
102
RTVSPropertyOp20
 70
     1
102
RTVSPropertyOp21
 70
     1
102
RTVSPropertyOp22
 70
     1
102
RTVSPropertyOp23
 70
     1
102
RTVSPropertyOp24
 70
     1
102
RTVSPropertyOp25
 70
     1
102
RTVSPropertyOp26
 70
     1
102
RTVSPropertyOp27
 70
     1
102
RTVSPropertyOp28
 70
     1
102
RTVSPropertyOp29
 70
     1
102
RTVSPropertyOp30
 70
     1
102
RTVSPropertyOp31
 70
     1
102
RTVSPropertyOp32
 70
     1
102
RTVSPropertyOp33
 70
     1
102
RTVSPropertyOp34
 70
     1
102
RTVSPropertyOp35
 70
     1
102
RTVSPropertyOp36
 70
     1
102
RTVSPropertyOp37
 70
     1
102
RTVSPropertyOp38
 70
     1
102
RTVSPropertyOp39
 70
     1
102
RTVSPropertyOp40
 70
     1
102
RTVSPropertyOp41
 70
     1
102
RTVSPropertyOp42
 70
     1
102
RTVSPropertyOp43
 70
     1
102
RTVSPropertyOp44
 70
     1
102
RTVSPropertyOp45
 70
     1
102
RTVSPropertyOp46
 70
     1
102
RTVSPropertyOp47
 70
     1
102
RTVSPropertyOp48
 70
     1
102
RTVSPropertyOp49
 70
     1
102
RTVSPropertyOp50
 70
     1
102
RTVSPropertyOp51
 70
     0
102
RTVSPropertyOp52
 70
     0
102
RTVSPropertyOp53
 70
     1
102
RTVSPropertyOp54
 70
     1
102
RTVSPropertyOp55
 70
     1
102
RTVSPropertyOp56
 70
     1
102
RTVSPropertyOp57
 70
     1
102
RTVSPropertyOp58
 70
     1
102
RTVSPropertyOp59
 70
     1
102
RTVSPropertyOp60
 70
     1
102
RTVSPropertyOp61
 70
     1
102
RTVSPropertyOp62
 70
     1
  0
XRECORD
  5
EEF
102
{ACAD_REACTORS
330
EEE
102
}
330
EEE
100
AcDbXrecord
280
     1
102
RTVSPost2010Prop28
280
     0
102
RTVSPost2010PropOp28
 70
     1
102
RTVSPost2010Prop29
280
     1
102
RTVSPost2010PropOp29
 70
     1
102
RTVSPost2010Prop30
280
     1
102
RTVSPost2010PropOp30
 70
     1
102
RTVSPost2010Prop31
280
     0
102
RTVSPost2010PropOp31
 70
     1
102
RTVSPost2010Prop32
280
     0
102
RTVSPost2010PropOp32
 70
     1
102
RTVSPost2010Prop33
280
     0
102
RTVSPost2010PropOp33
 70
     1
102
RTVSPost2010Prop34
280
     0
102
RTVSPost2010PropOp34
 70
     1
102
RTVSPost2010Prop35
280
     0
102
RTVSPost2010PropOp35
 70
     1
102
RTVSPost2010Prop36
280
     0
102
RTVSPost2010PropOp36
 70
     1
102
RTVSPost2010Prop37
 90
       50
102
RTVSPost2010PropOp37
 70
     1
102
RTVSPost2010Prop38
140
0.0
102
RTVSPost2010PropOp38
 70
     1
102
RTVSPost2010Prop39
140
1.0
102
RTVSPost2010PropOp39
 70
     1
102
RTVSPost2010Prop40
 90
        0
102
RTVSPost2010PropOp40
 70
     1
102
RTVSPost2010Prop41ColorIndex
 90
       18
102
RTVSPost2010Prop41ColorRGB
 90
        0
102
RTVSPost2010PropOp41
 70
     1
102
RTVSPost2010Prop42
 90
       50
102
RTVSPost2010PropOp42
 70
     1
102
RTVSPost2010Prop43
 90
        3
102
RTVSPost2010PropOp43
 70
     1
102
RTVSPost2010Prop44ColorIndex
 90
        5
102
RTVSPost2010Prop44ColorRGB
 90
      255
102
RTVSPost2010PropOp44
 70
     1
102
RTVSPost2010Prop45
280
     0
102
RTVSPost2010PropOp45
 70
     1
102
RTVSPost2010Prop46
 90
       50
102
RTVSPost2010PropOp46
 70
     1
102
RTVSPost2010Prop47
 90
       50
102
RTVSPost2010PropOp47
 70
     1
102
RTVSPost2010Prop48
 90
       50
102
RTVSPost2010PropOp48
 70
     1
102
RTVSPost2010Prop49
280
     0
102
RTVSPost2010PropOp49
 70
     1
102
RTVSPost2010Prop50
 90
       50
102
RTVSPost2010PropOp50
 70
     1
102
RTVSPost2010Prop51ColorIndex
 90
      256
102
RTVSPost2010Prop51ColorRGB
 90
-16777216
102
RTVSPost2010PropOp51
 70
     0
102
RTVSPost2010Prop52
140
1.0
102
RTVSPost2010PropOp52
 70
     0
102
RTVSPost2010Prop53
 90
        2
102
RTVSPost2010PropOp53
 70
     1
102
RTVSPost2010Prop54
  1
strokes_ogs.tif
102
RTVSPost2010PropOp54
 70
     1
102
RTVSPost2010Prop55
280
     0
102
RTVSPost2010PropOp55
 70
     1
102
RTVSPost2010Prop56
140
1.0
102
RTVSPost2010PropOp56
 70
     1
102
RTVSPost2010Prop57
140
1.0
102
RTVSPost2010PropOp57
 70
     1
102
RTVSPropertyOp0
 70
     1
102
RTVSPropertyOp1
 70
     1
102
RTVSPropertyOp2
 70
     1
102
RTVSPropertyOp3
 70
     1
102
RTVSPropertyOp4
 70
     1
102
RTVSPropertyOp5
 70
     1
102
RTVSPropertyOp6
 70
     1
102
RTVSPropertyOp7
 70
     1
102
RTVSPropertyOp8
 70
     1
102
RTVSPropertyOp9
 70
     1
102
RTVSPropertyOp10
 70
     1
102
RTVSPropertyOp11
 70
     1
102
RTVSPropertyOp12
 70
     1
102
RTVSPropertyOp13
 70
     1
102
RTVSPropertyOp14
 70
     1
102
RTVSPropertyOp15
 70
     1
102
RTVSPropertyOp16
 70
     1
102
RTVSPropertyOp17
 70
     1
102
RTVSPropertyOp18
 70
     1
102
RTVSPropertyOp19
 70
     1
102
RTVSPropertyOp20
 70
     1
102
RTVSPropertyOp21
 70
     1
102
RTVSPropertyOp22
 70
     1
102
RTVSPropertyOp23
 70
     1
102
RTVSPropertyOp24
 70
     1
102
RTVSPropertyOp25
 70
     1
102
RTVSPropertyOp26
 70
     1
102
RTVSPropertyOp27
 70
     1
102
RTVSPropertyOp28
 70
     1
102
RTVSPropertyOp29
 70
     1
102
RTVSPropertyOp30
 70
     1
102
RTVSPropertyOp31
 70
     1
102
RTVSPropertyOp32
 70
     1
102
RTVSPropertyOp33
 70
     1
102
RTVSPropertyOp34
 70
     1
102
RTVSPropertyOp35
 70
     1
102
RTVSPropertyOp36
 70
     1
102
RTVSPropertyOp37
 70
     1
102
RTVSPropertyOp38
 70
     1
102
RTVSPropertyOp39
 70
     1
102
RTVSPropertyOp40
 70
     1
102
RTVSPropertyOp41
 70
     1
102
RTVSPropertyOp42
 70
     1
102
RTVSPropertyOp43
 70
     1
102
RTVSPropertyOp44
 70
     1
102
RTVSPropertyOp45
 70
     1
102
RTVSPropertyOp46
 70
     1
102
RTVSPropertyOp47
 70
     1
102
RTVSPropertyOp48
 70
     1
102
RTVSPropertyOp49
 70
     1
102
RTVSPropertyOp50
 70
     1
102
RTVSPropertyOp51
 70
     0
102
RTVSPropertyOp52
 70
     0
102
RTVSPropertyOp53
 70
     1
102
RTVSPropertyOp54
 70
     1
102
RTVSPropertyOp55
 70
     1
102
RTVSPropertyOp56
 70
     1
102
RTVSPropertyOp57
 70
     1
102
RTVSPropertyOp58
 70
     1
102
RTVSPropertyOp59
 70
     1
102
RTVSPropertyOp60
 70
     1
102
RTVSPropertyOp61
 70
     1
102
RTVSPropertyOp62
 70
     1
  0
XRECORD
  5
EF7
102
{ACAD_REACTORS
330
EF6
102
}
330
EF6
100
AcDbXrecord
280
     1
102
RTVSPost2010Prop28
280
     0
102
RTVSPost2010PropOp28
 70
     1
102
RTVSPost2010Prop29
280
     1
102
RTVSPost2010PropOp29
 70
     1
102
RTVSPost2010Prop30
280
     1
102
RTVSPost2010PropOp30
 70
     1
102
RTVSPost2010Prop31
280
     0
102
RTVSPost2010PropOp31
 70
     1
102
RTVSPost2010Prop32
280
     0
102
RTVSPost2010PropOp32
 70
     1
102
RTVSPost2010Prop33
280
     0
102
RTVSPost2010PropOp33
 70
     1
102
RTVSPost2010Prop34
280
     0
102
RTVSPost2010PropOp34
 70
     1
102
RTVSPost2010Prop35
280
     0
102
RTVSPost2010PropOp35
 70
     1
102
RTVSPost2010Prop36
280
     0
102
RTVSPost2010PropOp36
 70
     1
102
RTVSPost2010Prop37
 90
       50
102
RTVSPost2010PropOp37
 70
     1
102
RTVSPost2010Prop38
140
0.0
102
RTVSPost2010PropOp38
 70
     1
102
RTVSPost2010Prop39
140
1.0
102
RTVSPost2010PropOp39
 70
     1
102
RTVSPost2010Prop40
 90
        0
102
RTVSPost2010PropOp40
 70
     1
102
RTVSPost2010Prop41ColorIndex
 90
       18
102
RTVSPost2010Prop41ColorRGB
 90
        0
102
RTVSPost2010PropOp41
 70
     1
102
RTVSPost2010Prop42
 90
       50
102
RTVSPost2010PropOp42
 70
     1
102
RTVSPost2010Prop43
 90
        3
102
RTVSPost2010PropOp43
 70
     1
102
RTVSPost2010Prop44ColorIndex
 90
        5
102
RTVSPost2010Prop44ColorRGB
 90
      255
102
RTVSPost2010PropOp44
 70
     1
102
RTVSPost2010Prop45
280
     0
102
RTVSPost2010PropOp45
 70
     1
102
RTVSPost2010Prop46
 90
       50
102
RTVSPost2010PropOp46
 70
     1
102
RTVSPost2010Prop47
 90
       50
102
RTVSPost2010PropOp47
 70
     1
102
RTVSPost2010Prop48
 90
       50
102
RTVSPost2010PropOp48
 70
     1
102
RTVSPost2010Prop49
280
     0
102
RTVSPost2010PropOp49
 70
     1
102
RTVSPost2010Prop50
 90
       50
102
RTVSPost2010PropOp50
 70
     1
102
RTVSPost2010Prop51ColorIndex
 90
      256
102
RTVSPost2010Prop51ColorRGB
 90
-16777216
102
RTVSPost2010PropOp51
 70
     0
102
RTVSPost2010Prop52
140
1.0
102
RTVSPost2010PropOp52
 70
     0
102
RTVSPost2010Prop53
 90
        2
102
RTVSPost2010PropOp53
 70
     1
102
RTVSPost2010Prop54
  1
strokes_ogs.tif
102
RTVSPost2010PropOp54
 70
     1
102
RTVSPost2010Prop55
280
     0
102
RTVSPost2010PropOp55
 70
     1
102
RTVSPost2010Prop56
140
1.0
102
RTVSPost2010PropOp56
 70
     1
102
RTVSPost2010Prop57
140
1.0
102
RTVSPost2010PropOp57
 70
     1
102
RTVSPropertyOp0
 70
     1
102
RTVSPropertyOp1
 70
     1
102
RTVSPropertyOp2
 70
     1
102
RTVSPropertyOp3
 70
     1
102
RTVSPropertyOp4
 70
     1
102
RTVSPropertyOp5
 70
     1
102
RTVSPropertyOp6
 70
     1
102
RTVSPropertyOp7
 70
     1
102
RTVSPropertyOp8
 70
     1
102
RTVSPropertyOp9
 70
     1
102
RTVSPropertyOp10
 70
     1
102
RTVSPropertyOp11
 70
     1
102
RTVSPropertyOp12
 70
     1
102
RTVSPropertyOp13
 70
     1
102
RTVSPropertyOp14
 70
     1
102
RTVSPropertyOp15
 70
     1
102
RTVSPropertyOp16
 70
     1
102
RTVSPropertyOp17
 70
     1
102
RTVSPropertyOp18
 70
     1
102
RTVSPropertyOp19
 70
     1
102
RTVSPropertyOp20
 70
     1
102
RTVSPropertyOp21
 70
     1
102
RTVSPropertyOp22
 70
     1
102
RTVSPropertyOp23
 70
     1
102
RTVSPropertyOp24
 70
     1
102
RTVSPropertyOp25
 70
     1
102
RTVSPropertyOp26
 70
     1
102
RTVSPropertyOp27
 70
     1
102
RTVSPropertyOp28
 70
     1
102
RTVSPropertyOp29
 70
     1
102
RTVSPropertyOp30
 70
     1
102
RTVSPropertyOp31
 70
     1
102
RTVSPropertyOp32
 70
     1
102
RTVSPropertyOp33
 70
     1
102
RTVSPropertyOp34
 70
     1
102
RTVSPropertyOp35
 70
     1
102
RTVSPropertyOp36
 70
     1
102
RTVSPropertyOp37
 70
     1
102
RTVSPropertyOp38
 70
     1
102
RTVSPropertyOp39
 70
     1
102
RTVSPropertyOp40
 70
     1
102
RTVSPropertyOp41
 70
     1
102
RTVSPropertyOp42
 70
     1
102
RTVSPropertyOp43
 70
     1
102
RTVSPropertyOp44
 70
     1
102
RTVSPropertyOp45
 70
     1
102
RTVSPropertyOp46
 70
     1
102
RTVSPropertyOp47
 70
     1
102
RTVSPropertyOp48
 70
     1
102
RTVSPropertyOp49
 70
     1
102
RTVSPropertyOp50
 70
     1
102
RTVSPropertyOp51
 70
     0
102
RTVSPropertyOp52
 70
     0
102
RTVSPropertyOp53
 70
     1
102
RTVSPropertyOp54
 70
     1
102
RTVSPropertyOp55
 70
     1
102
RTVSPropertyOp56
 70
     1
102
RTVSPropertyOp57
 70
     1
102
RTVSPropertyOp58
 70
     1
102
RTVSPropertyOp59
 70
     1
102
RTVSPropertyOp60
 70
     1
102
RTVSPropertyOp61
 70
     1
102
RTVSPropertyOp62
 70
     1
  0
XRECORD
  5
EE9
102
{ACAD_REACTORS
330
EE8
102
}
330
EE8
100
AcDbXrecord
280
     1
102
RTVSPost2010Prop28
280
     0
102
RTVSPost2010PropOp28
 70
     1
102
RTVSPost2010Prop29
280
     1
102
RTVSPost2010PropOp29
 70
     1
102
RTVSPost2010Prop30
280
     1
102
RTVSPost2010PropOp30
 70
     1
102
RTVSPost2010Prop31
280
     0
102
RTVSPost2010PropOp31
 70
     1
102
RTVSPost2010Prop32
280
     0
102
RTVSPost2010PropOp32
 70
     1
102
RTVSPost2010Prop33
280
     0
102
RTVSPost2010PropOp33
 70
     1
102
RTVSPost2010Prop34
280
     0
102
RTVSPost2010PropOp34
 70
     1
102
RTVSPost2010Prop35
280
     0
102
RTVSPost2010PropOp35
 70
     1
102
RTVSPost2010Prop36
280
     0
102
RTVSPost2010PropOp36
 70
     1
102
RTVSPost2010Prop37
 90
       50
102
RTVSPost2010PropOp37
 70
     1
102
RTVSPost2010Prop38
140
0.0
102
RTVSPost2010PropOp38
 70
     1
102
RTVSPost2010Prop39
140
1.0
102
RTVSPost2010PropOp39
 70
     1
102
RTVSPost2010Prop40
 90
        0
102
RTVSPost2010PropOp40
 70
     1
102
RTVSPost2010Prop41ColorIndex
 90
       18
102
RTVSPost2010Prop41ColorRGB
 90
        0
102
RTVSPost2010PropOp41
 70
     1
102
RTVSPost2010Prop42
 90
       50
102
RTVSPost2010PropOp42
 70
     1
102
RTVSPost2010Prop43
 90
        3
102
RTVSPost2010PropOp43
 70
     1
102
RTVSPost2010Prop44ColorIndex
 90
        5
102
RTVSPost2010Prop44ColorRGB
 90
      255
102
RTVSPost2010PropOp44
 70
     1
102
RTVSPost2010Prop45
280
     0
102
RTVSPost2010PropOp45
 70
     1
102
RTVSPost2010Prop46
 90
       50
102
RTVSPost2010PropOp46
 70
     1
102
RTVSPost2010Prop47
 90
       50
102
RTVSPost2010PropOp47
 70
     1
102
RTVSPost2010Prop48
 90
       50
102
RTVSPost2010PropOp48
 70
     1
102
RTVSPost2010Prop49
280
     0
102
RTVSPost2010PropOp49
 70
     1
102
RTVSPost2010Prop50
 90
       50
102
RTVSPost2010PropOp50
 70
     1
102
RTVSPost2010Prop51ColorIndex
 90
      256
102
RTVSPost2010Prop51ColorRGB
 90
-16777216
102
RTVSPost2010PropOp51
 70
     0
102
RTVSPost2010Prop52
140
1.0
102
RTVSPost2010PropOp52
 70
     0
102
RTVSPost2010Prop53
 90
        2
102
RTVSPost2010PropOp53
 70
     1
102
RTVSPost2010Prop54
  1
strokes_ogs.tif
102
RTVSPost2010PropOp54
 70
     1
102
RTVSPost2010Prop55
280
     0
102
RTVSPost2010PropOp55
 70
     1
102
RTVSPost2010Prop56
140
1.0
102
RTVSPost2010PropOp56
 70
     1
102
RTVSPost2010Prop57
140
1.0
102
RTVSPost2010PropOp57
 70
     1
102
RTVSPropertyOp0
 70
     1
102
RTVSPropertyOp1
 70
     1
102
RTVSPropertyOp2
 70
     1
102
RTVSPropertyOp3
 70
     1
102
RTVSPropertyOp4
 70
     1
102
RTVSPropertyOp5
 70
     1
102
RTVSPropertyOp6
 70
     1
102
RTVSPropertyOp7
 70
     1
102
RTVSPropertyOp8
 70
     1
102
RTVSPropertyOp9
 70
     1
102
RTVSPropertyOp10
 70
     1
102
RTVSPropertyOp11
 70
     1
102
RTVSPropertyOp12
 70
     1
102
RTVSPropertyOp13
 70
     1
102
RTVSPropertyOp14
 70
     1
102
RTVSPropertyOp15
 70
     1
102
RTVSPropertyOp16
 70
     1
102
RTVSPropertyOp17
 70
     1
102
RTVSPropertyOp18
 70
     1
102
RTVSPropertyOp19
 70
     1
102
RTVSPropertyOp20
 70
     1
102
RTVSPropertyOp21
 70
     1
102
RTVSPropertyOp22
 70
     1
102
RTVSPropertyOp23
 70
     1
102
RTVSPropertyOp24
 70
     1
102
RTVSPropertyOp25
 70
     1
102
RTVSPropertyOp26
 70
     1
102
RTVSPropertyOp27
 70
     1
102
RTVSPropertyOp28
 70
     1
102
RTVSPropertyOp29
 70
     1
102
RTVSPropertyOp30
 70
     1
102
RTVSPropertyOp31
 70
     1
102
RTVSPropertyOp32
 70
     1
102
RTVSPropertyOp33
 70
     1
102
RTVSPropertyOp34
 70
     1
102
RTVSPropertyOp35
 70
     1
102
RTVSPropertyOp36
 70
     1
102
RTVSPropertyOp37
 70
     1
102
RTVSPropertyOp38
 70
     1
102
RTVSPropertyOp39
 70
     1
102
RTVSPropertyOp40
 70
     1
102
RTVSPropertyOp41
 70
     1
102
RTVSPropertyOp42
 70
     1
102
RTVSPropertyOp43
 70
     1
102
RTVSPropertyOp44
 70
     1
102
RTVSPropertyOp45
 70
     1
102
RTVSPropertyOp46
 70
     1
102
RTVSPropertyOp47
 70
     1
102
RTVSPropertyOp48
 70
     1
102
RTVSPropertyOp49
 70
     1
102
RTVSPropertyOp50
 70
     1
102
RTVSPropertyOp51
 70
     0
102
RTVSPropertyOp52
 70
     0
102
RTVSPropertyOp53
 70
     1
102
RTVSPropertyOp54
 70
     1
102
RTVSPropertyOp55
 70
     1
102
RTVSPropertyOp56
 70
     1
102
RTVSPropertyOp57
 70
     1
102
RTVSPropertyOp58
 70
     1
102
RTVSPropertyOp59
 70
     1
102
RTVSPropertyOp60
 70
     1
102
RTVSPropertyOp61
 70
     1
102
RTVSPropertyOp62
 70
     1
  0
XRECORD
  5
EED
102
{ACAD_REACTORS
330
EEC
102
}
330
EEC
100
AcDbXrecord
280
     1
102
RTVSPost2010Prop28
280
     0
102
RTVSPost2010PropOp28
 70
     1
102
RTVSPost2010Prop29
280
     1
102
RTVSPost2010PropOp29
 70
     1
102
RTVSPost2010Prop30
280
     1
102
RTVSPost2010PropOp30
 70
     1
102
RTVSPost2010Prop31
280
     0
102
RTVSPost2010PropOp31
 70
     1
102
RTVSPost2010Prop32
280
     0
102
RTVSPost2010PropOp32
 70
     1
102
RTVSPost2010Prop33
280
     0
102
RTVSPost2010PropOp33
 70
     1
102
RTVSPost2010Prop34
280
     0
102
RTVSPost2010PropOp34
 70
     1
102
RTVSPost2010Prop35
280
     0
102
RTVSPost2010PropOp35
 70
     1
102
RTVSPost2010Prop36
280
     0
102
RTVSPost2010PropOp36
 70
     1
102
RTVSPost2010Prop37
 90
       50
102
RTVSPost2010PropOp37
 70
     1
102
RTVSPost2010Prop38
140
0.0
102
RTVSPost2010PropOp38
 70
     1
102
RTVSPost2010Prop39
140
1.0
102
RTVSPost2010PropOp39
 70
     1
102
RTVSPost2010Prop40
 90
        0
102
RTVSPost2010PropOp40
 70
     1
102
RTVSPost2010Prop41ColorIndex
 90
       18
102
RTVSPost2010Prop41ColorRGB
 90
        0
102
RTVSPost2010PropOp41
 70
     1
102
RTVSPost2010Prop42
 90
       50
102
RTVSPost2010PropOp42
 70
     1
102
RTVSPost2010Prop43
 90
        3
102
RTVSPost2010PropOp43
 70
     1
102
RTVSPost2010Prop44ColorIndex
 90
        5
102
RTVSPost2010Prop44ColorRGB
 90
      255
102
RTVSPost2010PropOp44
 70
     1
102
RTVSPost2010Prop45
280
     0
102
RTVSPost2010PropOp45
 70
     1
102
RTVSPost2010Prop46
 90
       50
102
RTVSPost2010PropOp46
 70
     1
102
RTVSPost2010Prop47
 90
       50
102
RTVSPost2010PropOp47
 70
     1
102
RTVSPost2010Prop48
 90
       50
102
RTVSPost2010PropOp48
 70
     1
102
RTVSPost2010Prop49
280
     0
102
RTVSPost2010PropOp49
 70
     1
102
RTVSPost2010Prop50
 90
       50
102
RTVSPost2010PropOp50
 70
     1
102
RTVSPost2010Prop51ColorIndex
 90
      256
102
RTVSPost2010Prop51ColorRGB
 90
-16777216
102
RTVSPost2010PropOp51
 70
     0
102
RTVSPost2010Prop52
140
1.0
102
RTVSPost2010PropOp52
 70
     0
102
RTVSPost2010Prop53
 90
        2
102
RTVSPost2010PropOp53
 70
     1
102
RTVSPost2010Prop54
  1
strokes_ogs.tif
102
RTVSPost2010PropOp54
 70
     1
102
RTVSPost2010Prop55
280
     0
102
RTVSPost2010PropOp55
 70
     1
102
RTVSPost2010Prop56
140
1.0
102
RTVSPost2010PropOp56
 70
     1
102
RTVSPost2010Prop57
140
1.0
102
RTVSPost2010PropOp57
 70
     1
102
RTVSPropertyOp0
 70
     1
102
RTVSPropertyOp1
 70
     1
102
RTVSPropertyOp2
 70
     1
102
RTVSPropertyOp3
 70
     1
102
RTVSPropertyOp4
 70
     1
102
RTVSPropertyOp5
 70
     1
102
RTVSPropertyOp6
 70
     1
102
RTVSPropertyOp7
 70
     1
102
RTVSPropertyOp8
 70
     1
102
RTVSPropertyOp9
 70
     1
102
RTVSPropertyOp10
 70
     1
102
RTVSPropertyOp11
 70
     1
102
RTVSPropertyOp12
 70
     1
102
RTVSPropertyOp13
 70
     1
102
RTVSPropertyOp14
 70
     1
102
RTVSPropertyOp15
 70
     1
102
RTVSPropertyOp16
 70
     1
102
RTVSPropertyOp17
 70
     1
102
RTVSPropertyOp18
 70
     1
102
RTVSPropertyOp19
 70
     1
102
RTVSPropertyOp20
 70
     1
102
RTVSPropertyOp21
 70
     1
102
RTVSPropertyOp22
 70
     1
102
RTVSPropertyOp23
 70
     1
102
RTVSPropertyOp24
 70
     1
102
RTVSPropertyOp25
 70
     1
102
RTVSPropertyOp26
 70
     1
102
RTVSPropertyOp27
 70
     1
102
RTVSPropertyOp28
 70
     1
102
RTVSPropertyOp29
 70
     1
102
RTVSPropertyOp30
 70
     1
102
RTVSPropertyOp31
 70
     1
102
RTVSPropertyOp32
 70
     1
102
RTVSPropertyOp33
 70
     1
102
RTVSPropertyOp34
 70
     1
102
RTVSPropertyOp35
 70
     1
102
RTVSPropertyOp36
 70
     1
102
RTVSPropertyOp37
 70
     1
102
RTVSPropertyOp38
 70
     1
102
RTVSPropertyOp39
 70
     1
102
RTVSPropertyOp40
 70
     1
102
RTVSPropertyOp41
 70
     1
102
RTVSPropertyOp42
 70
     1
102
RTVSPropertyOp43
 70
     1
102
RTVSPropertyOp44
 70
     1
102
RTVSPropertyOp45
 70
     1
102
RTVSPropertyOp46
 70
     1
102
RTVSPropertyOp47
 70
     1
102
RTVSPropertyOp48
 70
     1
102
RTVSPropertyOp49
 70
     1
102
RTVSPropertyOp50
 70
     1
102
RTVSPropertyOp51
 70
     0
102
RTVSPropertyOp52
 70
     0
102
RTVSPropertyOp53
 70
     1
102
RTVSPropertyOp54
 70
     1
102
RTVSPropertyOp55
 70
     1
102
RTVSPropertyOp56
 70
     1
102
RTVSPropertyOp57
 70
     1
102
RTVSPropertyOp58
 70
     1
102
RTVSPropertyOp59
 70
     1
102
RTVSPropertyOp60
 70
     1
102
RTVSPropertyOp61
 70
     1
102
RTVSPropertyOp62
 70
     1
  0
XRECORD
  5
F07
102
{ACAD_REACTORS
330
F06
102
}
330
F06
100
AcDbXrecord
280
     1
102
RTVSPost2010Prop28
280
     0
102
RTVSPost2010PropOp28
 70
     1
102
RTVSPost2010Prop29
280
     1
102
RTVSPost2010PropOp29
 70
     1
102
RTVSPost2010Prop30
280
     1
102
RTVSPost2010PropOp30
 70
     1
102
RTVSPost2010Prop31
280
     0
102
RTVSPost2010PropOp31
 70
     1
102
RTVSPost2010Prop32
280
     0
102
RTVSPost2010PropOp32
 70
     1
102
RTVSPost2010Prop33
280
     0
102
RTVSPost2010PropOp33
 70
     1
102
RTVSPost2010Prop34
280
     0
102
RTVSPost2010PropOp34
 70
     1
102
RTVSPost2010Prop35
280
     0
102
RTVSPost2010PropOp35
 70
     1
102
RTVSPost2010Prop36
280
     0
102
RTVSPost2010PropOp36
 70
     1
102
RTVSPost2010Prop37
 90
       50
102
RTVSPost2010PropOp37
 70
     0
102
RTVSPost2010Prop38
140
0.0
102
RTVSPost2010PropOp38
 70
     0
102
RTVSPost2010Prop39
140
1.0
102
RTVSPost2010PropOp39
 70
     0
102
RTVSPost2010Prop40
 90
        0
102
RTVSPost2010PropOp40
 70
     0
102
RTVSPost2010Prop41ColorIndex
 90
       18
102
RTVSPost2010Prop41ColorRGB
 90
        0
102
RTVSPost2010PropOp41
 70
     0
102
RTVSPost2010Prop42
 90
       50
102
RTVSPost2010PropOp42
 70
     0
102
RTVSPost2010Prop43
 90
        3
102
RTVSPost2010PropOp43
 70
     0
102
RTVSPost2010Prop44ColorIndex
 90
        5
102
RTVSPost2010Prop44ColorRGB
 90
      255
102
RTVSPost2010PropOp44
 70
     0
102
RTVSPost2010Prop45
280
     0
102
RTVSPost2010PropOp45
 70
     1
102
RTVSPost2010Prop46
 90
       50
102
RTVSPost2010PropOp46
 70
     0
102
RTVSPost2010Prop47
 90
       50
102
RTVSPost2010PropOp47
 70
     0
102
RTVSPost2010Prop48
 90
       50
102
RTVSPost2010PropOp48
 70
     0
102
RTVSPost2010Prop49
280
     0
102
RTVSPost2010PropOp49
 70
     1
102
RTVSPost2010Prop50
 90
       50
102
RTVSPost2010PropOp50
 70
     0
102
RTVSPost2010Prop51ColorIndex
 90
      256
102
RTVSPost2010Prop51ColorRGB
 90
-16777216
102
RTVSPost2010PropOp51
 70
     0
102
RTVSPost2010Prop52
140
1.0
102
RTVSPost2010PropOp52
 70
     0
102
RTVSPost2010Prop53
 90
        2
102
RTVSPost2010PropOp53
 70
     0
102
RTVSPost2010Prop54
  1
strokes_ogs.tif
102
RTVSPost2010PropOp54
 70
     0
102
RTVSPost2010Prop55
280
     0
102
RTVSPost2010PropOp55
 70
     1
102
RTVSPost2010Prop56
140
1.0
102
RTVSPost2010PropOp56
 70
     0
102
RTVSPost2010Prop57
140
1.0
102
RTVSPost2010PropOp57
 70
     0
102
RTVSPropertyOp0
 70
     0
102
RTVSPropertyOp1
 70
     0
102
RTVSPropertyOp2
 70
     0
102
RTVSPropertyOp3
 70
     0
102
RTVSPropertyOp4
 70
     0
102
RTVSPropertyOp5
 70
     0
102
RTVSPropertyOp6
 70
     0
102
RTVSPropertyOp7
 70
     0
102
RTVSPropertyOp8
 70
     0
102
RTVSPropertyOp9
 70
     0
102
RTVSPropertyOp10
 70
     0
102
RTVSPropertyOp11
 70
     0
102
RTVSPropertyOp12
 70
     0
102
RTVSPropertyOp13
 70
     0
102
RTVSPropertyOp14
 70
     2
102
RTVSPropertyOp15
 70
     0
102
RTVSPropertyOp16
 70
     0
102
RTVSPropertyOp17
 70
     0
102
RTVSPropertyOp18
 70
     0
102
RTVSPropertyOp19
 70
     0
102
RTVSPropertyOp20
 70
     0
102
RTVSPropertyOp21
 70
     0
102
RTVSPropertyOp22
 70
     0
102
RTVSPropertyOp23
 70
     0
102
RTVSPropertyOp24
 70
     0
102
RTVSPropertyOp25
 70
     0
102
RTVSPropertyOp26
 70
     0
102
RTVSPropertyOp27
 70
     0
102
RTVSPropertyOp28
 70
     1
102
RTVSPropertyOp29
 70
     1
102
RTVSPropertyOp30
 70
     1
102
RTVSPropertyOp31
 70
     1
102
RTVSPropertyOp32
 70
     1
102
RTVSPropertyOp33
 70
     1
102
RTVSPropertyOp34
 70
     1
102
RTVSPropertyOp35
 70
     1
102
RTVSPropertyOp36
 70
     1
102
RTVSPropertyOp37
 70
     0
102
RTVSPropertyOp38
 70
     0
102
RTVSPropertyOp39
 70
     0
102
RTVSPropertyOp40
 70
     0
102
RTVSPropertyOp41
 70
     0
102
RTVSPropertyOp42
 70
     0
102
RTVSPropertyOp43
 70
     0
102
RTVSPropertyOp44
 70
     0
102
RTVSPropertyOp45
 70
     1
102
RTVSPropertyOp46
 70
     0
102
RTVSPropertyOp47
 70
     0
102
RTVSPropertyOp48
 70
     0
102
RTVSPropertyOp49
 70
     1
102
RTVSPropertyOp50
 70
     0
102
RTVSPropertyOp51
 70
     0
102
RTVSPropertyOp52
 70
     0
102
RTVSPropertyOp53
 70
     0
102
RTVSPropertyOp54
 70
     0
102
RTVSPropertyOp55
 70
     1
102
RTVSPropertyOp56
 70
     0
102
RTVSPropertyOp57
 70
     0
102
RTVSPropertyOp58
 70
     0
102
RTVSPropertyOp59
 70
     0
102
RTVSPropertyOp60
 70
     0
102
RTVSPropertyOp61
 70
     0
102
RTVSPropertyOp62
 70
     0
  0
XRECORD
  5
EF5
102
{ACAD_REACTORS
330
EF4
102
}
330
EF4
100
AcDbXrecord
280
     1
102
RTVSPost2010Prop28
280
     0
102
RTVSPost2010PropOp28
 70
     1
102
RTVSPost2010Prop29
280
     1
102
RTVSPost2010PropOp29
 70
     1
102
RTVSPost2010Prop30
280
     1
102
RTVSPost2010PropOp30
 70
     1
102
RTVSPost2010Prop31
280
     0
102
RTVSPost2010PropOp31
 70
     1
102
RTVSPost2010Prop32
280
     0
102
RTVSPost2010PropOp32
 70
     1
102
RTVSPost2010Prop33
280
     0
102
RTVSPost2010PropOp33
 70
     1
102
RTVSPost2010Prop34
280
     0
102
RTVSPost2010PropOp34
 70
     1
102
RTVSPost2010Prop35
280
     0
102
RTVSPost2010PropOp35
 70
     1
102
RTVSPost2010Prop36
280
     0
102
RTVSPost2010PropOp36
 70
     1
102
RTVSPost2010Prop37
 90
       50
102
RTVSPost2010PropOp37
 70
     1
102
RTVSPost2010Prop38
140
0.0
102
RTVSPost2010PropOp38
 70
     1
102
RTVSPost2010Prop39
140
1.0
102
RTVSPost2010PropOp39
 70
     1
102
RTVSPost2010Prop40
 90
        0
102
RTVSPost2010PropOp40
 70
     1
102
RTVSPost2010Prop41ColorIndex
 90
       18
102
RTVSPost2010Prop41ColorRGB
 90
        0
102
RTVSPost2010PropOp41
 70
     1
102
RTVSPost2010Prop42
 90
       50
102
RTVSPost2010PropOp42
 70
     1
102
RTVSPost2010Prop43
 90
        3
102
RTVSPost2010PropOp43
 70
     1
102
RTVSPost2010Prop44ColorIndex
 90
        5
102
RTVSPost2010Prop44ColorRGB
 90
      255
102
RTVSPost2010PropOp44
 70
     1
102
RTVSPost2010Prop45
280
     0
102
RTVSPost2010PropOp45
 70
     1
102
RTVSPost2010Prop46
 90
       50
102
RTVSPost2010PropOp46
 70
     1
102
RTVSPost2010Prop47
 90
       50
102
RTVSPost2010PropOp47
 70
     1
102
RTVSPost2010Prop48
 90
       50
102
RTVSPost2010PropOp48
 70
     1
102
RTVSPost2010Prop49
280
     0
102
RTVSPost2010PropOp49
 70
     1
102
RTVSPost2010Prop50
 90
       50
102
RTVSPost2010PropOp50
 70
     1
102
RTVSPost2010Prop51ColorIndex
 90
      256
102
RTVSPost2010Prop51ColorRGB
 90
-16777216
102
RTVSPost2010PropOp51
 70
     0
102
RTVSPost2010Prop52
140
1.0
102
RTVSPost2010PropOp52
 70
     0
102
RTVSPost2010Prop53
 90
        2
102
RTVSPost2010PropOp53
 70
     1
102
RTVSPost2010Prop54
  1
strokes_ogs.tif
102
RTVSPost2010PropOp54
 70
     1
102
RTVSPost2010Prop55
280
     0
102
RTVSPost2010PropOp55
 70
     1
102
RTVSPost2010Prop56
140
1.0
102
RTVSPost2010PropOp56
 70
     1
102
RTVSPost2010Prop57
140
1.0
102
RTVSPost2010PropOp57
 70
     1
102
RTVSPropertyOp0
 70
     1
102
RTVSPropertyOp1
 70
     1
102
RTVSPropertyOp2
 70
     1
102
RTVSPropertyOp3
 70
     1
102
RTVSPropertyOp4
 70
     1
102
RTVSPropertyOp5
 70
     1
102
RTVSPropertyOp6
 70
     1
102
RTVSPropertyOp7
 70
     1
102
RTVSPropertyOp8
 70
     1
102
RTVSPropertyOp9
 70
     1
102
RTVSPropertyOp10
 70
     1
102
RTVSPropertyOp11
 70
     1
102
RTVSPropertyOp12
 70
     1
102
RTVSPropertyOp13
 70
     1
102
RTVSPropertyOp14
 70
     1
102
RTVSPropertyOp15
 70
     1
102
RTVSPropertyOp16
 70
     1
102
RTVSPropertyOp17
 70
     1
102
RTVSPropertyOp18
 70
     1
102
RTVSPropertyOp19
 70
     1
102
RTVSPropertyOp20
 70
     1
102
RTVSPropertyOp21
 70
     1
102
RTVSPropertyOp22
 70
     1
102
RTVSPropertyOp23
 70
     1
102
RTVSPropertyOp24
 70
     1
102
RTVSPropertyOp25
 70
     1
102
RTVSPropertyOp26
 70
     1
102
RTVSPropertyOp27
 70
     1
102
RTVSPropertyOp28
 70
     1
102
RTVSPropertyOp29
 70
     1
102
RTVSPropertyOp30
 70
     1
102
RTVSPropertyOp31
 70
     1
102
RTVSPropertyOp32
 70
     1
102
RTVSPropertyOp33
 70
     1
102
RTVSPropertyOp34
 70
     1
102
RTVSPropertyOp35
 70
     1
102
RTVSPropertyOp36
 70
     1
102
RTVSPropertyOp37
 70
     1
102
RTVSPropertyOp38
 70
     1
102
RTVSPropertyOp39
 70
     1
102
RTVSPropertyOp40
 70
     1
102
RTVSPropertyOp41
 70
     1
102
RTVSPropertyOp42
 70
     1
102
RTVSPropertyOp43
 70
     1
102
RTVSPropertyOp44
 70
     1
102
RTVSPropertyOp45
 70
     1
102
RTVSPropertyOp46
 70
     1
102
RTVSPropertyOp47
 70
     1
102
RTVSPropertyOp48
 70
     1
102
RTVSPropertyOp49
 70
     1
102
RTVSPropertyOp50
 70
     1
102
RTVSPropertyOp51
 70
     0
102
RTVSPropertyOp52
 70
     0
102
RTVSPropertyOp53
 70
     1
102
RTVSPropertyOp54
 70
     1
102
RTVSPropertyOp55
 70
     1
102
RTVSPropertyOp56
 70
     1
102
RTVSPropertyOp57
 70
     1
102
RTVSPropertyOp58
 70
     1
102
RTVSPropertyOp59
 70
     1
102
RTVSPropertyOp60
 70
     1
102
RTVSPropertyOp61
 70
     1
102
RTVSPropertyOp62
 70
     1
  0
XRECORD
  5
ED9
102
{ACAD_REACTORS
330
ED8
102
}
330
ED8
100
AcDbXrecord
280
     1
102
RTVSPost2010Prop28
280
     0
102
RTVSPost2010PropOp28
 70
     1
102
RTVSPost2010Prop29
280
     1
102
RTVSPost2010PropOp29
 70
     1
102
RTVSPost2010Prop30
280
     1
102
RTVSPost2010PropOp30
 70
     1
102
RTVSPost2010Prop31
280
     0
102
RTVSPost2010PropOp31
 70
     1
102
RTVSPost2010Prop32
280
     0
102
RTVSPost2010PropOp32
 70
     1
102
RTVSPost2010Prop33
280
     0
102
RTVSPost2010PropOp33
 70
     1
102
RTVSPost2010Prop34
280
     0
102
RTVSPost2010PropOp34
 70
     1
102
RTVSPost2010Prop35
280
     0
102
RTVSPost2010PropOp35
 70
     1
102
RTVSPost2010Prop36
280
     0
102
RTVSPost2010PropOp36
 70
     1
102
RTVSPost2010Prop37
 90
       50
102
RTVSPost2010PropOp37
 70
     1
102
RTVSPost2010Prop38
140
0.0
102
RTVSPost2010PropOp38
 70
     1
102
RTVSPost2010Prop39
140
1.0
102
RTVSPost2010PropOp39
 70
     1
102
RTVSPost2010Prop40
 90
        0
102
RTVSPost2010PropOp40
 70
     1
102
RTVSPost2010Prop41ColorIndex
 90
       18
102
RTVSPost2010Prop41ColorRGB
 90
        0
102
RTVSPost2010PropOp41
 70
     1
102
RTVSPost2010Prop42
 90
       50
102
RTVSPost2010PropOp42
 70
     1
102
RTVSPost2010Prop43
 90
        3
102
RTVSPost2010PropOp43
 70
     1
102
RTVSPost2010Prop44ColorIndex
 90
        5
102
RTVSPost2010Prop44ColorRGB
 90
      255
102
RTVSPost2010PropOp44
 70
     1
102
RTVSPost2010Prop45
280
     0
102
RTVSPost2010PropOp45
 70
     1
102
RTVSPost2010Prop46
 90
       50
102
RTVSPost2010PropOp46
 70
     1
102
RTVSPost2010Prop47
 90
       50
102
RTVSPost2010PropOp47
 70
     1
102
RTVSPost2010Prop48
 90
       50
102
RTVSPost2010PropOp48
 70
     1
102
RTVSPost2010Prop49
280
     0
102
RTVSPost2010PropOp49
 70
     1
102
RTVSPost2010Prop50
 90
       50
102
RTVSPost2010PropOp50
 70
     1
102
RTVSPost2010Prop51ColorIndex
 90
      256
102
RTVSPost2010Prop51ColorRGB
 90
-16777216
102
RTVSPost2010PropOp51
 70
     0
102
RTVSPost2010Prop52
140
1.0
102
RTVSPost2010PropOp52
 70
     0
102
RTVSPost2010Prop53
 90
        2
102
RTVSPost2010PropOp53
 70
     1
102
RTVSPost2010Prop54
  1
strokes_ogs.tif
102
RTVSPost2010PropOp54
 70
     1
102
RTVSPost2010Prop55
280
     0
102
RTVSPost2010PropOp55
 70
     1
102
RTVSPost2010Prop56
140
1.0
102
RTVSPost2010PropOp56
 70
     1
102
RTVSPost2010Prop57
140
1.0
102
RTVSPost2010PropOp57
 70
     1
102
RTVSPropertyOp0
 70
     1
102
RTVSPropertyOp1
 70
     1
102
RTVSPropertyOp2
 70
     1
102
RTVSPropertyOp3
 70
     1
102
RTVSPropertyOp4
 70
     1
102
RTVSPropertyOp5
 70
     1
102
RTVSPropertyOp6
 70
     1
102
RTVSPropertyOp7
 70
     1
102
RTVSPropertyOp8
 70
     1
102
RTVSPropertyOp9
 70
     1
102
RTVSPropertyOp10
 70
     1
102
RTVSPropertyOp11
 70
     1
102
RTVSPropertyOp12
 70
     1
102
RTVSPropertyOp13
 70
     1
102
RTVSPropertyOp14
 70
     1
102
RTVSPropertyOp15
 70
     1
102
RTVSPropertyOp16
 70
     1
102
RTVSPropertyOp17
 70
     1
102
RTVSPropertyOp18
 70
     1
102
RTVSPropertyOp19
 70
     1
102
RTVSPropertyOp20
 70
     1
102
RTVSPropertyOp21
 70
     1
102
RTVSPropertyOp22
 70
     1
102
RTVSPropertyOp23
 70
     1
102
RTVSPropertyOp24
 70
     1
102
RTVSPropertyOp25
 70
     1
102
RTVSPropertyOp26
 70
     1
102
RTVSPropertyOp27
 70
     1
102
RTVSPropertyOp28
 70
     1
102
RTVSPropertyOp29
 70
     1
102
RTVSPropertyOp30
 70
     1
102
RTVSPropertyOp31
 70
     1
102
RTVSPropertyOp32
 70
     1
102
RTVSPropertyOp33
 70
     1
102
RTVSPropertyOp34
 70
     1
102
RTVSPropertyOp35
 70
     1
102
RTVSPropertyOp36
 70
     1
102
RTVSPropertyOp37
 70
     1
102
RTVSPropertyOp38
 70
     1
102
RTVSPropertyOp39
 70
     1
102
RTVSPropertyOp40
 70
     1
102
RTVSPropertyOp41
 70
     1
102
RTVSPropertyOp42
 70
     1
102
RTVSPropertyOp43
 70
     1
102
RTVSPropertyOp44
 70
     1
102
RTVSPropertyOp45
 70
     1
102
RTVSPropertyOp46
 70
     1
102
RTVSPropertyOp47
 70
     1
102
RTVSPropertyOp48
 70
     1
102
RTVSPropertyOp49
 70
     1
102
RTVSPropertyOp50
 70
     1
102
RTVSPropertyOp51
 70
     0
102
RTVSPropertyOp52
 70
     0
102
RTVSPropertyOp53
 70
     1
102
RTVSPropertyOp54
 70
     1
102
RTVSPropertyOp55
 70
     1
102
RTVSPropertyOp56
 70
     1
102
RTVSPropertyOp57
 70
     1
102
RTVSPropertyOp58
 70
     1
102
RTVSPropertyOp59
 70
     1
102
RTVSPropertyOp60
 70
     1
102
RTVSPropertyOp61
 70
     1
102
RTVSPropertyOp62
 70
     1
  0
XRECORD
  5
EDB
102
{ACAD_REACTORS
330
EDA
102
}
330
EDA
100
AcDbXrecord
280
     1
102
RTVSPost2010Prop28
280
     0
102
RTVSPost2010PropOp28
 70
     1
102
RTVSPost2010Prop29
280
     1
102
RTVSPost2010PropOp29
 70
     1
102
RTVSPost2010Prop30
280
     1
102
RTVSPost2010PropOp30
 70
     1
102
RTVSPost2010Prop31
280
     0
102
RTVSPost2010PropOp31
 70
     1
102
RTVSPost2010Prop32
280
     0
102
RTVSPost2010PropOp32
 70
     1
102
RTVSPost2010Prop33
280
     0
102
RTVSPost2010PropOp33
 70
     1
102
RTVSPost2010Prop34
280
     0
102
RTVSPost2010PropOp34
 70
     1
102
RTVSPost2010Prop35
280
     0
102
RTVSPost2010PropOp35
 70
     1
102
RTVSPost2010Prop36
280
     0
102
RTVSPost2010PropOp36
 70
     1
102
RTVSPost2010Prop37
 90
       50
102
RTVSPost2010PropOp37
 70
     1
102
RTVSPost2010Prop38
140
0.0
102
RTVSPost2010PropOp38
 70
     1
102
RTVSPost2010Prop39
140
1.0
102
RTVSPost2010PropOp39
 70
     1
102
RTVSPost2010Prop40
 90
        0
102
RTVSPost2010PropOp40
 70
     1
102
RTVSPost2010Prop41ColorIndex
 90
       18
102
RTVSPost2010Prop41ColorRGB
 90
        0
102
RTVSPost2010PropOp41
 70
     1
102
RTVSPost2010Prop42
 90
       50
102
RTVSPost2010PropOp42
 70
     1
102
RTVSPost2010Prop43
 90
        3
102
RTVSPost2010PropOp43
 70
     1
102
RTVSPost2010Prop44ColorIndex
 90
        5
102
RTVSPost2010Prop44ColorRGB
 90
      255
102
RTVSPost2010PropOp44
 70
     1
102
RTVSPost2010Prop45
280
     0
102
RTVSPost2010PropOp45
 70
     1
102
RTVSPost2010Prop46
 90
       50
102
RTVSPost2010PropOp46
 70
     1
102
RTVSPost2010Prop47
 90
       50
102
RTVSPost2010PropOp47
 70
     1
102
RTVSPost2010Prop48
 90
       50
102
RTVSPost2010PropOp48
 70
     1
102
RTVSPost2010Prop49
280
     0
102
RTVSPost2010PropOp49
 70
     1
102
RTVSPost2010Prop50
 90
       50
102
RTVSPost2010PropOp50
 70
     1
102
RTVSPost2010Prop51ColorIndex
 90
      256
102
RTVSPost2010Prop51ColorRGB
 90
-16777216
102
RTVSPost2010PropOp51
 70
     0
102
RTVSPost2010Prop52
140
1.0
102
RTVSPost2010PropOp52
 70
     0
102
RTVSPost2010Prop53
 90
        2
102
RTVSPost2010PropOp53
 70
     1
102
RTVSPost2010Prop54
  1
strokes_ogs.tif
102
RTVSPost2010PropOp54
 70
     1
102
RTVSPost2010Prop55
280
     0
102
RTVSPost2010PropOp55
 70
     1
102
RTVSPost2010Prop56
140
1.0
102
RTVSPost2010PropOp56
 70
     1
102
RTVSPost2010Prop57
140
1.0
102
RTVSPost2010PropOp57
 70
     1
102
RTVSPropertyOp0
 70
     1
102
RTVSPropertyOp1
 70
     1
102
RTVSPropertyOp2
 70
     1
102
RTVSPropertyOp3
 70
     1
102
RTVSPropertyOp4
 70
     1
102
RTVSPropertyOp5
 70
     1
102
RTVSPropertyOp6
 70
     1
102
RTVSPropertyOp7
 70
     1
102
RTVSPropertyOp8
 70
     1
102
RTVSPropertyOp9
 70
     1
102
RTVSPropertyOp10
 70
     1
102
RTVSPropertyOp11
 70
     1
102
RTVSPropertyOp12
 70
     1
102
RTVSPropertyOp13
 70
     1
102
RTVSPropertyOp14
 70
     1
102
RTVSPropertyOp15
 70
     1
102
RTVSPropertyOp16
 70
     1
102
RTVSPropertyOp17
 70
     1
102
RTVSPropertyOp18
 70
     1
102
RTVSPropertyOp19
 70
     1
102
RTVSPropertyOp20
 70
     1
102
RTVSPropertyOp21
 70
     1
102
RTVSPropertyOp22
 70
     1
102
RTVSPropertyOp23
 70
     1
102
RTVSPropertyOp24
 70
     1
102
RTVSPropertyOp25
 70
     1
102
RTVSPropertyOp26
 70
     1
102
RTVSPropertyOp27
 70
     1
102
RTVSPropertyOp28
 70
     1
102
RTVSPropertyOp29
 70
     1
102
RTVSPropertyOp30
 70
     1
102
RTVSPropertyOp31
 70
     1
102
RTVSPropertyOp32
 70
     1
102
RTVSPropertyOp33
 70
     1
102
RTVSPropertyOp34
 70
     1
102
RTVSPropertyOp35
 70
     1
102
RTVSPropertyOp36
 70
     1
102
RTVSPropertyOp37
 70
     1
102
RTVSPropertyOp38
 70
     1
102
RTVSPropertyOp39
 70
     1
102
RTVSPropertyOp40
 70
     1
102
RTVSPropertyOp41
 70
     1
102
RTVSPropertyOp42
 70
     1
102
RTVSPropertyOp43
 70
     1
102
RTVSPropertyOp44
 70
     1
102
RTVSPropertyOp45
 70
     1
102
RTVSPropertyOp46
 70
     1
102
RTVSPropertyOp47
 70
     1
102
RTVSPropertyOp48
 70
     1
102
RTVSPropertyOp49
 70
     1
102
RTVSPropertyOp50
 70
     1
102
RTVSPropertyOp51
 70
     0
102
RTVSPropertyOp52
 70
     0
102
RTVSPropertyOp53
 70
     1
102
RTVSPropertyOp54
 70
     1
102
RTVSPropertyOp55
 70
     1
102
RTVSPropertyOp56
 70
     1
102
RTVSPropertyOp57
 70
     1
102
RTVSPropertyOp58
 70
     1
102
RTVSPropertyOp59
 70
     1
102
RTVSPropertyOp60
 70
     1
102
RTVSPropertyOp61
 70
     1
102
RTVSPropertyOp62
 70
     1
  0
XRECORD
  5
EDD
102
{ACAD_REACTORS
330
EDC
102
}
330
EDC
100
AcDbXrecord
280
     1
102
RTVSPost2010Prop28
280
     0
102
RTVSPost2010PropOp28
 70
     1
102
RTVSPost2010Prop29
280
     1
102
RTVSPost2010PropOp29
 70
     1
102
RTVSPost2010Prop30
280
     1
102
RTVSPost2010PropOp30
 70
     1
102
RTVSPost2010Prop31
280
     0
102
RTVSPost2010PropOp31
 70
     1
102
RTVSPost2010Prop32
280
     0
102
RTVSPost2010PropOp32
 70
     1
102
RTVSPost2010Prop33
280
     0
102
RTVSPost2010PropOp33
 70
     1
102
RTVSPost2010Prop34
280
     0
102
RTVSPost2010PropOp34
 70
     1
102
RTVSPost2010Prop35
280
     0
102
RTVSPost2010PropOp35
 70
     1
102
RTVSPost2010Prop36
280
     0
102
RTVSPost2010PropOp36
 70
     1
102
RTVSPost2010Prop37
 90
       50
102
RTVSPost2010PropOp37
 70
     1
102
RTVSPost2010Prop38
140
0.0
102
RTVSPost2010PropOp38
 70
     1
102
RTVSPost2010Prop39
140
1.0
102
RTVSPost2010PropOp39
 70
     1
102
RTVSPost2010Prop40
 90
        0
102
RTVSPost2010PropOp40
 70
     1
102
RTVSPost2010Prop41ColorIndex
 90
       18
102
RTVSPost2010Prop41ColorRGB
 90
        0
102
RTVSPost2010PropOp41
 70
     1
102
RTVSPost2010Prop42
 90
       50
102
RTVSPost2010PropOp42
 70
     1
102
RTVSPost2010Prop43
 90
        3
102
RTVSPost2010PropOp43
 70
     1
102
RTVSPost2010Prop44ColorIndex
 90
        5
102
RTVSPost2010Prop44ColorRGB
 90
      255
102
RTVSPost2010PropOp44
 70
     1
102
RTVSPost2010Prop45
280
     0
102
RTVSPost2010PropOp45
 70
     1
102
RTVSPost2010Prop46
 90
       50
102
RTVSPost2010PropOp46
 70
     1
102
RTVSPost2010Prop47
 90
       50
102
RTVSPost2010PropOp47
 70
     1
102
RTVSPost2010Prop48
 90
       50
102
RTVSPost2010PropOp48
 70
     1
102
RTVSPost2010Prop49
280
     0
102
RTVSPost2010PropOp49
 70
     1
102
RTVSPost2010Prop50
 90
       50
102
RTVSPost2010PropOp50
 70
     1
102
RTVSPost2010Prop51ColorIndex
 90
      256
102
RTVSPost2010Prop51ColorRGB
 90
-16777216
102
RTVSPost2010PropOp51
 70
     0
102
RTVSPost2010Prop52
140
1.0
102
RTVSPost2010PropOp52
 70
     0
102
RTVSPost2010Prop53
 90
        2
102
RTVSPost2010PropOp53
 70
     1
102
RTVSPost2010Prop54
  1
strokes_ogs.tif
102
RTVSPost2010PropOp54
 70
     1
102
RTVSPost2010Prop55
280
     0
102
RTVSPost2010PropOp55
 70
     1
102
RTVSPost2010Prop56
140
1.0
102
RTVSPost2010PropOp56
 70
     1
102
RTVSPost2010Prop57
140
1.0
102
RTVSPost2010PropOp57
 70
     1
102
RTVSPropertyOp0
 70
     1
102
RTVSPropertyOp1
 70
     1
102
RTVSPropertyOp2
 70
     1
102
RTVSPropertyOp3
 70
     1
102
RTVSPropertyOp4
 70
     1
102
RTVSPropertyOp5
 70
     1
102
RTVSPropertyOp6
 70
     1
102
RTVSPropertyOp7
 70
     1
102
RTVSPropertyOp8
 70
     1
102
RTVSPropertyOp9
 70
     1
102
RTVSPropertyOp10
 70
     1
102
RTVSPropertyOp11
 70
     1
102
RTVSPropertyOp12
 70
     1
102
RTVSPropertyOp13
 70
     1
102
RTVSPropertyOp14
 70
     1
102
RTVSPropertyOp15
 70
     1
102
RTVSPropertyOp16
 70
     1
102
RTVSPropertyOp17
 70
     1
102
RTVSPropertyOp18
 70
     1
102
RTVSPropertyOp19
 70
     1
102
RTVSPropertyOp20
 70
     1
102
RTVSPropertyOp21
 70
     1
102
RTVSPropertyOp22
 70
     1
102
RTVSPropertyOp23
 70
     1
102
RTVSPropertyOp24
 70
     1
102
RTVSPropertyOp25
 70
     1
102
RTVSPropertyOp26
 70
     1
102
RTVSPropertyOp27
 70
     1
102
RTVSPropertyOp28
 70
     1
102
RTVSPropertyOp29
 70
     1
102
RTVSPropertyOp30
 70
     1
102
RTVSPropertyOp31
 70
     1
102
RTVSPropertyOp32
 70
     1
102
RTVSPropertyOp33
 70
     1
102
RTVSPropertyOp34
 70
     1
102
RTVSPropertyOp35
 70
     1
102
RTVSPropertyOp36
 70
     1
102
RTVSPropertyOp37
 70
     1
102
RTVSPropertyOp38
 70
     1
102
RTVSPropertyOp39
 70
     1
102
RTVSPropertyOp40
 70
     1
102
RTVSPropertyOp41
 70
     1
102
RTVSPropertyOp42
 70
     1
102
RTVSPropertyOp43
 70
     1
102
RTVSPropertyOp44
 70
     1
102
RTVSPropertyOp45
 70
     1
102
RTVSPropertyOp46
 70
     1
102
RTVSPropertyOp47
 70
     1
102
RTVSPropertyOp48
 70
     1
102
RTVSPropertyOp49
 70
     1
102
RTVSPropertyOp50
 70
     1
102
RTVSPropertyOp51
 70
     0
102
RTVSPropertyOp52
 70
     0
102
RTVSPropertyOp53
 70
     1
102
RTVSPropertyOp54
 70
     1
102
RTVSPropertyOp55
 70
     1
102
RTVSPropertyOp56
 70
     1
102
RTVSPropertyOp57
 70
     1
102
RTVSPropertyOp58
 70
     1
102
RTVSPropertyOp59
 70
     1
102
RTVSPropertyOp60
 70
     1
102
RTVSPropertyOp61
 70
     1
102
RTVSPropertyOp62
 70
     1
  0
XRECORD
  5
EDF
102
{ACAD_REACTORS
330
EDE
102
}
330
EDE
100
AcDbXrecord
280
     1
102
RTVSPost2010Prop28
280
     0
102
RTVSPost2010PropOp28
 70
     1
102
RTVSPost2010Prop29
280
     1
102
RTVSPost2010PropOp29
 70
     1
102
RTVSPost2010Prop30
280
     1
102
RTVSPost2010PropOp30
 70
     1
102
RTVSPost2010Prop31
280
     0
102
RTVSPost2010PropOp31
 70
     1
102
RTVSPost2010Prop32
280
     0
102
RTVSPost2010PropOp32
 70
     1
102
RTVSPost2010Prop33
280
     0
102
RTVSPost2010PropOp33
 70
     1
102
RTVSPost2010Prop34
280
     0
102
RTVSPost2010PropOp34
 70
     1
102
RTVSPost2010Prop35
280
     0
102
RTVSPost2010PropOp35
 70
     1
102
RTVSPost2010Prop36
280
     0
102
RTVSPost2010PropOp36
 70
     1
102
RTVSPost2010Prop37
 90
       50
102
RTVSPost2010PropOp37
 70
     1
102
RTVSPost2010Prop38
140
0.0
102
RTVSPost2010PropOp38
 70
     1
102
RTVSPost2010Prop39
140
1.0
102
RTVSPost2010PropOp39
 70
     1
102
RTVSPost2010Prop40
 90
        0
102
RTVSPost2010PropOp40
 70
     1
102
RTVSPost2010Prop41ColorIndex
 90
       18
102
RTVSPost2010Prop41ColorRGB
 90
        0
102
RTVSPost2010PropOp41
 70
     1
102
RTVSPost2010Prop42
 90
       50
102
RTVSPost2010PropOp42
 70
     1
102
RTVSPost2010Prop43
 90
        3
102
RTVSPost2010PropOp43
 70
     1
102
RTVSPost2010Prop44ColorIndex
 90
        5
102
RTVSPost2010Prop44ColorRGB
 90
      255
102
RTVSPost2010PropOp44
 70
     1
102
RTVSPost2010Prop45
280
     0
102
RTVSPost2010PropOp45
 70
     1
102
RTVSPost2010Prop46
 90
       50
102
RTVSPost2010PropOp46
 70
     1
102
RTVSPost2010Prop47
 90
       50
102
RTVSPost2010PropOp47
 70
     1
102
RTVSPost2010Prop48
 90
       50
102
RTVSPost2010PropOp48
 70
     1
102
RTVSPost2010Prop49
280
     0
102
RTVSPost2010PropOp49
 70
     1
102
RTVSPost2010Prop50
 90
       50
102
RTVSPost2010PropOp50
 70
     1
102
RTVSPost2010Prop51ColorIndex
 90
      256
102
RTVSPost2010Prop51ColorRGB
 90
-16777216
102
RTVSPost2010PropOp51
 70
     0
102
RTVSPost2010Prop52
140
1.0
102
RTVSPost2010PropOp52
 70
     0
102
RTVSPost2010Prop53
 90
        2
102
RTVSPost2010PropOp53
 70
     1
102
RTVSPost2010Prop54
  1
strokes_ogs.tif
102
RTVSPost2010PropOp54
 70
     1
102
RTVSPost2010Prop55
280
     0
102
RTVSPost2010PropOp55
 70
     1
102
RTVSPost2010Prop56
140
1.0
102
RTVSPost2010PropOp56
 70
     1
102
RTVSPost2010Prop57
140
1.0
102
RTVSPost2010PropOp57
 70
     1
102
RTVSPropertyOp0
 70
     1
102
RTVSPropertyOp1
 70
     1
102
RTVSPropertyOp2
 70
     1
102
RTVSPropertyOp3
 70
     1
102
RTVSPropertyOp4
 70
     1
102
RTVSPropertyOp5
 70
     1
102
RTVSPropertyOp6
 70
     1
102
RTVSPropertyOp7
 70
     1
102
RTVSPropertyOp8
 70
     1
102
RTVSPropertyOp9
 70
     1
102
RTVSPropertyOp10
 70
     1
102
RTVSPropertyOp11
 70
     1
102
RTVSPropertyOp12
 70
     1
102
RTVSPropertyOp13
 70
     1
102
RTVSPropertyOp14
 70
     1
102
RTVSPropertyOp15
 70
     1
102
RTVSPropertyOp16
 70
     1
102
RTVSPropertyOp17
 70
     1
102
RTVSPropertyOp18
 70
     1
102
RTVSPropertyOp19
 70
     1
102
RTVSPropertyOp20
 70
     1
102
RTVSPropertyOp21
 70
     1
102
RTVSPropertyOp22
 70
     1
102
RTVSPropertyOp23
 70
     1
102
RTVSPropertyOp24
 70
     1
102
RTVSPropertyOp25
 70
     1
102
RTVSPropertyOp26
 70
     1
102
RTVSPropertyOp27
 70
     1
102
RTVSPropertyOp28
 70
     1
102
RTVSPropertyOp29
 70
     1
102
RTVSPropertyOp30
 70
     1
102
RTVSPropertyOp31
 70
     1
102
RTVSPropertyOp32
 70
     1
102
RTVSPropertyOp33
 70
     1
102
RTVSPropertyOp34
 70
     1
102
RTVSPropertyOp35
 70
     1
102
RTVSPropertyOp36
 70
     1
102
RTVSPropertyOp37
 70
     1
102
RTVSPropertyOp38
 70
     1
102
RTVSPropertyOp39
 70
     1
102
RTVSPropertyOp40
 70
     1
102
RTVSPropertyOp41
 70
     1
102
RTVSPropertyOp42
 70
     1
102
RTVSPropertyOp43
 70
     1
102
RTVSPropertyOp44
 70
     1
102
RTVSPropertyOp45
 70
     1
102
RTVSPropertyOp46
 70
     1
102
RTVSPropertyOp47
 70
     1
102
RTVSPropertyOp48
 70
     1
102
RTVSPropertyOp49
 70
     1
102
RTVSPropertyOp50
 70
     1
102
RTVSPropertyOp51
 70
     0
102
RTVSPropertyOp52
 70
     0
102
RTVSPropertyOp53
 70
     1
102
RTVSPropertyOp54
 70
     1
102
RTVSPropertyOp55
 70
     1
102
RTVSPropertyOp56
 70
     1
102
RTVSPropertyOp57
 70
     1
102
RTVSPropertyOp58
 70
     1
102
RTVSPropertyOp59
 70
     1
102
RTVSPropertyOp60
 70
     1
102
RTVSPropertyOp61
 70
     1
102
RTVSPropertyOp62
 70
     1
  0
XRECORD
  5
EE7
102
{ACAD_REACTORS
330
EE6
102
}
330
EE6
100
AcDbXrecord
280
     1
102
RTVSPost2010Prop28
280
     0
102
RTVSPost2010PropOp28
 70
     1
102
RTVSPost2010Prop29
280
     1
102
RTVSPost2010PropOp29
 70
     1
102
RTVSPost2010Prop30
280
     1
102
RTVSPost2010PropOp30
 70
     1
102
RTVSPost2010Prop31
280
     0
102
RTVSPost2010PropOp31
 70
     1
102
RTVSPost2010Prop32
280
     0
102
RTVSPost2010PropOp32
 70
     1
102
RTVSPost2010Prop33
280
     0
102
RTVSPost2010PropOp33
 70
     1
102
RTVSPost2010Prop34
280
     0
102
RTVSPost2010PropOp34
 70
     1
102
RTVSPost2010Prop35
280
     0
102
RTVSPost2010PropOp35
 70
     1
102
RTVSPost2010Prop36
280
     0
102
RTVSPost2010PropOp36
 70
     1
102
RTVSPost2010Prop37
 90
       50
102
RTVSPost2010PropOp37
 70
     1
102
RTVSPost2010Prop38
140
0.0
102
RTVSPost2010PropOp38
 70
     1
102
RTVSPost2010Prop39
140
1.0
102
RTVSPost2010PropOp39
 70
     1
102
RTVSPost2010Prop40
 90
        0
102
RTVSPost2010PropOp40
 70
     1
102
RTVSPost2010Prop41ColorIndex
 90
       18
102
RTVSPost2010Prop41ColorRGB
 90
        0
102
RTVSPost2010PropOp41
 70
     1
102
RTVSPost2010Prop42
 90
       50
102
RTVSPost2010PropOp42
 70
     1
102
RTVSPost2010Prop43
 90
        3
102
RTVSPost2010PropOp43
 70
     1
102
RTVSPost2010Prop44ColorIndex
 90
        5
102
RTVSPost2010Prop44ColorRGB
 90
      255
102
RTVSPost2010PropOp44
 70
     1
102
RTVSPost2010Prop45
280
     0
102
RTVSPost2010PropOp45
 70
     1
102
RTVSPost2010Prop46
 90
       50
102
RTVSPost2010PropOp46
 70
     1
102
RTVSPost2010Prop47
 90
       50
102
RTVSPost2010PropOp47
 70
     1
102
RTVSPost2010Prop48
 90
       50
102
RTVSPost2010PropOp48
 70
     1
102
RTVSPost2010Prop49
280
     0
102
RTVSPost2010PropOp49
 70
     1
102
RTVSPost2010Prop50
 90
       50
102
RTVSPost2010PropOp50
 70
     1
102
RTVSPost2010Prop51ColorIndex
 90
      256
102
RTVSPost2010Prop51ColorRGB
 90
-16777216
102
RTVSPost2010PropOp51
 70
     0
102
RTVSPost2010Prop52
140
1.0
102
RTVSPost2010PropOp52
 70
     0
102
RTVSPost2010Prop53
 90
        2
102
RTVSPost2010PropOp53
 70
     1
102
RTVSPost2010Prop54
  1
strokes_ogs.tif
102
RTVSPost2010PropOp54
 70
     1
102
RTVSPost2010Prop55
280
     0
102
RTVSPost2010PropOp55
 70
     1
102
RTVSPost2010Prop56
140
1.0
102
RTVSPost2010PropOp56
 70
     1
102
RTVSPost2010Prop57
140
1.0
102
RTVSPost2010PropOp57
 70
     1
102
RTVSPropertyOp0
 70
     1
102
RTVSPropertyOp1
 70
     1
102
RTVSPropertyOp2
 70
     1
102
RTVSPropertyOp3
 70
     1
102
RTVSPropertyOp4
 70
     1
102
RTVSPropertyOp5
 70
     1
102
RTVSPropertyOp6
 70
     1
102
RTVSPropertyOp7
 70
     1
102
RTVSPropertyOp8
 70
     1
102
RTVSPropertyOp9
 70
     1
102
RTVSPropertyOp10
 70
     1
102
RTVSPropertyOp11
 70
     1
102
RTVSPropertyOp12
 70
     1
102
RTVSPropertyOp13
 70
     1
102
RTVSPropertyOp14
 70
     1
102
RTVSPropertyOp15
 70
     1
102
RTVSPropertyOp16
 70
     1
102
RTVSPropertyOp17
 70
     1
102
RTVSPropertyOp18
 70
     1
102
RTVSPropertyOp19
 70
     1
102
RTVSPropertyOp20
 70
     1
102
RTVSPropertyOp21
 70
     1
102
RTVSPropertyOp22
 70
     1
102
RTVSPropertyOp23
 70
     1
102
RTVSPropertyOp24
 70
     1
102
RTVSPropertyOp25
 70
     1
102
RTVSPropertyOp26
 70
     1
102
RTVSPropertyOp27
 70
     1
102
RTVSPropertyOp28
 70
     1
102
RTVSPropertyOp29
 70
     1
102
RTVSPropertyOp30
 70
     1
102
RTVSPropertyOp31
 70
     1
102
RTVSPropertyOp32
 70
     1
102
RTVSPropertyOp33
 70
     1
102
RTVSPropertyOp34
 70
     1
102
RTVSPropertyOp35
 70
     1
102
RTVSPropertyOp36
 70
     1
102
RTVSPropertyOp37
 70
     1
102
RTVSPropertyOp38
 70
     1
102
RTVSPropertyOp39
 70
     1
102
RTVSPropertyOp40
 70
     1
102
RTVSPropertyOp41
 70
     1
102
RTVSPropertyOp42
 70
     1
102
RTVSPropertyOp43
 70
     1
102
RTVSPropertyOp44
 70
     1
102
RTVSPropertyOp45
 70
     1
102
RTVSPropertyOp46
 70
     1
102
RTVSPropertyOp47
 70
     1
102
RTVSPropertyOp48
 70
     1
102
RTVSPropertyOp49
 70
     1
102
RTVSPropertyOp50
 70
     1
102
RTVSPropertyOp51
 70
     0
102
RTVSPropertyOp52
 70
     0
102
RTVSPropertyOp53
 70
     1
102
RTVSPropertyOp54
 70
     1
102
RTVSPropertyOp55
 70
     1
102
RTVSPropertyOp56
 70
     1
102
RTVSPropertyOp57
 70
     1
102
RTVSPropertyOp58
 70
     1
102
RTVSPropertyOp59
 70
     1
102
RTVSPropertyOp60
 70
     1
102
RTVSPropertyOp61
 70
     1
102
RTVSPropertyOp62
 70
     1
  0
XRECORD
  5
F03
102
{ACAD_REACTORS
330
F02
102
}
330
F02
100
AcDbXrecord
280
     1
102
RTVSPost2010Prop28
280
     0
102
RTVSPost2010PropOp28
 70
     1
102
RTVSPost2010Prop29
280
     1
102
RTVSPost2010PropOp29
 70
     1
102
RTVSPost2010Prop30
280
     1
102
RTVSPost2010PropOp30
 70
     1
102
RTVSPost2010Prop31
280
     0
102
RTVSPost2010PropOp31
 70
     1
102
RTVSPost2010Prop32
280
     0
102
RTVSPost2010PropOp32
 70
     1
102
RTVSPost2010Prop33
280
     0
102
RTVSPost2010PropOp33
 70
     1
102
RTVSPost2010Prop34
280
     0
102
RTVSPost2010PropOp34
 70
     1
102
RTVSPost2010Prop35
280
     0
102
RTVSPost2010PropOp35
 70
     1
102
RTVSPost2010Prop36
280
     0
102
RTVSPost2010PropOp36
 70
     1
102
RTVSPost2010Prop37
 90
       50
102
RTVSPost2010PropOp37
 70
     0
102
RTVSPost2010Prop38
140
0.0
102
RTVSPost2010PropOp38
 70
     0
102
RTVSPost2010Prop39
140
1.0
102
RTVSPost2010PropOp39
 70
     0
102
RTVSPost2010Prop40
 90
        0
102
RTVSPost2010PropOp40
 70
     0
102
RTVSPost2010Prop41ColorIndex
 90
       18
102
RTVSPost2010Prop41ColorRGB
 90
        0
102
RTVSPost2010PropOp41
 70
     0
102
RTVSPost2010Prop42
 90
       50
102
RTVSPost2010PropOp42
 70
     0
102
RTVSPost2010Prop43
 90
        3
102
RTVSPost2010PropOp43
 70
     0
102
RTVSPost2010Prop44ColorIndex
 90
        5
102
RTVSPost2010Prop44ColorRGB
 90
      255
102
RTVSPost2010PropOp44
 70
     0
102
RTVSPost2010Prop45
280
     0
102
RTVSPost2010PropOp45
 70
     1
102
RTVSPost2010Prop46
 90
       50
102
RTVSPost2010PropOp46
 70
     0
102
RTVSPost2010Prop47
 90
       50
102
RTVSPost2010PropOp47
 70
     0
102
RTVSPost2010Prop48
 90
       50
102
RTVSPost2010PropOp48
 70
     0
102
RTVSPost2010Prop49
280
     0
102
RTVSPost2010PropOp49
 70
     1
102
RTVSPost2010Prop50
 90
       50
102
RTVSPost2010PropOp50
 70
     0
102
RTVSPost2010Prop51ColorIndex
 90
      256
102
RTVSPost2010Prop51ColorRGB
 90
-16777216
102
RTVSPost2010PropOp51
 70
     0
102
RTVSPost2010Prop52
140
1.0
102
RTVSPost2010PropOp52
 70
     0
102
RTVSPost2010Prop53
 90
        2
102
RTVSPost2010PropOp53
 70
     0
102
RTVSPost2010Prop54
  1
strokes_ogs.tif
102
RTVSPost2010PropOp54
 70
     0
102
RTVSPost2010Prop55
280
     0
102
RTVSPost2010PropOp55
 70
     1
102
RTVSPost2010Prop56
140
1.0
102
RTVSPost2010PropOp56
 70
     0
102
RTVSPost2010Prop57
140
1.0
102
RTVSPost2010PropOp57
 70
     0
102
RTVSPropertyOp0
 70
     0
102
RTVSPropertyOp1
 70
     0
102
RTVSPropertyOp2
 70
     0
102
RTVSPropertyOp3
 70
     0
102
RTVSPropertyOp4
 70
     0
102
RTVSPropertyOp5
 70
     0
102
RTVSPropertyOp6
 70
     0
102
RTVSPropertyOp7
 70
     0
102
RTVSPropertyOp8
 70
     0
102
RTVSPropertyOp9
 70
     0
102
RTVSPropertyOp10
 70
     0
102
RTVSPropertyOp11
 70
     0
102
RTVSPropertyOp12
 70
     0
102
RTVSPropertyOp13
 70
     0
102
RTVSPropertyOp14
 70
     2
102
RTVSPropertyOp15
 70
     0
102
RTVSPropertyOp16
 70
     0
102
RTVSPropertyOp17
 70
     0
102
RTVSPropertyOp18
 70
     0
102
RTVSPropertyOp19
 70
     0
102
RTVSPropertyOp20
 70
     0
102
RTVSPropertyOp21
 70
     0
102
RTVSPropertyOp22
 70
     0
102
RTVSPropertyOp23
 70
     0
102
RTVSPropertyOp24
 70
     0
102
RTVSPropertyOp25
 70
     0
102
RTVSPropertyOp26
 70
     0
102
RTVSPropertyOp27
 70
     0
102
RTVSPropertyOp28
 70
     1
102
RTVSPropertyOp29
 70
     1
102
RTVSPropertyOp30
 70
     1
102
RTVSPropertyOp31
 70
     1
102
RTVSPropertyOp32
 70
     1
102
RTVSPropertyOp33
 70
     1
102
RTVSPropertyOp34
 70
     1
102
RTVSPropertyOp35
 70
     1
102
RTVSPropertyOp36
 70
     1
102
RTVSPropertyOp37
 70
     0
102
RTVSPropertyOp38
 70
     0
102
RTVSPropertyOp39
 70
     0
102
RTVSPropertyOp40
 70
     0
102
RTVSPropertyOp41
 70
     0
102
RTVSPropertyOp42
 70
     0
102
RTVSPropertyOp43
 70
     0
102
RTVSPropertyOp44
 70
     0
102
RTVSPropertyOp45
 70
     1
102
RTVSPropertyOp46
 70
     0
102
RTVSPropertyOp47
 70
     0
102
RTVSPropertyOp48
 70
     0
102
RTVSPropertyOp49
 70
     1
102
RTVSPropertyOp50
 70
     0
102
RTVSPropertyOp51
 70
     0
102
RTVSPropertyOp52
 70
     0
102
RTVSPropertyOp53
 70
     0
102
RTVSPropertyOp54
 70
     0
102
RTVSPropertyOp55
 70
     1
102
RTVSPropertyOp56
 70
     0
102
RTVSPropertyOp57
 70
     0
102
RTVSPropertyOp58
 70
     0
102
RTVSPropertyOp59
 70
     0
102
RTVSPropertyOp60
 70
     0
102
RTVSPropertyOp61
 70
     0
102
RTVSPropertyOp62
 70
     0
  0
XRECORD
  5
EF3
102
{ACAD_REACTORS
330
EF2
102
}
330
EF2
100
AcDbXrecord
280
     1
102
RTVSPost2010Prop28
280
     0
102
RTVSPost2010PropOp28
 70
     1
102
RTVSPost2010Prop29
280
     1
102
RTVSPost2010PropOp29
 70
     1
102
RTVSPost2010Prop30
280
     1
102
RTVSPost2010PropOp30
 70
     1
102
RTVSPost2010Prop31
280
     0
102
RTVSPost2010PropOp31
 70
     1
102
RTVSPost2010Prop32
280
     0
102
RTVSPost2010PropOp32
 70
     1
102
RTVSPost2010Prop33
280
     0
102
RTVSPost2010PropOp33
 70
     1
102
RTVSPost2010Prop34
280
     0
102
RTVSPost2010PropOp34
 70
     1
102
RTVSPost2010Prop35
280
     0
102
RTVSPost2010PropOp35
 70
     1
102
RTVSPost2010Prop36
280
     0
102
RTVSPost2010PropOp36
 70
     1
102
RTVSPost2010Prop37
 90
       50
102
RTVSPost2010PropOp37
 70
     1
102
RTVSPost2010Prop38
140
0.0
102
RTVSPost2010PropOp38
 70
     1
102
RTVSPost2010Prop39
140
1.0
102
RTVSPost2010PropOp39
 70
     1
102
RTVSPost2010Prop40
 90
        0
102
RTVSPost2010PropOp40
 70
     1
102
RTVSPost2010Prop41ColorIndex
 90
       18
102
RTVSPost2010Prop41ColorRGB
 90
        0
102
RTVSPost2010PropOp41
 70
     1
102
RTVSPost2010Prop42
 90
       50
102
RTVSPost2010PropOp42
 70
     1
102
RTVSPost2010Prop43
 90
        3
102
RTVSPost2010PropOp43
 70
     1
102
RTVSPost2010Prop44ColorIndex
 90
        5
102
RTVSPost2010Prop44ColorRGB
 90
      255
102
RTVSPost2010PropOp44
 70
     1
102
RTVSPost2010Prop45
280
     0
102
RTVSPost2010PropOp45
 70
     1
102
RTVSPost2010Prop46
 90
       50
102
RTVSPost2010PropOp46
 70
     1
102
RTVSPost2010Prop47
 90
       50
102
RTVSPost2010PropOp47
 70
     1
102
RTVSPost2010Prop48
 90
       50
102
RTVSPost2010PropOp48
 70
     1
102
RTVSPost2010Prop49
280
     0
102
RTVSPost2010PropOp49
 70
     1
102
RTVSPost2010Prop50
 90
       50
102
RTVSPost2010PropOp50
 70
     1
102
RTVSPost2010Prop51ColorIndex
 90
      256
102
RTVSPost2010Prop51ColorRGB
 90
-16777216
102
RTVSPost2010PropOp51
 70
     0
102
RTVSPost2010Prop52
140
1.0
102
RTVSPost2010PropOp52
 70
     0
102
RTVSPost2010Prop53
 90
        2
102
RTVSPost2010PropOp53
 70
     1
102
RTVSPost2010Prop54
  1
strokes_ogs.tif
102
RTVSPost2010PropOp54
 70
     1
102
RTVSPost2010Prop55
280
     0
102
RTVSPost2010PropOp55
 70
     1
102
RTVSPost2010Prop56
140
1.0
102
RTVSPost2010PropOp56
 70
     1
102
RTVSPost2010Prop57
140
1.0
102
RTVSPost2010PropOp57
 70
     1
102
RTVSPropertyOp0
 70
     1
102
RTVSPropertyOp1
 70
     1
102
RTVSPropertyOp2
 70
     1
102
RTVSPropertyOp3
 70
     1
102
RTVSPropertyOp4
 70
     1
102
RTVSPropertyOp5
 70
     1
102
RTVSPropertyOp6
 70
     1
102
RTVSPropertyOp7
 70
     1
102
RTVSPropertyOp8
 70
     1
102
RTVSPropertyOp9
 70
     1
102
RTVSPropertyOp10
 70
     1
102
RTVSPropertyOp11
 70
     1
102
RTVSPropertyOp12
 70
     1
102
RTVSPropertyOp13
 70
     1
102
RTVSPropertyOp14
 70
     1
102
RTVSPropertyOp15
 70
     1
102
RTVSPropertyOp16
 70
     1
102
RTVSPropertyOp17
 70
     1
102
RTVSPropertyOp18
 70
     1
102
RTVSPropertyOp19
 70
     1
102
RTVSPropertyOp20
 70
     1
102
RTVSPropertyOp21
 70
     1
102
RTVSPropertyOp22
 70
     1
102
RTVSPropertyOp23
 70
     1
102
RTVSPropertyOp24
 70
     1
102
RTVSPropertyOp25
 70
     1
102
RTVSPropertyOp26
 70
     1
102
RTVSPropertyOp27
 70
     1
102
RTVSPropertyOp28
 70
     1
102
RTVSPropertyOp29
 70
     1
102
RTVSPropertyOp30
 70
     1
102
RTVSPropertyOp31
 70
     1
102
RTVSPropertyOp32
 70
     1
102
RTVSPropertyOp33
 70
     1
102
RTVSPropertyOp34
 70
     1
102
RTVSPropertyOp35
 70
     1
102
RTVSPropertyOp36
 70
     1
102
RTVSPropertyOp37
 70
     1
102
RTVSPropertyOp38
 70
     1
102
RTVSPropertyOp39
 70
     1
102
RTVSPropertyOp40
 70
     1
102
RTVSPropertyOp41
 70
     1
102
RTVSPropertyOp42
 70
     1
102
RTVSPropertyOp43
 70
     1
102
RTVSPropertyOp44
 70
     1
102
RTVSPropertyOp45
 70
     1
102
RTVSPropertyOp46
 70
     1
102
RTVSPropertyOp47
 70
     1
102
RTVSPropertyOp48
 70
     1
102
RTVSPropertyOp49
 70
     1
102
RTVSPropertyOp50
 70
     1
102
RTVSPropertyOp51
 70
     0
102
RTVSPropertyOp52
 70
     0
102
RTVSPropertyOp53
 70
     1
102
RTVSPropertyOp54
 70
     1
102
RTVSPropertyOp55
 70
     1
102
RTVSPropertyOp56
 70
     1
102
RTVSPropertyOp57
 70
     1
102
RTVSPropertyOp58
 70
     1
102
RTVSPropertyOp59
 70
     1
102
RTVSPropertyOp60
 70
     1
102
RTVSPropertyOp61
 70
     1
102
RTVSPropertyOp62
 70
     1
  0
XRECORD
  5
F05
102
{ACAD_REACTORS
330
F04
102
}
330
F04
100
AcDbXrecord
280
     1
102
RTVSPost2010Prop28
280
     0
102
RTVSPost2010PropOp28
 70
     1
102
RTVSPost2010Prop29
280
     1
102
RTVSPost2010PropOp29
 70
     1
102
RTVSPost2010Prop30
280
     1
102
RTVSPost2010PropOp30
 70
     1
102
RTVSPost2010Prop31
280
     0
102
RTVSPost2010PropOp31
 70
     1
102
RTVSPost2010Prop32
280
     0
102
RTVSPost2010PropOp32
 70
     1
102
RTVSPost2010Prop33
280
     0
102
RTVSPost2010PropOp33
 70
     1
102
RTVSPost2010Prop34
280
     0
102
RTVSPost2010PropOp34
 70
     1
102
RTVSPost2010Prop35
280
     0
102
RTVSPost2010PropOp35
 70
     1
102
RTVSPost2010Prop36
280
     0
102
RTVSPost2010PropOp36
 70
     1
102
RTVSPost2010Prop37
 90
       50
102
RTVSPost2010PropOp37
 70
     0
102
RTVSPost2010Prop38
140
0.0
102
RTVSPost2010PropOp38
 70
     0
102
RTVSPost2010Prop39
140
1.0
102
RTVSPost2010PropOp39
 70
     0
102
RTVSPost2010Prop40
 90
        0
102
RTVSPost2010PropOp40
 70
     0
102
RTVSPost2010Prop41ColorIndex
 90
       18
102
RTVSPost2010Prop41ColorRGB
 90
        0
102
RTVSPost2010PropOp41
 70
     0
102
RTVSPost2010Prop42
 90
       50
102
RTVSPost2010PropOp42
 70
     0
102
RTVSPost2010Prop43
 90
        3
102
RTVSPost2010PropOp43
 70
     0
102
RTVSPost2010Prop44ColorIndex
 90
        5
102
RTVSPost2010Prop44ColorRGB
 90
      255
102
RTVSPost2010PropOp44
 70
     0
102
RTVSPost2010Prop45
280
     0
102
RTVSPost2010PropOp45
 70
     1
102
RTVSPost2010Prop46
 90
       50
102
RTVSPost2010PropOp46
 70
     0
102
RTVSPost2010Prop47
 90
       50
102
RTVSPost2010PropOp47
 70
     0
102
RTVSPost2010Prop48
 90
       50
102
RTVSPost2010PropOp48
 70
     0
102
RTVSPost2010Prop49
280
     0
102
RTVSPost2010PropOp49
 70
     1
102
RTVSPost2010Prop50
 90
       50
102
RTVSPost2010PropOp50
 70
     0
102
RTVSPost2010Prop51ColorIndex
 90
      256
102
RTVSPost2010Prop51ColorRGB
 90
-16777216
102
RTVSPost2010PropOp51
 70
     0
102
RTVSPost2010Prop52
140
1.0
102
RTVSPost2010PropOp52
 70
     0
102
RTVSPost2010Prop53
 90
        2
102
RTVSPost2010PropOp53
 70
     0
102
RTVSPost2010Prop54
  1
strokes_ogs.tif
102
RTVSPost2010PropOp54
 70
     0
102
RTVSPost2010Prop55
280
     0
102
RTVSPost2010PropOp55
 70
     1
102
RTVSPost2010Prop56
140
1.0
102
RTVSPost2010PropOp56
 70
     0
102
RTVSPost2010Prop57
140
1.0
102
RTVSPost2010PropOp57
 70
     0
102
RTVSPropertyOp0
 70
     0
102
RTVSPropertyOp1
 70
     0
102
RTVSPropertyOp2
 70
     0
102
RTVSPropertyOp3
 70
     0
102
RTVSPropertyOp4
 70
     0
102
RTVSPropertyOp5
 70
     0
102
RTVSPropertyOp6
 70
     0
102
RTVSPropertyOp7
 70
     0
102
RTVSPropertyOp8
 70
     0
102
RTVSPropertyOp9
 70
     0
102
RTVSPropertyOp10
 70
     0
102
RTVSPropertyOp11
 70
     0
102
RTVSPropertyOp12
 70
     0
102
RTVSPropertyOp13
 70
     0
102
RTVSPropertyOp14
 70
     2
102
RTVSPropertyOp15
 70
     0
102
RTVSPropertyOp16
 70
     0
102
RTVSPropertyOp17
 70
     0
102
RTVSPropertyOp18
 70
     0
102
RTVSPropertyOp19
 70
     0
102
RTVSPropertyOp20
 70
     0
102
RTVSPropertyOp21
 70
     0
102
RTVSPropertyOp22
 70
     0
102
RTVSPropertyOp23
 70
     0
102
RTVSPropertyOp24
 70
     0
102
RTVSPropertyOp25
 70
     0
102
RTVSPropertyOp26
 70
     0
102
RTVSPropertyOp27
 70
     0
102
RTVSPropertyOp28
 70
     1
102
RTVSPropertyOp29
 70
     1
102
RTVSPropertyOp30
 70
     1
102
RTVSPropertyOp31
 70
     1
102
RTVSPropertyOp32
 70
     1
102
RTVSPropertyOp33
 70
     1
102
RTVSPropertyOp34
 70
     1
102
RTVSPropertyOp35
 70
     1
102
RTVSPropertyOp36
 70
     1
102
RTVSPropertyOp37
 70
     0
102
RTVSPropertyOp38
 70
     0
102
RTVSPropertyOp39
 70
     0
102
RTVSPropertyOp40
 70
     0
102
RTVSPropertyOp41
 70
     0
102
RTVSPropertyOp42
 70
     0
102
RTVSPropertyOp43
 70
     0
102
RTVSPropertyOp44
 70
     0
102
RTVSPropertyOp45
 70
     1
102
RTVSPropertyOp46
 70
     0
102
RTVSPropertyOp47
 70
     0
102
RTVSPropertyOp48
 70
     0
102
RTVSPropertyOp49
 70
     1
102
RTVSPropertyOp50
 70
     0
102
RTVSPropertyOp51
 70
     0
102
RTVSPropertyOp52
 70
     0
102
RTVSPropertyOp53
 70
     0
102
RTVSPropertyOp54
 70
     0
102
RTVSPropertyOp55
 70
     1
102
RTVSPropertyOp56
 70
     0
102
RTVSPropertyOp57
 70
     0
102
RTVSPropertyOp58
 70
     0
102
RTVSPropertyOp59
 70
     0
102
RTVSPropertyOp60
 70
     0
102
RTVSPropertyOp61
 70
     0
102
RTVSPropertyOp62
 70
     0
  0
XRECORD
  5
EEB
102
{ACAD_REACTORS
330
EEA
102
}
330
EEA
100
AcDbXrecord
280
     1
102
RTVSPost2010Prop28
280
     0
102
RTVSPost2010PropOp28
 70
     1
102
RTVSPost2010Prop29
280
     1
102
RTVSPost2010PropOp29
 70
     1
102
RTVSPost2010Prop30
280
     1
102
RTVSPost2010PropOp30
 70
     1
102
RTVSPost2010Prop31
280
     0
102
RTVSPost2010PropOp31
 70
     1
102
RTVSPost2010Prop32
280
     0
102
RTVSPost2010PropOp32
 70
     1
102
RTVSPost2010Prop33
280
     0
102
RTVSPost2010PropOp33
 70
     1
102
RTVSPost2010Prop34
280
     0
102
RTVSPost2010PropOp34
 70
     1
102
RTVSPost2010Prop35
280
     0
102
RTVSPost2010PropOp35
 70
     1
102
RTVSPost2010Prop36
280
     0
102
RTVSPost2010PropOp36
 70
     1
102
RTVSPost2010Prop37
 90
       50
102
RTVSPost2010PropOp37
 70
     1
102
RTVSPost2010Prop38
140
0.0
102
RTVSPost2010PropOp38
 70
     1
102
RTVSPost2010Prop39
140
1.0
102
RTVSPost2010PropOp39
 70
     1
102
RTVSPost2010Prop40
 90
        0
102
RTVSPost2010PropOp40
 70
     1
102
RTVSPost2010Prop41ColorIndex
 90
       18
102
RTVSPost2010Prop41ColorRGB
 90
        0
102
RTVSPost2010PropOp41
 70
     1
102
RTVSPost2010Prop42
 90
       50
102
RTVSPost2010PropOp42
 70
     1
102
RTVSPost2010Prop43
 90
        3
102
RTVSPost2010PropOp43
 70
     1
102
RTVSPost2010Prop44ColorIndex
 90
        5
102
RTVSPost2010Prop44ColorRGB
 90
      255
102
RTVSPost2010PropOp44
 70
     1
102
RTVSPost2010Prop45
280
     0
102
RTVSPost2010PropOp45
 70
     1
102
RTVSPost2010Prop46
 90
       50
102
RTVSPost2010PropOp46
 70
     1
102
RTVSPost2010Prop47
 90
       50
102
RTVSPost2010PropOp47
 70
     1
102
RTVSPost2010Prop48
 90
       50
102
RTVSPost2010PropOp48
 70
     1
102
RTVSPost2010Prop49
280
     0
102
RTVSPost2010PropOp49
 70
     1
102
RTVSPost2010Prop50
 90
       50
102
RTVSPost2010PropOp50
 70
     1
102
RTVSPost2010Prop51ColorIndex
 90
      256
102
RTVSPost2010Prop51ColorRGB
 90
-16777216
102
RTVSPost2010PropOp51
 70
     0
102
RTVSPost2010Prop52
140
1.0
102
RTVSPost2010PropOp52
 70
     0
102
RTVSPost2010Prop53
 90
        2
102
RTVSPost2010PropOp53
 70
     1
102
RTVSPost2010Prop54
  1
strokes_ogs.tif
102
RTVSPost2010PropOp54
 70
     1
102
RTVSPost2010Prop55
280
     0
102
RTVSPost2010PropOp55
 70
     1
102
RTVSPost2010Prop56
140
1.0
102
RTVSPost2010PropOp56
 70
     1
102
RTVSPost2010Prop57
140
1.0
102
RTVSPost2010PropOp57
 70
     1
102
RTVSPropertyOp0
 70
     1
102
RTVSPropertyOp1
 70
     1
102
RTVSPropertyOp2
 70
     1
102
RTVSPropertyOp3
 70
     1
102
RTVSPropertyOp4
 70
     1
102
RTVSPropertyOp5
 70
     1
102
RTVSPropertyOp6
 70
     1
102
RTVSPropertyOp7
 70
     1
102
RTVSPropertyOp8
 70
     1
102
RTVSPropertyOp9
 70
     1
102
RTVSPropertyOp10
 70
     1
102
RTVSPropertyOp11
 70
     1
102
RTVSPropertyOp12
 70
     1
102
RTVSPropertyOp13
 70
     1
102
RTVSPropertyOp14
 70
     1
102
RTVSPropertyOp15
 70
     1
102
RTVSPropertyOp16
 70
     1
102
RTVSPropertyOp17
 70
     1
102
RTVSPropertyOp18
 70
     1
102
RTVSPropertyOp19
 70
     1
102
RTVSPropertyOp20
 70
     1
102
RTVSPropertyOp21
 70
     1
102
RTVSPropertyOp22
 70
     1
102
RTVSPropertyOp23
 70
     1
102
RTVSPropertyOp24
 70
     1
102
RTVSPropertyOp25
 70
     1
102
RTVSPropertyOp26
 70
     1
102
RTVSPropertyOp27
 70
     1
102
RTVSPropertyOp28
 70
     1
102
RTVSPropertyOp29
 70
     1
102
RTVSPropertyOp30
 70
     1
102
RTVSPropertyOp31
 70
     1
102
RTVSPropertyOp32
 70
     1
102
RTVSPropertyOp33
 70
     1
102
RTVSPropertyOp34
 70
     1
102
RTVSPropertyOp35
 70
     1
102
RTVSPropertyOp36
 70
     1
102
RTVSPropertyOp37
 70
     1
102
RTVSPropertyOp38
 70
     1
102
RTVSPropertyOp39
 70
     1
102
RTVSPropertyOp40
 70
     1
102
RTVSPropertyOp41
 70
     1
102
RTVSPropertyOp42
 70
     1
102
RTVSPropertyOp43
 70
     1
102
RTVSPropertyOp44
 70
     1
102
RTVSPropertyOp45
 70
     1
102
RTVSPropertyOp46
 70
     1
102
RTVSPropertyOp47
 70
     1
102
RTVSPropertyOp48
 70
     1
102
RTVSPropertyOp49
 70
     1
102
RTVSPropertyOp50
 70
     1
102
RTVSPropertyOp51
 70
     0
102
RTVSPropertyOp52
 70
     0
102
RTVSPropertyOp53
 70
     1
102
RTVSPropertyOp54
 70
     1
102
RTVSPropertyOp55
 70
     1
102
RTVSPropertyOp56
 70
     1
102
RTVSPropertyOp57
 70
     1
102
RTVSPropertyOp58
 70
     1
102
RTVSPropertyOp59
 70
     1
102
RTVSPropertyOp60
 70
     1
102
RTVSPropertyOp61
 70
     1
102
RTVSPropertyOp62
 70
     1
  0
XRECORD
  5
F01
102
{ACAD_REACTORS
330
F00
102
}
330
F00
100
AcDbXrecord
280
     1
102
RTVSPost2010Prop28
280
     0
102
RTVSPost2010PropOp28
 70
     1
102
RTVSPost2010Prop29
280
     1
102
RTVSPost2010PropOp29
 70
     1
102
RTVSPost2010Prop30
280
     1
102
RTVSPost2010PropOp30
 70
     1
102
RTVSPost2010Prop31
280
     0
102
RTVSPost2010PropOp31
 70
     1
102
RTVSPost2010Prop32
280
     0
102
RTVSPost2010PropOp32
 70
     1
102
RTVSPost2010Prop33
280
     0
102
RTVSPost2010PropOp33
 70
     1
102
RTVSPost2010Prop34
280
     0
102
RTVSPost2010PropOp34
 70
     1
102
RTVSPost2010Prop35
280
     0
102
RTVSPost2010PropOp35
 70
     1
102
RTVSPost2010Prop36
280
     0
102
RTVSPost2010PropOp36
 70
     1
102
RTVSPost2010Prop37
 90
       50
102
RTVSPost2010PropOp37
 70
     1
102
RTVSPost2010Prop38
140
0.0
102
RTVSPost2010PropOp38
 70
     1
102
RTVSPost2010Prop39
140
1.0
102
RTVSPost2010PropOp39
 70
     1
102
RTVSPost2010Prop40
 90
        0
102
RTVSPost2010PropOp40
 70
     1
102
RTVSPost2010Prop41ColorIndex
 90
       18
102
RTVSPost2010Prop41ColorRGB
 90
        0
102
RTVSPost2010PropOp41
 70
     1
102
RTVSPost2010Prop42
 90
       50
102
RTVSPost2010PropOp42
 70
     1
102
RTVSPost2010Prop43
 90
        3
102
RTVSPost2010PropOp43
 70
     1
102
RTVSPost2010Prop44ColorIndex
 90
        5
102
RTVSPost2010Prop44ColorRGB
 90
      255
102
RTVSPost2010PropOp44
 70
     1
102
RTVSPost2010Prop45
280
     0
102
RTVSPost2010PropOp45
 70
     1
102
RTVSPost2010Prop46
 90
       50
102
RTVSPost2010PropOp46
 70
     1
102
RTVSPost2010Prop47
 90
       50
102
RTVSPost2010PropOp47
 70
     1
102
RTVSPost2010Prop48
 90
       50
102
RTVSPost2010PropOp48
 70
     1
102
RTVSPost2010Prop49
280
     0
102
RTVSPost2010PropOp49
 70
     1
102
RTVSPost2010Prop50
 90
       50
102
RTVSPost2010PropOp50
 70
     1
102
RTVSPost2010Prop51ColorIndex
 90
      256
102
RTVSPost2010Prop51ColorRGB
 90
-16777216
102
RTVSPost2010PropOp51
 70
     0
102
RTVSPost2010Prop52
140
1.0
102
RTVSPost2010PropOp52
 70
     0
102
RTVSPost2010Prop53
 90
        2
102
RTVSPost2010PropOp53
 70
     1
102
RTVSPost2010Prop54
  1
strokes_ogs.tif
102
RTVSPost2010PropOp54
 70
     1
102
RTVSPost2010Prop55
280
     0
102
RTVSPost2010PropOp55
 70
     1
102
RTVSPost2010Prop56
140
1.0
102
RTVSPost2010PropOp56
 70
     1
102
RTVSPost2010Prop57
140
1.0
102
RTVSPost2010PropOp57
 70
     1
102
RTVSPropertyOp0
 70
     1
102
RTVSPropertyOp1
 70
     1
102
RTVSPropertyOp2
 70
     1
102
RTVSPropertyOp3
 70
     1
102
RTVSPropertyOp4
 70
     1
102
RTVSPropertyOp5
 70
     1
102
RTVSPropertyOp6
 70
     1
102
RTVSPropertyOp7
 70
     1
102
RTVSPropertyOp8
 70
     1
102
RTVSPropertyOp9
 70
     1
102
RTVSPropertyOp10
 70
     1
102
RTVSPropertyOp11
 70
     1
102
RTVSPropertyOp12
 70
     1
102
RTVSPropertyOp13
 70
     1
102
RTVSPropertyOp14
 70
     1
102
RTVSPropertyOp15
 70
     1
102
RTVSPropertyOp16
 70
     1
102
RTVSPropertyOp17
 70
     1
102
RTVSPropertyOp18
 70
     1
102
RTVSPropertyOp19
 70
     1
102
RTVSPropertyOp20
 70
     1
102
RTVSPropertyOp21
 70
     1
102
RTVSPropertyOp22
 70
     1
102
RTVSPropertyOp23
 70
     1
102
RTVSPropertyOp24
 70
     1
102
RTVSPropertyOp25
 70
     1
102
RTVSPropertyOp26
 70
     1
102
RTVSPropertyOp27
 70
     1
102
RTVSPropertyOp28
 70
     1
102
RTVSPropertyOp29
 70
     1
102
RTVSPropertyOp30
 70
     1
102
RTVSPropertyOp31
 70
     1
102
RTVSPropertyOp32
 70
     1
102
RTVSPropertyOp33
 70
     1
102
RTVSPropertyOp34
 70
     1
102
RTVSPropertyOp35
 70
     1
102
RTVSPropertyOp36
 70
     1
102
RTVSPropertyOp37
 70
     1
102
RTVSPropertyOp38
 70
     1
102
RTVSPropertyOp39
 70
     1
102
RTVSPropertyOp40
 70
     1
102
RTVSPropertyOp41
 70
     1
102
RTVSPropertyOp42
 70
     1
102
RTVSPropertyOp43
 70
     1
102
RTVSPropertyOp44
 70
     1
102
RTVSPropertyOp45
 70
     1
102
RTVSPropertyOp46
 70
     1
102
RTVSPropertyOp47
 70
     1
102
RTVSPropertyOp48
 70
     1
102
RTVSPropertyOp49
 70
     1
102
RTVSPropertyOp50
 70
     1
102
RTVSPropertyOp51
 70
     0
102
RTVSPropertyOp52
 70
     0
102
RTVSPropertyOp53
 70
     1
102
RTVSPropertyOp54
 70
     1
102
RTVSPropertyOp55
 70
     1
102
RTVSPropertyOp56
 70
     1
102
RTVSPropertyOp57
 70
     1
102
RTVSPropertyOp58
 70
     1
102
RTVSPropertyOp59
 70
     1
102
RTVSPropertyOp60
 70
     1
102
RTVSPropertyOp61
 70
     1
102
RTVSPropertyOp62
 70
     1
  0
XRECORD
  5
EFF
102
{ACAD_REACTORS
330
EFE
102
}
330
EFE
100
AcDbXrecord
280
     1
102
RTVSPost2010Prop28
280
     0
102
RTVSPost2010PropOp28
 70
     1
102
RTVSPost2010Prop29
280
     1
102
RTVSPost2010PropOp29
 70
     1
102
RTVSPost2010Prop30
280
     1
102
RTVSPost2010PropOp30
 70
     1
102
RTVSPost2010Prop31
280
     0
102
RTVSPost2010PropOp31
 70
     1
102
RTVSPost2010Prop32
280
     0
102
RTVSPost2010PropOp32
 70
     1
102
RTVSPost2010Prop33
280
     0
102
RTVSPost2010PropOp33
 70
     1
102
RTVSPost2010Prop34
280
     0
102
RTVSPost2010PropOp34
 70
     1
102
RTVSPost2010Prop35
280
     0
102
RTVSPost2010PropOp35
 70
     1
102
RTVSPost2010Prop36
280
     0
102
RTVSPost2010PropOp36
 70
     1
102
RTVSPost2010Prop37
 90
       50
102
RTVSPost2010PropOp37
 70
     1
102
RTVSPost2010Prop38
140
0.0
102
RTVSPost2010PropOp38
 70
     1
102
RTVSPost2010Prop39
140
1.0
102
RTVSPost2010PropOp39
 70
     1
102
RTVSPost2010Prop40
 90
        0
102
RTVSPost2010PropOp40
 70
     1
102
RTVSPost2010Prop41ColorIndex
 90
       18
102
RTVSPost2010Prop41ColorRGB
 90
        0
102
RTVSPost2010PropOp41
 70
     1
102
RTVSPost2010Prop42
 90
       50
102
RTVSPost2010PropOp42
 70
     1
102
RTVSPost2010Prop43
 90
        3
102
RTVSPost2010PropOp43
 70
     1
102
RTVSPost2010Prop44ColorIndex
 90
        5
102
RTVSPost2010Prop44ColorRGB
 90
      255
102
RTVSPost2010PropOp44
 70
     1
102
RTVSPost2010Prop45
280
     0
102
RTVSPost2010PropOp45
 70
     1
102
RTVSPost2010Prop46
 90
       50
102
RTVSPost2010PropOp46
 70
     1
102
RTVSPost2010Prop47
 90
       50
102
RTVSPost2010PropOp47
 70
     1
102
RTVSPost2010Prop48
 90
       50
102
RTVSPost2010PropOp48
 70
     1
102
RTVSPost2010Prop49
280
     0
102
RTVSPost2010PropOp49
 70
     1
102
RTVSPost2010Prop50
 90
       50
102
RTVSPost2010PropOp50
 70
     1
102
RTVSPost2010Prop51ColorIndex
 90
      256
102
RTVSPost2010Prop51ColorRGB
 90
-16777216
102
RTVSPost2010PropOp51
 70
     0
102
RTVSPost2010Prop52
140
1.0
102
RTVSPost2010PropOp52
 70
     0
102
RTVSPost2010Prop53
 90
        2
102
RTVSPost2010PropOp53
 70
     1
102
RTVSPost2010Prop54
  1
strokes_ogs.tif
102
RTVSPost2010PropOp54
 70
     1
102
RTVSPost2010Prop55
280
     0
102
RTVSPost2010PropOp55
 70
     1
102
RTVSPost2010Prop56
140
1.0
102
RTVSPost2010PropOp56
 70
     1
102
RTVSPost2010Prop57
140
1.0
102
RTVSPost2010PropOp57
 70
     1
102
RTVSPropertyOp0
 70
     1
102
RTVSPropertyOp1
 70
     1
102
RTVSPropertyOp2
 70
     1
102
RTVSPropertyOp3
 70
     1
102
RTVSPropertyOp4
 70
     1
102
RTVSPropertyOp5
 70
     1
102
RTVSPropertyOp6
 70
     1
102
RTVSPropertyOp7
 70
     1
102
RTVSPropertyOp8
 70
     1
102
RTVSPropertyOp9
 70
     1
102
RTVSPropertyOp10
 70
     1
102
RTVSPropertyOp11
 70
     1
102
RTVSPropertyOp12
 70
     1
102
RTVSPropertyOp13
 70
     1
102
RTVSPropertyOp14
 70
     1
102
RTVSPropertyOp15
 70
     1
102
RTVSPropertyOp16
 70
     1
102
RTVSPropertyOp17
 70
     1
102
RTVSPropertyOp18
 70
     1
102
RTVSPropertyOp19
 70
     1
102
RTVSPropertyOp20
 70
     1
102
RTVSPropertyOp21
 70
     1
102
RTVSPropertyOp22
 70
     1
102
RTVSPropertyOp23
 70
     1
102
RTVSPropertyOp24
 70
     1
102
RTVSPropertyOp25
 70
     1
102
RTVSPropertyOp26
 70
     1
102
RTVSPropertyOp27
 70
     1
102
RTVSPropertyOp28
 70
     1
102
RTVSPropertyOp29
 70
     1
102
RTVSPropertyOp30
 70
     1
102
RTVSPropertyOp31
 70
     1
102
RTVSPropertyOp32
 70
     1
102
RTVSPropertyOp33
 70
     1
102
RTVSPropertyOp34
 70
     1
102
RTVSPropertyOp35
 70
     1
102
RTVSPropertyOp36
 70
     1
102
RTVSPropertyOp37
 70
     1
102
RTVSPropertyOp38
 70
     1
102
RTVSPropertyOp39
 70
     1
102
RTVSPropertyOp40
 70
     1
102
RTVSPropertyOp41
 70
     1
102
RTVSPropertyOp42
 70
     1
102
RTVSPropertyOp43
 70
     1
102
RTVSPropertyOp44
 70
     1
102
RTVSPropertyOp45
 70
     1
102
RTVSPropertyOp46
 70
     1
102
RTVSPropertyOp47
 70
     1
102
RTVSPropertyOp48
 70
     1
102
RTVSPropertyOp49
 70
     1
102
RTVSPropertyOp50
 70
     1
102
RTVSPropertyOp51
 70
     0
102
RTVSPropertyOp52
 70
     0
102
RTVSPropertyOp53
 70
     1
102
RTVSPropertyOp54
 70
     1
102
RTVSPropertyOp55
 70
     1
102
RTVSPropertyOp56
 70
     1
102
RTVSPropertyOp57
 70
     1
102
RTVSPropertyOp58
 70
     1
102
RTVSPropertyOp59
 70
     1
102
RTVSPropertyOp60
 70
     1
102
RTVSPropertyOp61
 70
     1
102
RTVSPropertyOp62
 70
     1
  0
XRECORD
  5
EF9
102
{ACAD_REACTORS
330
EF8
102
}
330
EF8
100
AcDbXrecord
280
     1
102
RTVSPost2010Prop28
280
     0
102
RTVSPost2010PropOp28
 70
     1
102
RTVSPost2010Prop29
280
     1
102
RTVSPost2010PropOp29
 70
     1
102
RTVSPost2010Prop30
280
     1
102
RTVSPost2010PropOp30
 70
     1
102
RTVSPost2010Prop31
280
     0
102
RTVSPost2010PropOp31
 70
     1
102
RTVSPost2010Prop32
280
     0
102
RTVSPost2010PropOp32
 70
     1
102
RTVSPost2010Prop33
280
     0
102
RTVSPost2010PropOp33
 70
     1
102
RTVSPost2010Prop34
280
     0
102
RTVSPost2010PropOp34
 70
     1
102
RTVSPost2010Prop35
280
     0
102
RTVSPost2010PropOp35
 70
     1
102
RTVSPost2010Prop36
280
     0
102
RTVSPost2010PropOp36
 70
     1
102
RTVSPost2010Prop37
 90
       50
102
RTVSPost2010PropOp37
 70
     1
102
RTVSPost2010Prop38
140
0.0
102
RTVSPost2010PropOp38
 70
     1
102
RTVSPost2010Prop39
140
1.0
102
RTVSPost2010PropOp39
 70
     1
102
RTVSPost2010Prop40
 90
        0
102
RTVSPost2010PropOp40
 70
     1
102
RTVSPost2010Prop41ColorIndex
 90
       18
102
RTVSPost2010Prop41ColorRGB
 90
        0
102
RTVSPost2010PropOp41
 70
     1
102
RTVSPost2010Prop42
 90
       50
102
RTVSPost2010PropOp42
 70
     1
102
RTVSPost2010Prop43
 90
        3
102
RTVSPost2010PropOp43
 70
     1
102
RTVSPost2010Prop44ColorIndex
 90
        5
102
RTVSPost2010Prop44ColorRGB
 90
      255
102
RTVSPost2010PropOp44
 70
     1
102
RTVSPost2010Prop45
280
     0
102
RTVSPost2010PropOp45
 70
     1
102
RTVSPost2010Prop46
 90
       50
102
RTVSPost2010PropOp46
 70
     1
102
RTVSPost2010Prop47
 90
       50
102
RTVSPost2010PropOp47
 70
     1
102
RTVSPost2010Prop48
 90
       50
102
RTVSPost2010PropOp48
 70
     1
102
RTVSPost2010Prop49
280
     0
102
RTVSPost2010PropOp49
 70
     1
102
RTVSPost2010Prop50
 90
       50
102
RTVSPost2010PropOp50
 70
     1
102
RTVSPost2010Prop51ColorIndex
 90
      256
102
RTVSPost2010Prop51ColorRGB
 90
-16777216
102
RTVSPost2010PropOp51
 70
     0
102
RTVSPost2010Prop52
140
1.0
102
RTVSPost2010PropOp52
 70
     0
102
RTVSPost2010Prop53
 90
        2
102
RTVSPost2010PropOp53
 70
     1
102
RTVSPost2010Prop54
  1
strokes_ogs.tif
102
RTVSPost2010PropOp54
 70
     1
102
RTVSPost2010Prop55
280
     0
102
RTVSPost2010PropOp55
 70
     1
102
RTVSPost2010Prop56
140
1.0
102
RTVSPost2010PropOp56
 70
     1
102
RTVSPost2010Prop57
140
1.0
102
RTVSPost2010PropOp57
 70
     1
102
RTVSPropertyOp0
 70
     1
102
RTVSPropertyOp1
 70
     1
102
RTVSPropertyOp2
 70
     1
102
RTVSPropertyOp3
 70
     1
102
RTVSPropertyOp4
 70
     1
102
RTVSPropertyOp5
 70
     1
102
RTVSPropertyOp6
 70
     1
102
RTVSPropertyOp7
 70
     1
102
RTVSPropertyOp8
 70
     1
102
RTVSPropertyOp9
 70
     1
102
RTVSPropertyOp10
 70
     1
102
RTVSPropertyOp11
 70
     1
102
RTVSPropertyOp12
 70
     1
102
RTVSPropertyOp13
 70
     1
102
RTVSPropertyOp14
 70
     1
102
RTVSPropertyOp15
 70
     1
102
RTVSPropertyOp16
 70
     1
102
RTVSPropertyOp17
 70
     1
102
RTVSPropertyOp18
 70
     1
102
RTVSPropertyOp19
 70
     1
102
RTVSPropertyOp20
 70
     1
102
RTVSPropertyOp21
 70
     1
102
RTVSPropertyOp22
 70
     1
102
RTVSPropertyOp23
 70
     1
102
RTVSPropertyOp24
 70
     1
102
RTVSPropertyOp25
 70
     1
102
RTVSPropertyOp26
 70
     1
102
RTVSPropertyOp27
 70
     1
102
RTVSPropertyOp28
 70
     1
102
RTVSPropertyOp29
 70
     1
102
RTVSPropertyOp30
 70
     1
102
RTVSPropertyOp31
 70
     1
102
RTVSPropertyOp32
 70
     1
102
RTVSPropertyOp33
 70
     1
102
RTVSPropertyOp34
 70
     1
102
RTVSPropertyOp35
 70
     1
102
RTVSPropertyOp36
 70
     1
102
RTVSPropertyOp37
 70
     1
102
RTVSPropertyOp38
 70
     1
102
RTVSPropertyOp39
 70
     1
102
RTVSPropertyOp40
 70
     1
102
RTVSPropertyOp41
 70
     1
102
RTVSPropertyOp42
 70
     1
102
RTVSPropertyOp43
 70
     1
102
RTVSPropertyOp44
 70
     1
102
RTVSPropertyOp45
 70
     1
102
RTVSPropertyOp46
 70
     1
102
RTVSPropertyOp47
 70
     1
102
RTVSPropertyOp48
 70
     1
102
RTVSPropertyOp49
 70
     1
102
RTVSPropertyOp50
 70
     1
102
RTVSPropertyOp51
 70
     0
102
RTVSPropertyOp52
 70
     0
102
RTVSPropertyOp53
 70
     1
102
RTVSPropertyOp54
 70
     1
102
RTVSPropertyOp55
 70
     1
102
RTVSPropertyOp56
 70
     1
102
RTVSPropertyOp57
 70
     1
102
RTVSPropertyOp58
 70
     1
102
RTVSPropertyOp59
 70
     1
102
RTVSPropertyOp60
 70
     1
102
RTVSPropertyOp61
 70
     1
102
RTVSPropertyOp62
 70
     1
  0
XRECORD
  5
EFB
102
{ACAD_REACTORS
330
EFA
102
}
330
EFA
100
AcDbXrecord
280
     1
102
RTVSPost2010Prop28
280
     0
102
RTVSPost2010PropOp28
 70
     1
102
RTVSPost2010Prop29
280
     1
102
RTVSPost2010PropOp29
 70
     1
102
RTVSPost2010Prop30
280
     1
102
RTVSPost2010PropOp30
 70
     1
102
RTVSPost2010Prop31
280
     0
102
RTVSPost2010PropOp31
 70
     1
102
RTVSPost2010Prop32
280
     0
102
RTVSPost2010PropOp32
 70
     1
102
RTVSPost2010Prop33
280
     0
102
RTVSPost2010PropOp33
 70
     1
102
RTVSPost2010Prop34
280
     0
102
RTVSPost2010PropOp34
 70
     1
102
RTVSPost2010Prop35
280
     0
102
RTVSPost2010PropOp35
 70
     1
102
RTVSPost2010Prop36
280
     0
102
RTVSPost2010PropOp36
 70
     1
102
RTVSPost2010Prop37
 90
       50
102
RTVSPost2010PropOp37
 70
     1
102
RTVSPost2010Prop38
140
0.0
102
RTVSPost2010PropOp38
 70
     1
102
RTVSPost2010Prop39
140
1.0
102
RTVSPost2010PropOp39
 70
     1
102
RTVSPost2010Prop40
 90
        0
102
RTVSPost2010PropOp40
 70
     1
102
RTVSPost2010Prop41ColorIndex
 90
       18
102
RTVSPost2010Prop41ColorRGB
 90
        0
102
RTVSPost2010PropOp41
 70
     1
102
RTVSPost2010Prop42
 90
       50
102
RTVSPost2010PropOp42
 70
     1
102
RTVSPost2010Prop43
 90
        3
102
RTVSPost2010PropOp43
 70
     1
102
RTVSPost2010Prop44ColorIndex
 90
        5
102
RTVSPost2010Prop44ColorRGB
 90
      255
102
RTVSPost2010PropOp44
 70
     1
102
RTVSPost2010Prop45
280
     0
102
RTVSPost2010PropOp45
 70
     1
102
RTVSPost2010Prop46
 90
       50
102
RTVSPost2010PropOp46
 70
     1
102
RTVSPost2010Prop47
 90
       50
102
RTVSPost2010PropOp47
 70
     1
102
RTVSPost2010Prop48
 90
       50
102
RTVSPost2010PropOp48
 70
     1
102
RTVSPost2010Prop49
280
     0
102
RTVSPost2010PropOp49
 70
     1
102
RTVSPost2010Prop50
 90
       50
102
RTVSPost2010PropOp50
 70
     1
102
RTVSPost2010Prop51ColorIndex
 90
      256
102
RTVSPost2010Prop51ColorRGB
 90
-16777216
102
RTVSPost2010PropOp51
 70
     0
102
RTVSPost2010Prop52
140
1.0
102
RTVSPost2010PropOp52
 70
     0
102
RTVSPost2010Prop53
 90
        2
102
RTVSPost2010PropOp53
 70
     1
102
RTVSPost2010Prop54
  1
strokes_ogs.tif
102
RTVSPost2010PropOp54
 70
     1
102
RTVSPost2010Prop55
280
     0
102
RTVSPost2010PropOp55
 70
     1
102
RTVSPost2010Prop56
140
1.0
102
RTVSPost2010PropOp56
 70
     1
102
RTVSPost2010Prop57
140
1.0
102
RTVSPost2010PropOp57
 70
     1
102
RTVSPropertyOp0
 70
     1
102
RTVSPropertyOp1
 70
     1
102
RTVSPropertyOp2
 70
     1
102
RTVSPropertyOp3
 70
     1
102
RTVSPropertyOp4
 70
     1
102
RTVSPropertyOp5
 70
     1
102
RTVSPropertyOp6
 70
     1
102
RTVSPropertyOp7
 70
     1
102
RTVSPropertyOp8
 70
     1
102
RTVSPropertyOp9
 70
     1
102
RTVSPropertyOp10
 70
     1
102
RTVSPropertyOp11
 70
     1
102
RTVSPropertyOp12
 70
     1
102
RTVSPropertyOp13
 70
     1
102
RTVSPropertyOp14
 70
     1
102
RTVSPropertyOp15
 70
     1
102
RTVSPropertyOp16
 70
     1
102
RTVSPropertyOp17
 70
     1
102
RTVSPropertyOp18
 70
     1
102
RTVSPropertyOp19
 70
     1
102
RTVSPropertyOp20
 70
     1
102
RTVSPropertyOp21
 70
     1
102
RTVSPropertyOp22
 70
     1
102
RTVSPropertyOp23
 70
     1
102
RTVSPropertyOp24
 70
     1
102
RTVSPropertyOp25
 70
     1
102
RTVSPropertyOp26
 70
     1
102
RTVSPropertyOp27
 70
     1
102
RTVSPropertyOp28
 70
     1
102
RTVSPropertyOp29
 70
     1
102
RTVSPropertyOp30
 70
     1
102
RTVSPropertyOp31
 70
     1
102
RTVSPropertyOp32
 70
     1
102
RTVSPropertyOp33
 70
     1
102
RTVSPropertyOp34
 70
     1
102
RTVSPropertyOp35
 70
     1
102
RTVSPropertyOp36
 70
     1
102
RTVSPropertyOp37
 70
     1
102
RTVSPropertyOp38
 70
     1
102
RTVSPropertyOp39
 70
     1
102
RTVSPropertyOp40
 70
     1
102
RTVSPropertyOp41
 70
     1
102
RTVSPropertyOp42
 70
     1
102
RTVSPropertyOp43
 70
     1
102
RTVSPropertyOp44
 70
     1
102
RTVSPropertyOp45
 70
     1
102
RTVSPropertyOp46
 70
     1
102
RTVSPropertyOp47
 70
     1
102
RTVSPropertyOp48
 70
     1
102
RTVSPropertyOp49
 70
     1
102
RTVSPropertyOp50
 70
     1
102
RTVSPropertyOp51
 70
     0
102
RTVSPropertyOp52
 70
     0
102
RTVSPropertyOp53
 70
     1
102
RTVSPropertyOp54
 70
     1
102
RTVSPropertyOp55
 70
     1
102
RTVSPropertyOp56
 70
     1
102
RTVSPropertyOp57
 70
     1
102
RTVSPropertyOp58
 70
     1
102
RTVSPropertyOp59
 70
     1
102
RTVSPropertyOp60
 70
     1
102
RTVSPropertyOp61
 70
     1
102
RTVSPropertyOp62
 70
     1
  0
XRECORD
  5
EF1
102
{ACAD_REACTORS
330
EF0
102
}
330
EF0
100
AcDbXrecord
280
     1
102
RTVSPost2010Prop28
280
     0
102
RTVSPost2010PropOp28
 70
     1
102
RTVSPost2010Prop29
280
     1
102
RTVSPost2010PropOp29
 70
     1
102
RTVSPost2010Prop30
280
     1
102
RTVSPost2010PropOp30
 70
     1
102
RTVSPost2010Prop31
280
     0
102
RTVSPost2010PropOp31
 70
     1
102
RTVSPost2010Prop32
280
     0
102
RTVSPost2010PropOp32
 70
     1
102
RTVSPost2010Prop33
280
     0
102
RTVSPost2010PropOp33
 70
     1
102
RTVSPost2010Prop34
280
     0
102
RTVSPost2010PropOp34
 70
     1
102
RTVSPost2010Prop35
280
     0
102
RTVSPost2010PropOp35
 70
     1
102
RTVSPost2010Prop36
280
     0
102
RTVSPost2010PropOp36
 70
     1
102
RTVSPost2010Prop37
 90
       50
102
RTVSPost2010PropOp37
 70
     1
102
RTVSPost2010Prop38
140
0.0
102
RTVSPost2010PropOp38
 70
     1
102
RTVSPost2010Prop39
140
1.0
102
RTVSPost2010PropOp39
 70
     1
102
RTVSPost2010Prop40
 90
        0
102
RTVSPost2010PropOp40
 70
     1
102
RTVSPost2010Prop41ColorIndex
 90
       18
102
RTVSPost2010Prop41ColorRGB
 90
        0
102
RTVSPost2010PropOp41
 70
     1
102
RTVSPost2010Prop42
 90
       50
102
RTVSPost2010PropOp42
 70
     1
102
RTVSPost2010Prop43
 90
        3
102
RTVSPost2010PropOp43
 70
     1
102
RTVSPost2010Prop44ColorIndex
 90
        5
102
RTVSPost2010Prop44ColorRGB
 90
      255
102
RTVSPost2010PropOp44
 70
     1
102
RTVSPost2010Prop45
280
     0
102
RTVSPost2010PropOp45
 70
     1
102
RTVSPost2010Prop46
 90
       50
102
RTVSPost2010PropOp46
 70
     1
102
RTVSPost2010Prop47
 90
       50
102
RTVSPost2010PropOp47
 70
     1
102
RTVSPost2010Prop48
 90
       50
102
RTVSPost2010PropOp48
 70
     1
102
RTVSPost2010Prop49
280
     0
102
RTVSPost2010PropOp49
 70
     1
102
RTVSPost2010Prop50
 90
       50
102
RTVSPost2010PropOp50
 70
     1
102
RTVSPost2010Prop51ColorIndex
 90
      256
102
RTVSPost2010Prop51ColorRGB
 90
-16777216
102
RTVSPost2010PropOp51
 70
     0
102
RTVSPost2010Prop52
140
1.0
102
RTVSPost2010PropOp52
 70
     0
102
RTVSPost2010Prop53
 90
        2
102
RTVSPost2010PropOp53
 70
     1
102
RTVSPost2010Prop54
  1
strokes_ogs.tif
102
RTVSPost2010PropOp54
 70
     1
102
RTVSPost2010Prop55
280
     0
102
RTVSPost2010PropOp55
 70
     1
102
RTVSPost2010Prop56
140
1.0
102
RTVSPost2010PropOp56
 70
     1
102
RTVSPost2010Prop57
140
1.0
102
RTVSPost2010PropOp57
 70
     1
102
RTVSPropertyOp0
 70
     1
102
RTVSPropertyOp1
 70
     1
102
RTVSPropertyOp2
 70
     1
102
RTVSPropertyOp3
 70
     1
102
RTVSPropertyOp4
 70
     1
102
RTVSPropertyOp5
 70
     1
102
RTVSPropertyOp6
 70
     1
102
RTVSPropertyOp7
 70
     1
102
RTVSPropertyOp8
 70
     1
102
RTVSPropertyOp9
 70
     1
102
RTVSPropertyOp10
 70
     1
102
RTVSPropertyOp11
 70
     1
102
RTVSPropertyOp12
 70
     1
102
RTVSPropertyOp13
 70
     1
102
RTVSPropertyOp14
 70
     1
102
RTVSPropertyOp15
 70
     1
102
RTVSPropertyOp16
 70
     1
102
RTVSPropertyOp17
 70
     1
102
RTVSPropertyOp18
 70
     1
102
RTVSPropertyOp19
 70
     1
102
RTVSPropertyOp20
 70
     1
102
RTVSPropertyOp21
 70
     1
102
RTVSPropertyOp22
 70
     1
102
RTVSPropertyOp23
 70
     1
102
RTVSPropertyOp24
 70
     1
102
RTVSPropertyOp25
 70
     1
102
RTVSPropertyOp26
 70
     1
102
RTVSPropertyOp27
 70
     1
102
RTVSPropertyOp28
 70
     1
102
RTVSPropertyOp29
 70
     1
102
RTVSPropertyOp30
 70
     1
102
RTVSPropertyOp31
 70
     1
102
RTVSPropertyOp32
 70
     1
102
RTVSPropertyOp33
 70
     1
102
RTVSPropertyOp34
 70
     1
102
RTVSPropertyOp35
 70
     1
102
RTVSPropertyOp36
 70
     1
102
RTVSPropertyOp37
 70
     1
102
RTVSPropertyOp38
 70
     1
102
RTVSPropertyOp39
 70
     1
102
RTVSPropertyOp40
 70
     1
102
RTVSPropertyOp41
 70
     1
102
RTVSPropertyOp42
 70
     1
102
RTVSPropertyOp43
 70
     1
102
RTVSPropertyOp44
 70
     1
102
RTVSPropertyOp45
 70
     1
102
RTVSPropertyOp46
 70
     1
102
RTVSPropertyOp47
 70
     1
102
RTVSPropertyOp48
 70
     1
102
RTVSPropertyOp49
 70
     1
102
RTVSPropertyOp50
 70
     1
102
RTVSPropertyOp51
 70
     0
102
RTVSPropertyOp52
 70
     0
102
RTVSPropertyOp53
 70
     1
102
RTVSPropertyOp54
 70
     1
102
RTVSPropertyOp55
 70
     1
102
RTVSPropertyOp56
 70
     1
102
RTVSPropertyOp57
 70
     1
102
RTVSPropertyOp58
 70
     1
102
RTVSPropertyOp59
 70
     1
102
RTVSPropertyOp60
 70
     1
102
RTVSPropertyOp61
 70
     1
102
RTVSPropertyOp62
 70
     1
  0
XRECORD
  5
EE5
102
{ACAD_REACTORS
330
EE4
102
}
330
EE4
100
AcDbXrecord
280
     1
102
RTVSPost2010Prop28
280
     0
102
RTVSPost2010PropOp28
 70
     1
102
RTVSPost2010Prop29
280
     1
102
RTVSPost2010PropOp29
 70
     1
102
RTVSPost2010Prop30
280
     1
102
RTVSPost2010PropOp30
 70
     1
102
RTVSPost2010Prop31
280
     0
102
RTVSPost2010PropOp31
 70
     1
102
RTVSPost2010Prop32
280
     0
102
RTVSPost2010PropOp32
 70
     1
102
RTVSPost2010Prop33
280
     0
102
RTVSPost2010PropOp33
 70
     1
102
RTVSPost2010Prop34
280
     0
102
RTVSPost2010PropOp34
 70
     1
102
RTVSPost2010Prop35
280
     0
102
RTVSPost2010PropOp35
 70
     1
102
RTVSPost2010Prop36
280
     0
102
RTVSPost2010PropOp36
 70
     1
102
RTVSPost2010Prop37
 90
       50
102
RTVSPost2010PropOp37
 70
     1
102
RTVSPost2010Prop38
140
0.0
102
RTVSPost2010PropOp38
 70
     1
102
RTVSPost2010Prop39
140
1.0
102
RTVSPost2010PropOp39
 70
     1
102
RTVSPost2010Prop40
 90
        0
102
RTVSPost2010PropOp40
 70
     1
102
RTVSPost2010Prop41ColorIndex
 90
       18
102
RTVSPost2010Prop41ColorRGB
 90
        0
102
RTVSPost2010PropOp41
 70
     1
102
RTVSPost2010Prop42
 90
       50
102
RTVSPost2010PropOp42
 70
     1
102
RTVSPost2010Prop43
 90
        3
102
RTVSPost2010PropOp43
 70
     1
102
RTVSPost2010Prop44ColorIndex
 90
        5
102
RTVSPost2010Prop44ColorRGB
 90
      255
102
RTVSPost2010PropOp44
 70
     1
102
RTVSPost2010Prop45
280
     0
102
RTVSPost2010PropOp45
 70
     1
102
RTVSPost2010Prop46
 90
       50
102
RTVSPost2010PropOp46
 70
     1
102
RTVSPost2010Prop47
 90
       50
102
RTVSPost2010PropOp47
 70
     1
102
RTVSPost2010Prop48
 90
       50
102
RTVSPost2010PropOp48
 70
     1
102
RTVSPost2010Prop49
280
     0
102
RTVSPost2010PropOp49
 70
     1
102
RTVSPost2010Prop50
 90
       50
102
RTVSPost2010PropOp50
 70
     1
102
RTVSPost2010Prop51ColorIndex
 90
      256
102
RTVSPost2010Prop51ColorRGB
 90
-16777216
102
RTVSPost2010PropOp51
 70
     0
102
RTVSPost2010Prop52
140
1.0
102
RTVSPost2010PropOp52
 70
     0
102
RTVSPost2010Prop53
 90
        2
102
RTVSPost2010PropOp53
 70
     1
102
RTVSPost2010Prop54
  1
strokes_ogs.tif
102
RTVSPost2010PropOp54
 70
     1
102
RTVSPost2010Prop55
280
     0
102
RTVSPost2010PropOp55
 70
     1
102
RTVSPost2010Prop56
140
1.0
102
RTVSPost2010PropOp56
 70
     1
102
RTVSPost2010Prop57
140
1.0
102
RTVSPost2010PropOp57
 70
     1
102
RTVSPropertyOp0
 70
     1
102
RTVSPropertyOp1
 70
     1
102
RTVSPropertyOp2
 70
     1
102
RTVSPropertyOp3
 70
     1
102
RTVSPropertyOp4
 70
     1
102
RTVSPropertyOp5
 70
     1
102
RTVSPropertyOp6
 70
     1
102
RTVSPropertyOp7
 70
     1
102
RTVSPropertyOp8
 70
     1
102
RTVSPropertyOp9
 70
     1
102
RTVSPropertyOp10
 70
     1
102
RTVSPropertyOp11
 70
     1
102
RTVSPropertyOp12
 70
     1
102
RTVSPropertyOp13
 70
     1
102
RTVSPropertyOp14
 70
     1
102
RTVSPropertyOp15
 70
     1
102
RTVSPropertyOp16
 70
     1
102
RTVSPropertyOp17
 70
     1
102
RTVSPropertyOp18
 70
     1
102
RTVSPropertyOp19
 70
     1
102
RTVSPropertyOp20
 70
     1
102
RTVSPropertyOp21
 70
     1
102
RTVSPropertyOp22
 70
     1
102
RTVSPropertyOp23
 70
     1
102
RTVSPropertyOp24
 70
     1
102
RTVSPropertyOp25
 70
     1
102
RTVSPropertyOp26
 70
     1
102
RTVSPropertyOp27
 70
     1
102
RTVSPropertyOp28
 70
     1
102
RTVSPropertyOp29
 70
     1
102
RTVSPropertyOp30
 70
     1
102
RTVSPropertyOp31
 70
     1
102
RTVSPropertyOp32
 70
     1
102
RTVSPropertyOp33
 70
     1
102
RTVSPropertyOp34
 70
     1
102
RTVSPropertyOp35
 70
     1
102
RTVSPropertyOp36
 70
     1
102
RTVSPropertyOp37
 70
     1
102
RTVSPropertyOp38
 70
     1
102
RTVSPropertyOp39
 70
     1
102
RTVSPropertyOp40
 70
     1
102
RTVSPropertyOp41
 70
     1
102
RTVSPropertyOp42
 70
     1
102
RTVSPropertyOp43
 70
     1
102
RTVSPropertyOp44
 70
     1
102
RTVSPropertyOp45
 70
     1
102
RTVSPropertyOp46
 70
     1
102
RTVSPropertyOp47
 70
     1
102
RTVSPropertyOp48
 70
     1
102
RTVSPropertyOp49
 70
     1
102
RTVSPropertyOp50
 70
     1
102
RTVSPropertyOp51
 70
     0
102
RTVSPropertyOp52
 70
     0
102
RTVSPropertyOp53
 70
     1
102
RTVSPropertyOp54
 70
     1
102
RTVSPropertyOp55
 70
     1
102
RTVSPropertyOp56
 70
     1
102
RTVSPropertyOp57
 70
     1
102
RTVSPropertyOp58
 70
     1
102
RTVSPropertyOp59
 70
     1
102
RTVSPropertyOp60
 70
     1
102
RTVSPropertyOp61
 70
     1
102
RTVSPropertyOp62
 70
     1
  0
XRECORD
  5
EFD
102
{ACAD_REACTORS
330
EFC
102
}
330
EFC
100
AcDbXrecord
280
     1
102
RTVSPost2010Prop28
280
     0
102
RTVSPost2010PropOp28
 70
     1
102
RTVSPost2010Prop29
280
     1
102
RTVSPost2010PropOp29
 70
     1
102
RTVSPost2010Prop30
280
     1
102
RTVSPost2010PropOp30
 70
     1
102
RTVSPost2010Prop31
280
     0
102
RTVSPost2010PropOp31
 70
     1
102
RTVSPost2010Prop32
280
     0
102
RTVSPost2010PropOp32
 70
     1
102
RTVSPost2010Prop33
280
     0
102
RTVSPost2010PropOp33
 70
     1
102
RTVSPost2010Prop34
280
     0
102
RTVSPost2010PropOp34
 70
     1
102
RTVSPost2010Prop35
280
     0
102
RTVSPost2010PropOp35
 70
     1
102
RTVSPost2010Prop36
280
     0
102
RTVSPost2010PropOp36
 70
     1
102
RTVSPost2010Prop37
 90
       50
102
RTVSPost2010PropOp37
 70
     1
102
RTVSPost2010Prop38
140
0.0
102
RTVSPost2010PropOp38
 70
     1
102
RTVSPost2010Prop39
140
1.0
102
RTVSPost2010PropOp39
 70
     1
102
RTVSPost2010Prop40
 90
        0
102
RTVSPost2010PropOp40
 70
     1
102
RTVSPost2010Prop41ColorIndex
 90
       18
102
RTVSPost2010Prop41ColorRGB
 90
        0
102
RTVSPost2010PropOp41
 70
     1
102
RTVSPost2010Prop42
 90
       50
102
RTVSPost2010PropOp42
 70
     1
102
RTVSPost2010Prop43
 90
        3
102
RTVSPost2010PropOp43
 70
     1
102
RTVSPost2010Prop44ColorIndex
 90
        5
102
RTVSPost2010Prop44ColorRGB
 90
      255
102
RTVSPost2010PropOp44
 70
     1
102
RTVSPost2010Prop45
280
     0
102
RTVSPost2010PropOp45
 70
     1
102
RTVSPost2010Prop46
 90
       50
102
RTVSPost2010PropOp46
 70
     1
102
RTVSPost2010Prop47
 90
       50
102
RTVSPost2010PropOp47
 70
     1
102
RTVSPost2010Prop48
 90
       50
102
RTVSPost2010PropOp48
 70
     1
102
RTVSPost2010Prop49
280
     0
102
RTVSPost2010PropOp49
 70
     1
102
RTVSPost2010Prop50
 90
       50
102
RTVSPost2010PropOp50
 70
     1
102
RTVSPost2010Prop51ColorIndex
 90
      256
102
RTVSPost2010Prop51ColorRGB
 90
-16777216
102
RTVSPost2010PropOp51
 70
     0
102
RTVSPost2010Prop52
140
1.0
102
RTVSPost2010PropOp52
 70
     0
102
RTVSPost2010Prop53
 90
        2
102
RTVSPost2010PropOp53
 70
     1
102
RTVSPost2010Prop54
  1
strokes_ogs.tif
102
RTVSPost2010PropOp54
 70
     1
102
RTVSPost2010Prop55
280
     0
102
RTVSPost2010PropOp55
 70
     1
102
RTVSPost2010Prop56
140
1.0
102
RTVSPost2010PropOp56
 70
     1
102
RTVSPost2010Prop57
140
1.0
102
RTVSPost2010PropOp57
 70
     1
102
RTVSPropertyOp0
 70
     1
102
RTVSPropertyOp1
 70
     1
102
RTVSPropertyOp2
 70
     1
102
RTVSPropertyOp3
 70
     1
102
RTVSPropertyOp4
 70
     1
102
RTVSPropertyOp5
 70
     1
102
RTVSPropertyOp6
 70
     1
102
RTVSPropertyOp7
 70
     1
102
RTVSPropertyOp8
 70
     1
102
RTVSPropertyOp9
 70
     1
102
RTVSPropertyOp10
 70
     1
102
RTVSPropertyOp11
 70
     1
102
RTVSPropertyOp12
 70
     1
102
RTVSPropertyOp13
 70
     1
102
RTVSPropertyOp14
 70
     1
102
RTVSPropertyOp15
 70
     1
102
RTVSPropertyOp16
 70
     1
102
RTVSPropertyOp17
 70
     1
102
RTVSPropertyOp18
 70
     1
102
RTVSPropertyOp19
 70
     1
102
RTVSPropertyOp20
 70
     1
102
RTVSPropertyOp21
 70
     1
102
RTVSPropertyOp22
 70
     1
102
RTVSPropertyOp23
 70
     1
102
RTVSPropertyOp24
 70
     1
102
RTVSPropertyOp25
 70
     1
102
RTVSPropertyOp26
 70
     1
102
RTVSPropertyOp27
 70
     1
102
RTVSPropertyOp28
 70
     1
102
RTVSPropertyOp29
 70
     1
102
RTVSPropertyOp30
 70
     1
102
RTVSPropertyOp31
 70
     1
102
RTVSPropertyOp32
 70
     1
102
RTVSPropertyOp33
 70
     1
102
RTVSPropertyOp34
 70
     1
102
RTVSPropertyOp35
 70
     1
102
RTVSPropertyOp36
 70
     1
102
RTVSPropertyOp37
 70
     1
102
RTVSPropertyOp38
 70
     1
102
RTVSPropertyOp39
 70
     1
102
RTVSPropertyOp40
 70
     1
102
RTVSPropertyOp41
 70
     1
102
RTVSPropertyOp42
 70
     1
102
RTVSPropertyOp43
 70
     1
102
RTVSPropertyOp44
 70
     1
102
RTVSPropertyOp45
 70
     1
102
RTVSPropertyOp46
 70
     1
102
RTVSPropertyOp47
 70
     1
102
RTVSPropertyOp48
 70
     1
102
RTVSPropertyOp49
 70
     1
102
RTVSPropertyOp50
 70
     1
102
RTVSPropertyOp51
 70
     0
102
RTVSPropertyOp52
 70
     0
102
RTVSPropertyOp53
 70
     1
102
RTVSPropertyOp54
 70
     1
102
RTVSPropertyOp55
 70
     1
102
RTVSPropertyOp56
 70
     1
102
RTVSPropertyOp57
 70
     1
102
RTVSPropertyOp58
 70
     1
102
RTVSPropertyOp59
 70
     1
102
RTVSPropertyOp60
 70
     1
102
RTVSPropertyOp61
 70
     1
102
RTVSPropertyOp62
 70
     1
  0
ENDSEC
  0
EOF
